#TITLE:PARANORMAL;
#SUBTITLE:;
#ARTIST:Inspector K;
#TITLETRANSLIT:;
#SUBTITLETRANSLIT:;
#ARTISTTRANSLIT:;
#CREDIT:;
#BANNER:bn.png;
#BACKGROUND:bg.png;
#LYRICSPATH:;
#CDTITLE:;
#MUSIC:PARANORMAL.mp3;
#OFFSET:-0.015;
#SAMPLESTART:38.404;
#SAMPLELENGTH:12.000;
#SELECTABLE:YES;
#BPMS:0.000=87.500,16.000=175.000,160.000=87.500,192.000=43.750,199.750=45.969,200.000=175.000,264.000=87.500,274.000=175.000;
#STOPS:;
#BGCHANGES:;

//---------------dance-single - ----------------
#NOTES:
     dance-single:
     :
     Hard:
     9:
     0.481,0.730,0.127,0.223,0.215:
0000
0000
0000
0000
,
0000
0000
0000
0000
,
0000
0000
0000
0000
,
0000
0000
0000
0000
,
1010
0000
0010
0000
0100
0001
1000
0010
,
0100
0000
0010
0000
0010
0100
0001
1000
,
0010
0000
0100
0000
0100
0010
0100
0001
,
1000
0100
0010
0001
2000
0000
0000
0000
,
3001
0000
0001
0100
0000
0100
0001
0010
,
0000
1000
0000
0010
0001
0100
1000
0100
,
0010
0000
0010
1000
0000
1000
0001
0010
,
0000
0010
0000
0010
1000
0010
0001
0100
,
0010
0000
0000
0110
0000
0001
0000
1000
,
0000
0010
0000
1000
0001
0010
0100
1000
,
0001
0000
0001
0100
0000
0000
1010
0000
,
0000
1100
0000
0100
0010
0001
0010
0001
,
1000
0000
0010
1000
0000
1000
0001
0010
,
0000
0110
0000
0010
0001
0010
1000
0010
,
0001
0000
0001
0100
0000
0100
0100
0010
,
0000
1000
0000
1000
0001
1000
0100
0010
,
0001
0000
0000
1100
0000
1000
0000
1000
,
0000
0010
0000
0010
0100
0010
0100
0001
,
1000
0000
0000
0101
0000
0000
1000
0000
,
0000
0110
0000
1000
0001
0001
0220
0330
,
0001
1000
0000
1000
0001
0000
0001
1000
,
0000
1000
0001
0000
0002
0000
0203
0000
,
0310
0100
0000
0010
1000
0000
1000
0100
,
0000
0100
0010
0000
0020
0000
0230
0000
,
1300
0100
0000
0010
0001
0000
0001
0100
,
0000
0100
0010
0000
2002
0000
3003
0000
,
0001
0100
0000
0010
1000
0000
0001
0100
,
0000
0010
1000
0000
0010
0010
1000
1000
,
0001
0010
0000
0100
1000
0000
0100
0010
,
0000
0010
0001
0000
2000
0000
3020
0000
,
0130
0010
0000
1000
0010
0000
0010
0100
,
0000
0100
0010
0000
0020
0000
0230
0000
,
0301
1000
0000
1000
0100
0000
0100
0010
,
0000
0010
0001
0000
0011
0022
0000
0033
,
0001
0100
0000
0100
0010
0000
0010
1000
,
0000
1000
0001
0000
0001
0010
0100
1000
,
0001
0100
0010
1000
0000
0000
0000
0000
0000
0000
0000
0000
0000
0000
0000
0000
,
1000
0100
0010
0001
0000
0000
0000
0000
0000
0000
0000
0000
0000
0000
0000
0000
,
0001
0010
0100
1000
0000
0000
0000
0000
0000
0000
0000
0000
0000
0000
0000
0000
,
1000
0010
0100
0001
0000
0000
0000
0000
0000
0000
0000
0000
0000
0000
0000
0000
,
1000
0000
0001
0000
0100
0000
0010
1000
0000
0010
0000
1000
0000
0010
0000
0100
,
0010
0000
1000
0000
0001
0000
0010
0100
0000
0100
0000
0100
0000
0010
0000
0001
,
0001
0000
1000
0010
0100
0000
0100
0001
0000
1000
0000
0100
0000
1000
0000
0100
,
0010
0000
0001
0010
0100
0000
0100
1000
0000
0010
0000
0100
0001
0000
1000
0000
,
0001
0000
0000
0001
0000
0000
1000
0000
0000
1000
0000
0000
0010
0000
1000
0000
0010
0000
0000
0100
0000
0000
0100
0000
0000
0010
0000
0000
1000
0000
0001
0000
,
0010
0000
0000
0100
0000
0000
1000
0000
0000
0100
0000
0000
1100
0000
0000
0000
1000
0000
0000
0100
0000
0000
0010
0000
0000
0001
0000
0000
2002
0000
3003
0000
,
0100
0010
0000
0100
0001
0000
0001
0010
,
0000
0001
1000
0000
0010
2000
0100
0000
,
3100
0010
0000
0100
1000
0000
0100
0010
,
0000
0100
1000
0000
0001
0200
2000
0300
,
3100
0100
0000
0010
0010
0000
1000
1000
,
0000
0001
0001
0000
0001
0100
0010
0100
,
0001
0010
0000
0100
1000
0000
1000
0010
,
0000
0010
0100
0000
0100
0001
0010
0100
,
1000
0001
0000
0001
0100
0000
0100
0010
,
0000
0010
1000
0000
2010
0000
3200
0000
,
0310
0100
0000
0100
1000
0000
1000
0001
,
0000
0001
0100
0000
0020
1000
2030
0000
,
3100
0010
0000
0010
0100
0000
1000
0002
,
0003
0001
0100
0000
0001
0200
1300
0100
,
0010
1000
0000
0010
0001
0000
0010
2000
,
3000
1000
0100
0000
1000
0200
0000
0000
,
0310
0100
1000
0000
0010
0000
1000
0001
0000
0100
0000
1000
0000
0100
0010
1000
,
0001
0010
0100
0000
1000
0000
0100
1000
0000
0010
0000
0100
0000
0001
0010
0100
,
1100
0000
0000
0000
;

//---------------dance-single - ----------------
#NOTES:
     dance-single:
     :
     Medium:
     6:
     0.360,0.351,0.048,0.008,0.000:
0000
0000
0000
0000
,
0000
0000
0000
0000
,
0000
0000
0000
0000
,
0000
0000
0000
0000
,
0110
0000
0010
0000
1000
0010
1000
0000
,
0010
0000
0100
0000
0001
0100
0001
0000
,
0001
0000
1000
0000
0001
0010
0001
0000
,
0001
0010
0200
0000
,
0310
0000
0001
0010
0000
0001
0000
0100
,
0000
0010
0000
1000
0010
0000
0010
0000
,
0100
0000
0010
1000
0000
0001
0000
0010
,
0000
1000
0000
0010
0100
0000
0100
0000
,
1000
0000
0100
1000
0000
0010
0000
0100
,
0000
0010
0000
0100
0010
0000
1000
0000
,
0001
0000
0000
1000
0000
0000
0001
0000
,
0000
0100
0000
0010
1000
0010
1000
0010
,
0100
0000
0010
1000
0000
0001
0000
0010
,
0000
0100
0000
0010
0001
0010
0001
0000
,
0001
0000
0001
0100
0000
0010
1000
0001
,
0000
1000
0000
0001
0100
0000
0100
0000
,
0001
0000
1000
0100
0000
1000
0000
0100
,
0000
0010
0000
0100
1000
0010
0100
0001
,
1000
0000
0000
1001
0000
0000
0010
0000
,
0000
0101
0000
0001
0100
0100
0010
0000
,
0010
0100
0000
0010
0100
0000
0010
0100
,
0000
0010
0100
0000
0010
0000
0010
0000
,
1000
0010
0000
1000
0010
0000
1000
0010
,
0000
1000
0010
0000
1000
0000
0001
0000
,
0010
0001
0000
0010
0001
0000
0010
0001
,
0000
0010
0001
0000
0011
0000
0000
0000
,
0001
0100
0000
0001
0100
0000
0001
0100
,
0000
0001
0100
0000
0001
0000
0100
0000
,
0010
0100
0000
0010
0100
0000
0010
0100
,
0000
0010
0100
0000
0010
0000
1000
0000
,
0001
1000
0000
0001
1000
0000
0001
1000
,
0000
0001
1000
0000
0001
0000
1000
0000
,
0100
1000
0000
0100
1000
0000
0100
1000
,
0000
0100
1000
0000
0100
0000
0000
0000
,
0010
0001
0000
0010
0001
0000
0010
0100
,
0000
0010
0100
0000
0010
0100
1000
0000
,
0001
1000
0100
1000
,
0010
0100
0001
1000
,
0100
1000
0100
1000
,
0010
0010
0100
0001
,
1000
0001
0100
0000
0010
0000
0100
0000
,
0001
1000
0100
0000
1000
0000
0001
0000
,
0100
0100
0010
0000
0100
0000
0001
0000
,
1000
0100
0010
0000
0010
0100
1000
0000
,
1001
0000
0000
0001
0100
0000
0000
0100
,
0100
0000
0000
0010
0010
0000
0000
0000
,
1000
0001
0000
1000
0001
0000
1000
0001
,
0000
1000
0001
0000
1000
0000
0001
0000
,
0100
0001
0000
0100
0001
0000
0100
0001
,
0000
0100
0001
0000
0001
0000
0100
0000
,
0010
0100
0000
0100
0010
0000
0010
0100
,
0000
0100
0010
0000
0010
0000
1000
0000
,
0001
1000
0000
1000
0001
0000
0001
1000
,
0000
1000
0001
0000
0001
0010
0100
0000
,
0100
1000
0000
1000
0100
0000
0100
0010
,
0000
0010
0001
0000
0010
0000
0001
0000
,
0001
0100
0000
0100
0010
0000
0010
1000
,
0000
1000
0001
0000
1000
0000
0001
0000
,
0001
0010
0000
0010
0100
0000
0100
1000
,
0000
1000
0100
0000
1000
0000
0010
0000
,
0100
0010
0000
0010
1000
0000
1000
0010
,
0000
0010
0100
0000
0010
1000
0001
0010
,
0100
0000
1000
0000
0100
0010
0001
0000
,
0100
0000
1000
0000
0010
0100
0001
0000
,
1001
0000
0000
0000
;

//---------------dance-single - ----------------
#NOTES:
     dance-single:
     :
     Easy:
     3:
     0.198,0.297,0.064,0.016,0.000:
0000
0000
0000
0000
,
0000
0000
0000
0000
,
0000
0000
0000
0000
,
0000
0000
0000
0000
,
1001
0000
0001
0000
,
0100
0100
0001
0000
,
1000
0000
0010
0000
,
0200
0000
0000
0000
,
0310
0000
1000
0000
,
0001
0001
1000
0000
,
0100
0000
1000
0000
,
0010
0010
0100
0000
,
0001
0000
1000
0000
,
0010
0010
0100
0001
,
1000
0000
1000
0000
,
0001
0000
1000
0001
,
0100
0000
0001
0000
,
0010
0100
0100
1000
,
0100
0000
1000
0000
,
0010
0100
0001
0001
,
1000
0000
0001
0000
,
0100
0000
0001
0001
,
0010
0000
0001
0000
,
0100
0000
0010
1001
,
0001
0000
0100
0000
,
0010
0000
1000
0010
,
0100
0000
0100
0000
,
0100
0000
0100
0010
,
1000
0000
0001
0000
,
0100
0000
0110
0000
,
0010
0000
1000
0000
,
0001
0000
1000
1000
,
0001
0000
0100
0000
,
0001
0000
0100
0010
,
1000
0000
0001
0000
,
1000
0000
0100
0100
,
0010
0000
0100
0000
,
1000
0000
0001
0001
,
1000
0000
0001
0000
,
0100
0000
0010
1000
,
1001
0000
0000
0000
,
0101
0000
0000
0000
,
1010
0000
0000
0000
,
0110
0000
0000
0000
,
0001
0100
0010
0000
0100
0000
0010
0000
,
1000
0010
1000
0000
0010
0000
1000
0000
,
0001
0001
1000
0000
0001
0000
1000
0000
,
0100
0100
0010
0000
0200
0000
0000
0000
,
1300
0000
0000
1000
0001
0000
0000
0001
,
0100
0000
0100
0000
,
0010
0000
0100
0000
,
0010
1000
0001
0001
,
1000
0000
0001
0000
,
0100
0010
1000
0001
,
0010
0000
0001
0000
,
0010
0000
0001
1000
,
0001
0000
0100
0000
,
0001
0000
1000
1000
,
0100
0000
1000
0000
,
0010
0000
0100
0100
,
0010
0000
1000
0000
,
0001
0000
1000
1000
,
0001
0000
1000
0000
,
0010
0000
1000
1000
,
0100
0000
1000
0000
,
0010
0000
0100
0001
,
1000
0000
0000
0000
,
0001
0000
0000
0000
,
1001
0000
0000
0000
;

//---------------dance-single - ----------------
#NOTES:
     dance-single:
     :
     Challenge:
     10:
     0.618,0.953,0.318,0.350,0.433:
0000
0000
0000
0000
,
0000
0000
0000
0000
,
0000
0000
0000
0000
,
0000
0000
0000
0000
,
0001
0010
0010
0001
0100
1000
0100
0010
,
1000
0001
0010
1000
0010
0001
0100
0010
,
1000
0001
0010
0100
1000
0100
0001
1000
,
0010
1000
0100
0010
0200
0000
0000
0000
,
1300
0000
0010
0100
0000
0101
0000
1100
,
0000
1001
0000
0001
0100
0100
0010
0010
,
0110
0000
0010
1000
0000
1000
0100
0001
,
0000
0101
0000
0001
0100
0100
0010
0010
,
0100
0000
0010
0001
0000
0001
0100
1000
,
0000
1100
0000
1000
0100
0100
0010
0010
,
0200
0000
0000
0001
0000
0000
1000
0000
,
0000
0010
0000
1300
1000
0010
1000
0001
,
0010
0000
0010
0100
0000
0100
0010
0001
,
0000
0011
0000
0001
0100
1000
0100
0001
,
0010
0000
0001
0010
0000
0001
0100
0010
,
0000
0110
0000
0010
1000
1000
0001
0001
,
1001
0000
0001
0100
0000
0010
1000
0010
,
0000
0100
0000
0010
1000
0001
0010
0100
,
0200
0000
0000
1000
0000
0000
0010
0000
,
0000
0001
0000
1300
0010
0100
0202
0303
,
0001
0200
0000
0310
2000
0000
3010
0200
,
0000
0000
0310
0000
2000
0000
0000
0000
3001
1000
0001
1000
0020
0000
0000
0000
,
0130
0002
0000
0013
0002
0000
0013
0200
,
0000
0000
1300
0000
0200
0000
0000
0000
1300
0100
1000
0100
0020
0000
0000
0000
,
0130
0020
0000
0130
2000
0000
3001
0200
,
0000
0000
0000
0000
0000
0000
0000
0000
0000
0000
0000
0000
0000
0000
0000
0000
0000
0000
0000
0000
0000
0000
0000
0000
0310
0000
0000
0000
0000
0000
0000
0000
0000
0000
0000
0000
0000
0000
0000
0000
0000
0000
0000
0000
0000
0000
0000
0000
2000
0000
0000
0000
0000
0000
0000
0000
0000
0000
0000
0000
0000
0000
0000
0000
0000
0000
0000
0000
0000
0000
0000
0000
0000
0000
0000
0000
0000
0000
0000
0000
0000
0000
0000
0000
0000
0000
0000
0000
0000
0000
0000
0000
0000
0000
0000
0000
3001
0000
0000
0000
0000
0000
0000
0000
1000
0000
0000
0000
0000
0000
0000
0000
0000
0000
0001
0000
0000
0000
0000
0000
0000
0000
0000
0000
1000
0000
0000
0000
0000
0000
0000
0000
0000
0000
0000
0000
0000
0000
0000
0000
0000
0000
0000
0000
0000
0000
0000
0000
0000
0000
0000
0000
0000
0000
0000
0000
0000
0000
0000
0000
0000
0000
0000
0000
0000
0000
0000
0000
0000
0000
0000
0000
0000
0000
0000
0000
0000
0000
0000
0000
0000
0000
0000
0000
0000
0000
0000
0000
0000
0000
0000
0000
,
0010
0200
0000
0310
2000
0000
3001
0020
,
0000
0000
0031
0000
0200
0000
0000
0000
0310
0000
0010
0000
0010
0100
0010
0100
,
0001
1001
0000
0001
0101
0000
0100
0110
,
0000
0000
0000
0010
0000
0000
1010
0000
0000
0000
0000
1000
0020
0000
0000
2030
0000
0000
0000
0000
0000
0000
0000
0000
,
3100
0100
0000
0010
0001
0000
0001
0100
,
0000
0000
0000
0000
0000
0000
0100
0000
0000
0000
0000
0000
0010
0000
0000
0000
0000
0000
0000
0000
0000
0000
0000
0000
0100
0000
0000
0000
0001
0000
0100
0000
0000
0001
0000
0000
0200
0000
0000
0000
0000
0000
0000
0000
0000
0000
0000
0000
,
0310
1010
0000
1000
1001
0000
0001
0011
,
0000
0000
0001
0000
1001
0000
0000
0000
0101
0000
0002
0000
0000
0000
1003
0001
,
0100
0010
0100
0000
0000
0000
0001
1000
0001
0000
0000
0000
0001
0100
0001
0000
,
0000
0000
0100
0010
0100
0000
0000
0000
0010
1000
0010
0000
1000
0000
0001
0000
,
0101
0100
0110
1001
0000
0000
0000
0000
0000
0000
0000
0000
0000
0000
0000
0000
,
1100
0010
0001
0110
0000
0000
0000
0000
0000
0000
0000
0000
0000
0000
0000
0000
,
0110
0010
1001
0101
0000
0000
0000
0000
0000
0000
0000
0000
0000
0000
0000
0000
,
0101
0010
0100
1100
0000
0000
0000
0000
0000
0000
0000
0000
0000
0000
0000
0000
,
1000
0100
0001
0000
0100
0000
0001
0100
0000
0100
0000
0010
0000
0010
0001
0010
,
0100
1000
0100
0000
1000
0000
0100
0001
0000
0100
0000
0010
0000
0001
0100
1000
,
0100
0000
0010
0010
0010
0000
1000
0001
0000
0010
0000
0100
0000
1000
0100
0001
,
0100
0000
0100
1000
0010
0000
0100
0010
0000
1000
0000
0001
0010
0100
1000
0001
,
0001
0000
0000
0100
0000
0000
1000
0000
0000
0010
0000
0000
0001
0000
0100
0000
1000
0000
0000
0010
0000
0000
0001
0000
0000
0100
0000
0000
1000
0000
0010
0000
,
0101
0000
0000
1100
0000
0000
0011
0000
0000
1010
0000
0000
1001
0000
0000
0000
0101
0000
0000
1100
0000
0000
1010
0000
0000
0011
0000
0000
0220
0000
0330
0000
,
0010
0001
0000
0001
0100
0000
0100
0010
,
0000
0000
0010
0000
1000
0000
0000
0000
1000
0000
0020
0000
0130
0010
0100
0010
,
0100
0001
0000
0001
0100
0000
0100
0010
,
0000
0000
0010
0000
1000
0000
0000
0000
1000
0000
0010
0000
0100
0001
0100
0001
,
0200
0000
0020
0000
0330
0000
0020
0000
2000
0000
3030
0000
1000
0000
0001
1000
,
0001
0000
0000
0000
0000
0000
0002
0000
0000
0000
0000
0000
0200
0000
0000
0000
0000
0000
0303
0000
0000
0000
0000
0000
0100
0000
0010
0100
0000
0000
0010
0000
0000
0000
0000
0000
0100
0000
0000
0000
0000
0000
0001
0000
0000
1000
0000
0000
,
0010
0000
0010
0000
0000
0000
0100
0000
0100
0000
0000
0000
0001
0100
0001
0000
,
0000
1000
1000
0000
1000
0100
0010
0001
,
1000
0010
1000
0000
0000
0000
0001
0100
0001
0000
0000
0000
0100
0010
0100
0000
,
0000
0000
0010
1000
0010
0000
0000
0000
2000
0000
0000
0000
3020
0000
0000
0000
,
0130
0010
1000
0000
0000
0000
1000
0001
0010
0000
0000
0000
0001
0100
0020
0000
,
0000
0000
0130
0010
1000
0000
0000
1000
0001
0000
0100
0001
0020
0000
1000
0030
,
0010
0000
0000
0001
0000
0000
0000
0000
0000
0100
0000
0000
0100
0000
0000
0000
0000
0000
0010
0000
0000
0010
0100
0010
,
0200
0000
0001
0000
0302
0000
0000
1000
0203
0000
0010
0300
0001
0000
0010
0001
,
0010
0000
0000
0001
0000
0000
1000
0000
0000
0000
0000
0000
0010
0000
0000
0000
0000
0000
1000
0000
0000
0010
0000
0000
0100
0000
0000
0000
0100
0000
0000
0000
0000
0100
0000
0000
0010
0000
0000
0100
0000
0000
0001
0000
0000
0000
0000
0000
,
0100
0000
1000
0010
0100
0000
0010
0000
1000
0010
0100
0001
0010
0100
1000
0001
,
0100
0010
1000
0000
0100
0000
1000
0100
0000
0001
0000
0100
0000
0100
1000
0010
,
0110
0010
1000
0000
0001
0000
0001
0001
0000
0010
0000
0100
0000
1000
0100
0010
,
0002
0000
0003
0000
;

//---------------dance-single - ----------------
#NOTES:
     dance-single:
     :
     Beginner:
     2:
     0.112,0.162,0.048,0.000,0.000: // measure 1
0000
0000
0000
0000
,  // measure 2
0000
0000
0000
0000
,  // measure 3
0000
0000
0000
0000
,  // measure 4
0000
0000
0000
0000
,  // measure 5
0010
0000
0000
0000
,  // measure 6
0000
0000
0000
0000
,  // measure 7
0000
0000
0000
0000
,  // measure 8
0000
0000
0000
0000
,  // measure 9
1000
0000
0000
0000
,  // measure 10
0000
0000
0001
0000
,  // measure 11
0100
0000
0000
0000
,  // measure 12
0000
0000
0001
0000
,  // measure 13
1000
0000
0000
0000
,  // measure 14
0000
0000
0010
0000
,  // measure 15
0100
0000
0000
0000
,  // measure 16
0000
0000
0001
0001
,  // measure 17
1000
0000
0000
0000
,  // measure 18
0000
0000
0100
0000
,  // measure 19
1000
0000
0000
0000
,  // measure 20
0000
0000
0001
0000
,  // measure 21
0100
0000
0000
0000
,  // measure 22
0000
0000
1000
0000
,  // measure 23
1000
0000
0000
0000
,  // measure 24
0000
0000
0000
0110
,  // measure 25
0010
0000
0000
0000
,  // measure 26
0000
0000
1000
1000
,  // measure 27
0001
0000
0000
0000
,  // measure 28
0000
0000
0100
0100
,  // measure 29
0010
0000
0000
0000
,  // measure 30
0000
0000
1001
0000
,  // measure 31
0100
0000
0000
0010
,  // measure 32
0000
0000
1000
0001
,  // measure 33
0100
0000
0000
0001
,  // measure 34
0000
0000
0100
0100
,  // measure 35
0010
0000
0000
1000
,  // measure 36
0000
0000
0001
0001
,  // measure 37
0100
0000
0000
0010
,  // measure 38
0000
0000
0100
0000
,  // measure 39
0001
0000
0000
1000
,  // measure 40
0000
0000
0001
0001
,  // measure 41
1001
0000
0000
0000
,  // measure 42
0010
0000
0000
0000
,  // measure 43
0100
0000
0000
0000
,  // measure 44
0100
0000
0000
0000
,  // measure 45
0001
0000
0000
0000
,  // measure 46
1000
0000
0000
0000
,  // measure 47
0100
0000
0000
0000
,  // measure 48
1000
0000
0001
0000
,  // measure 49
0100
0000
0100
0000
,  // measure 50
0010
0000
0010
0000
,  // measure 51
1000
0000
0000
1000
,  // measure 52
0000
0000
0001
1000
,  // measure 53
0010
0000
0000
0100
,  // measure 54
0000
0000
0010
1000
,  // measure 55
0010
0000
0000
0100
,  // measure 56
0000
0000
0001
0001
,  // measure 57
0001
0000
0000
1000
,  // measure 58
0000
0000
0100
0100
,  // measure 59
1000
0000
0000
0100
,  // measure 60
0000
0000
1000
0001
,  // measure 61
0010
0000
0000
0001
,  // measure 62
0000
0000
0100
0010
,  // measure 63
1000
0000
0000
0001
,  // measure 64
0000
0000
1000
0100
,  // measure 65
0010
0000
0000
0100
,  // measure 66
0000
0000
1000
1000
,  // measure 67
1001
0000
0000
0000
,  // measure 68
0110
0000
0000
0000
,  // measure 69
1001
0000
0000
0000
;
