#TITLE:音楽;
#SUBTITLE:;
#ARTIST:弁士カンタビレオ;
#TITLETRANSLIT:ONGAKU;
#SUBTITLETRANSLIT:;
#ARTISTTRANSLIT:BENSHI CANTABILEO;
#CREDIT:;
#BANNER:bn1.png;
#BACKGROUND:bg.png;
#LYRICSPATH:;
#CDTITLE:pop'n music.png;
#MUSIC:ONGAKU.mp3;
#OFFSET:-2.692;
#SAMPLESTART:17.631;
#SAMPLELENGTH:29.000;
#SELECTABLE:YES;
#BPMS:0.000=245.000,31.000=280.000,46.500=245.000,58.000=230.000,87.000=240.000,115.000=250.000,119.000=260.000,183.000=280.000,263.000=270.000,279.000=280.000,335.000=270.000,447.000=240.000,455.000=210.000,463.000=260.000,511.000=280.000,527.000=290.000,535.000=310.000,551.000=330.000,557.000=340.000,563.000=350.000,567.000=360.000,582.000=240.000;
#STOPS:;
#BGCHANGES:;

//---------------dance-single - ----------------
#NOTES:
     dance-single:
     :
     Hard:
     11:
     0.757,0.944,0.354,0.421,0.147:
1000
0100
0010
0100
,
1000
0001
0100
0001
,
0010
0001
0100
0010
,
1000
0000
0010
1000
0100
0010
0100
0000
,
0100
0010
0100
0001
0010
0000
0001
0010
,
0001
1000
0001
0000
0001
0100
0010
0000
,
0100
0010
1000
0001
1000
0010
0100
0001
,
0010
0100
1000
0001
0100
0001
0011
0000
,
0001
0010
0001
0100
1000
0100
0010
1000
,
0001
0010
0100
0010
0001
1000
0010
1000
,
0001
0010
0100
0010
0001
1000
0010
1000
,
0001
0010
0100
1000
0100
0010
0000
0000
,
0000
0000
0000
2002
0000
0000
0000
0000
0000
0000
0000
0000
0000
0000
0000
0000
,
0000
0000
0000
3003
0000
0000
0000
0000
0000
0000
0000
0000
0000
0000
0000
0000
,
0000
0000
0000
0000
,
0000
0000
0000
1000
,
0001
0100
0001
0010
,
0001
0100
0010
1000
,
0001
0010
0100
0010
,
0001
0100
1000
0100
,
0010
1000
0001
0010
,
0100
0010
0001
2000
,
0100
3100
1000
0020
,
0100
0130
0100
0002
,
0010
0013
0001
0100
,
0010
0001
0010
1000
,
0100
0001
0100
0010
,
0001
0100
0001
2000
,
3010
0200
0310
2000
,
3001
0020
0031
0001
,
1100
0000
0000
0000
1000
0001
0100
0000
,
0001
0010
0100
0010
,
0001
0000
0100
0000
0010
0100
0010
0000
,
0100
0010
1000
0001
,
0010
0100
1000
0000
0100
1000
0010
0000
,
0100
0010
1000
0000
0001
0010
0001
0100
,
0010
1000
0001
0100
0010
1000
0001
0100
,
0010
1000
0001
0100
0010
0000
1000
0000
,
0220
0000
0000
0330
0100
0001
0010
0000
,
2200
0000
0000
3300
0100
0010
0001
0000
,
2200
0000
0000
3300
1000
0010
0100
0000
,
0202
0000
0303
1001
,
0220
0000
0000
0330
0010
1000
0001
0000
,
1000
0000
0000
0001
0000
0000
0010
0000
0000
0001
0000
0100
,
0000
0001
0000
0100
0000
0001
0000
0100
0000
0010
0000
0100
,
0000
0000
0010
0000
0000
0000
1000
0000
0000
0001
0000
0000
0100
0000
0000
0001
0000
0000
0101
0000
0000
0000
0000
0000
,
0001
0100
0001
0000
0100
0001
0100
0000
,
0001
0100
0001
0000
1000
0000
1000
0000
,
0100
1000
0100
0000
1000
0100
1000
0000
,
0100
1000
0100
0000
0010
0000
0001
0000
,
0001
0100
0010
0000
0100
0010
1000
0000
,
0001
0010
0100
0000
1000
0000
0010
0000
,
1000
0010
0100
0000
0010
1000
0001
0000
,
0001
0010
0100
0000
1000
0000
0002
0000
,
0103
0001
0100
0000
0101
0000
0200
0000
,
0310
0100
0010
0000
0110
0000
0020
0000
,
1030
0010
1000
0000
1010
0000
2000
0000
,
3100
1000
0100
0000
1100
0000
1100
0000
,
0022
0000
0033
1001
,
0101
1010
1100
0210
,
0000
0010
0310
0000
0010
0001
0010
0000
,
0001
0010
0001
0000
0100
0000
0010
0000
,
0100
0001
1000
0000
0001
0100
0010
0000
,
0100
0001
0010
0000
0100
0000
1000
0000
,
1000
0100
0010
0000
0100
1000
0010
0000
,
0100
0001
1000
0000
0001
0000
0020
0000
,
0000
0031
0010
0200
,
0000
0020
0330
0020
,
0000
0000
0000
0130
0000
0000
1000
0000
0000
0100
1000
0100
,
1000
0100
1000
0100
1000
0100
1000
0100
1000
0100
0000
0000
,
0000
1100
0110
0021
,
0000
0001
0031
0000
0000
0000
0022
0000
,
0033
0110
0011
1200
,
0000
0000
0010
0000
0310
0000
0000
0000
0000
0000
0000
0000
0100
0010
0000
0000
,
0000
0010
0001
1000
,
0010
0010
0100
0020
,
0000
2000
0030
0002
,
3000
1003
0010
0200
,
0000
0310
0100
0002
,
0103
0001
0100
0000
0010
0100
0010
0000
,
0010
1000
0010
0000
0100
0000
0120
0000
,
0000
0001
0100
0100
,
0000
0000
0130
0010
0200
0000
0000
0000
0000
0000
0300
0000
0110
0000
0000
0000
,
0000
1001
0000
1001
,
0000
0000
0001
0100
,
0010
1000
0010
0100
,
0010
1000
0001
0010
,
0100
0010
0001
0100
,
0001
0100
0010
1000
,
0010
0100
0010
1000
,
0000
0010
0000
0100
,
0010
1000
0010
0000
0110
0000
1001
0000
,
0001
0100
0001
0100
0000
0000
0010
0000
0000
1010
0000
0000
,
0010
1000
0010
1000
0000
0000
0010
0000
0000
0202
0000
0000
,
0303
2020
3030
2002
,
3003
0000
2200
0000
3300
0000
1000
0001
,
0100
0001
0010
0001
0100
1000
0100
0010
,
1000
0001
0010
0100
1000
0100
0010
0100
,
1000
0001
0100
0001
0010
0100
0010
0001
,
1000
0000
0000
0001
0000
0000
0100
0000
0010
0000
1000
0000
0001
0000
0100
0000
0010
0000
2000
0000
0000
0000
0000
0000
,
3001
0100
0001
0200
0000
0000
1000
0000
0000
0310
0000
0000
,
0100
0010
0100
0020
0000
0000
1030
0000
0000
0202
0000
0000
,
0303
2020
3030
2002
,
3003
2200
3300
1000
,
0001
0100
0010
0000
0100
0010
1000
0000
,
1000
0001
0010
0000
0100
0000
1000
0000
,
0000
0000
0000
0100
0000
1000
0000
0010
0000
0100
0000
0000
,
0000
0000
0000
0010
0000
0100
0000
0010
0000
1000
0000
0000
,
0000
0000
0000
0010
0000
0100
0000
0001
0000
1000
0000
0000
,
0000
0000
0000
0010
0000
0000
0100
0000
0000
0001
0000
0010
,
0000
0100
0000
1000
0000
0100
0000
0010
0000
0001
0000
0010
,
0000
0100
0000
0001
0000
0010
0000
0100
0000
0200
0000
0000
,
0000
0301
0000
0000
,
0100
0000
0000
0000
0010
0000
0000
0001
0000
0000
0010
0000
0011
0000
0000
0000
,
0000
1010
0000
0101
,
0000
0000
1001
0000
0000
0000
0001
0100
,
0001
0100
0001
0100
0001
0100
0001
1000
,
0001
1000
0001
1000
0001
1000
0100
1000
,
0100
1000
0100
1000
0100
1000
0100
1000
,
0100
0010
0100
1000
0010
0100
0001
0010
,
0001
0100
0001
1000
0100
1000
0001
0100
,
0001
0010
0100
1000
0100
0010
0001
0100
,
0001
1000
0100
0010
0100
1000
0001
0100
,
0001
0010
0001
0100
0010
1000
0100
0000
,
1000
0100
1000
0100
,
0010
0100
0010
1000
,
0001
0010
0100
0010
,
0001
0100
0010
0010
,
0000
0100
0110
0000
,
0000
0010
1000
0001
,
0000
0010
0011
0001
,
0010
0001
0010
0100
,
0000
0000
0010
0000
,
0000
0100
0000
0010
,
0001
0000
0000
0001
,
0100
1000
0100
0001
,
0010
1000
0010
0001
,
1000
0001
0001
0101
,
0001
0100
0010
0000
0110
0000
0010
1000
,
0100
0000
1100
0000
1000
0001
0100
0000
,
0110
0000
0010
1000
0001
0000
0001
0100
,
0001
1000
0001
0010
0001
1000
0001
0100
,
0010
1000
0100
1000
0001
0010
0001
1000
,
0001
0010
0100
1000
0001
0010
0200
0000
,
0000
0000
0000
0000
0000
0001
0000
0000
,
0000
0000
2000
0000
,
0000
0000
0000
0000
,
0000
0000
0000
0000
,
0000
0000
0000
3300
;

//---------------dance-single - ----------------
#NOTES:
     dance-single:
     :
     Medium:
     9:
     0.502,0.694,0.274,0.287,0.060:
1000
0000
0001
0100
,
0000
0100
0010
0000
,
0010
1000
0000
1000
,
0001
0010
0100
1000
,
0100
1000
0010
1000
,
0100
0010
0001
1000
,
0001
0100
1000
0100
,
0010
1000
0001
0011
,
0001
0010
0100
0010
,
0001
0000
0100
0010
1000
0001
0100
0010
,
1000
0001
0100
0010
1000
0001
0100
0010
,
1000
0001
0100
0010
1000
0001
0000
0000
,
0000
0000
0000
0220
0000
0000
0000
0000
0000
0000
0000
0000
0000
0000
0000
0000
,
0000
0000
0000
0330
0000
0000
0000
0000
0000
0000
0000
0000
0000
0000
0000
0000
,
0000
0000
0000
0000
,
0000
0000
0000
1000
,
0000
0010
0000
0100
,
0000
0001
0000
0010
,
0000
0100
0000
0000
,
0100
0010
0001
1000
,
0000
0001
0000
1000
,
0001
0010
0001
0200
,
0000
0310
0000
2000
,
0000
3001
0000
0002
,
0000
0020
0000
0033
,
0001
0010
1000
0020
,
0000
0130
0000
0000
,
0010
0100
1000
0020
,
0000
2030
0000
3002
,
0000
0023
0000
0130
,
1000
0000
0000
0000
0001
1000
0001
0000
,
0100
0010
1000
0001
,
0010
0100
0010
0001
,
1000
0010
1000
0100
,
0010
0001
0010
0000
0010
0100
0010
0000
,
0100
1000
0100
0000
1000
0000
0010
0100
,
0001
0000
0001
1000
0100
0000
0100
1000
,
0010
0100
0001
0010
,
0110
0000
0000
0000
0010
0100
1000
0000
,
1100
0000
0000
0000
1000
0010
0100
0000
,
0110
0000
0000
0000
0010
1000
0001
0000
,
1001
0000
0000
0101
,
1010
0000
0000
0000
,
0010
0000
0000
1000
0000
0000
0001
0000
0000
0100
0000
0001
,
0000
0100
0000
0010
0000
1000
0000
0001
0000
1000
0000
0001
,
0000
0000
1000
0000
0000
0000
0001
0000
0000
0010
0000
0000
0100
0000
0000
1000
0000
0000
0001
0000
0000
0000
0000
0000
,
0000
1000
0000
0010
,
0000
0100
0100
0010
,
0000
1000
0000
0001
,
0000
0010
0010
0100
,
0000
1000
0000
0100
,
0000
1000
0100
0001
,
0000
0001
0100
1000
,
0000
0010
0000
0100
,
2002
0000
3003
0010
,
0202
0000
0303
0010
,
2200
0000
3300
0010
,
2002
0000
3003
0101
,
2020
0000
3030
1000
,
0100
0010
0001
0010
,
0000
0010
0100
0000
1000
0000
0010
0000
,
0001
1000
0010
1000
,
0001
1000
0001
0000
0001
1000
0001
0000
,
0001
1000
0001
0000
0100
0000
0010
0000
,
0100
0010
0100
0000
0100
0010
0100
0000
,
0100
0010
0100
0000
0010
0000
1000
0000
,
0000
0000
0000
0000
,
0000
0000
0000
0000
,
0000
0000
0000
0000
0000
0000
0100
0001
,
0100
0001
0100
0001
0100
0001
0100
0000
,
0000
0010
1000
0010
,
0000
0100
0010
0000
0000
0000
0010
0000
,
0000
1000
0001
0010
,
0000
0010
0100
0000
0000
0000
1100
0000
,
0000
1000
0100
0010
,
0100
1000
0010
0100
,
0000
0010
0000
1000
,
0000
0001
0100
1000
,
0000
1000
0100
0010
,
0100
0010
0100
0000
0010
0100
0010
0000
,
0100
0010
0100
0000
0010
0000
1000
0000
,
0000
0001
0010
0100
,
0000
1000
0100
0000
0000
0000
1100
0000
,
0000
0011
0000
1001
,
0000
0000
0001
0100
,
0000
0000
0100
0010
,
0000
0000
1000
0010
,
0000
0000
0100
0001
,
0000
0000
0001
0010
,
0000
0000
0010
0100
,
0000
1000
0000
0001
,
1000
0001
1000
0000
0001
0000
0100
0000
,
0000
0000
0110
1001
,
0000
0000
0101
1010
,
0000
1100
0000
0011
,
0000
0110
0000
1100
,
0100
0001
0100
1000
,
0010
0001
0010
0100
,
0001
0010
0001
1000
,
0010
1000
0001
0110
,
0000
0000
0011
1100
,
0000
0000
1010
0101
,
0000
1001
0000
0011
,
0000
1001
0000
1010
,
0000
0010
1000
0002
,
0000
1003
0010
0200
,
0000
0310
0000
0000
,
0000
0100
0000
0000
,
0000
0010
0000
0000
,
0000
0000
0000
0100
0000
0000
0000
0000
0000
0010
0000
1000
,
0000
0010
0000
1000
0000
0010
0000
1000
0000
0010
0000
1000
,
0000
0001
0000
0010
0000
0100
0000
1000
0000
0001
0000
0000
,
0000
0000
0000
0000
1001
0000
0000
0000
0000
0000
0000
0000
0000
0000
0000
0001
,
0000
0000
0000
0100
0000
0010
0000
1000
0000
0100
0000
0000
,
0000
0110
0000
0011
,
0000
1001
0000
0002
,
0000
2003
0000
3020
,
0000
2030
0000
3020
,
0000
0230
0000
0000
,
0310
1000
0001
0020
,
0000
0200
0000
0330
,
0010
0100
1000
0020
,
0000
2030
0000
3020
,
0000
0230
0000
0302
,
0000
0000
1003
0002
,
0000
0203
0000
0020
,
0000
0330
0010
2000
,
0000
3200
0000
1300
,
0000
0000
0011
0000
,
0000
0001
0010
0100
,
0000
0100
0010
0001
,
1000
1000
0001
0100
,
0000
0010
1000
0000
,
0000
0001
0000
0100
,
0010
0000
0000
1000
,
0001
1000
0001
1000
,
0001
0100
0010
0100
,
0010
0100
0010
1000
,
0100
0010
0001
0010
,
0100
1000
0100
0010
,
0001
0010
0100
1000
,
0010
0100
0001
1000
,
0001
0010
0100
0001
,
0010
0001
0010
0100
,
0000
0000
0000
0000
0000
0010
0000
0000
,
0000
0000
2200
0000
,
0000
0000
0000
0000
,
0000
0000
0000
0000
,
0000
0000
3300
0000
;

//---------------dance-single - ----------------
#NOTES:
     dance-single:
     :
     Easy:
     6:
     0.301,0.397,0.287,0.047,0.000:
0001
0000
0000
1000
,
0000
0000
0010
0000
,
0000
1000
0000
0000
,
0010
0000
0000
0100
,
0000
0000
0010
0000
,
0000
0100
0000
0000
,
0010
0000
0000
0000
,
0000
0000
0000
1001
,
0000
0000
0000
0000
,
0000
0000
0000
0000
,
0000
0000
0000
0000
,
0000
0000
0000
0000
,
0000
0010
0000
0000
,
0000
0000
0000
0000
,
0000
0000
0000
0000
,
0000
0000
0000
0100
,
0000
0010
0000
1000
,
0000
0001
0000
0010
,
0000
0100
0000
0000
,
0100
0010
0001
1000
,
0000
0010
0000
1000
,
0001
1000
0001
0100
,
0000
0010
0000
1000
,
0000
0100
0000
1000
,
0000
0010
0000
0000
,
0100
0001
1000
0001
,
0000
0100
0000
0000
,
0001
0010
0100
0010
,
0000
0001
0000
1000
,
0000
0010
0000
0100
,
0010
0000
0000
0000
,
0100
0010
1000
0001
,
0010
0100
0000
0000
,
0100
0010
0001
1000
,
0001
1000
0001
1000
,
0001
1000
0001
0100
,
0000
0010
0000
1000
,
0000
0100
0000
0010
,
0001
0000
0001
0100
,
0010
0000
0100
0010
,
1000
0000
0010
1000
,
0001
0000
0000
1001
,
1001
0000
0000
0000
,
0001
0100
1000
0100
,
0000
0010
0000
1000
,
0000
0001
1000
1001
,
0000
0000
0000
0000
,
0000
0000
0000
0000
,
0000
0000
0000
0000
,
0000
0000
0000
0010
,
0000
0000
0000
0000
,
0000
0100
0010
0100
,
0000
0000
0010
1000
,
0000
0001
0000
1000
,
0001
0000
0000
0001
,
0100
0000
0000
0010
,
0010
0000
0000
0100
,
0100
0000
0000
0110
,
0110
0000
0000
0010
,
1000
0001
0010
0100
,
0000
1100
0000
1000
,
0100
0001
0100
1000
,
0000
0010
0000
0100
,
0000
0010
1000
0001
,
0000
0001
0000
0001
,
0000
0001
1000
0010
,
0000
0000
0000
0000
,
0000
0000
0000
0000
,
0000
0000
0000
0020
,
0000
0000
0000
0130
,
0000
0010
1000
0001
,
0000
1001
0000
0001
,
0000
0001
0010
0100
,
0000
1100
0000
0110
,
0000
0010
0001
0010
,
1000
0010
0001
0100
,
0000
1000
0000
0100
,
0000
0010
0010
1000
,
0000
1000
1000
0001
,
0000
1000
0000
0001
,
0000
0100
0000
0110
,
0000
0010
1000
0001
,
0000
1001
0000
0101
,
0000
1100
0000
1001
,
0000
0000
0000
0001
,
0000
0000
0000
0100
,
0000
0000
0000
0010
,
0000
0000
0000
0100
,
0000
0000
0000
0001
,
0000
0000
0000
1000
,
0000
1000
0000
1000
,
0000
0000
0000
0110
,
0000
0000
0000
1001
,
0000
0000
0000
0110
,
0000
0110
0000
1001
,
0000
1001
0000
0001
,
0000
0100
0000
0010
,
0000
1000
0000
0010
,
0000
0100
0000
0001
,
0000
0010
0000
0110
,
0000
0000
0000
1001
,
0000
0000
0000
1001
,
0000
0110
0000
1001
,
0000
0110
0000
1001
,
0000
0001
1000
0010
,
0000
1000
0100
0010
,
0000
0001
0000
0000
,
0000
0001
0000
0000
,
0000
1000
0000
0000
,
0000
0010
0000
0110
,
0000
1001
0000
0110
,
0000
1001
0000
0120
,
0000
0000
0000
0000
,
0000
0000
0000
0200
,
0000
0000
0000
0000
,
0330
0000
0000
0010
,
0000
1000
0000
0010
,
0000
1000
0000
0001
,
0000
0010
0000
0000
,
0010
0100
1000
0010
,
0000
0100
0000
0000
,
0100
0001
1000
0001
,
0000
0010
0000
0100
,
0000
0010
0000
0001
,
0000
0000
0100
0100
,
0000
0010
0000
1000
,
0000
0000
0100
0100
,
0000
1000
0000
0010
,
0000
0000
0100
0000
,
0000
0010
1000
0010
,
0000
0000
0100
0001
,
1000
0100
0010
0001
,
0000
0010
0001
0000
,
0000
0001
0000
0100
,
0100
0000
0000
0020
,
0000
0000
0000
0000
,
0000
0200
0000
0000
,
0000
0000
0330
1001
,
0000
0000
0101
0000
,
0000
1010
0000
0000
,
0110
0000
0000
1001
,
0000
0000
1100
0000
,
0000
0011
0000
0000
,
0110
0000
0000
1100
,
0000
0000
0000
0100
,
0000
0000
0022
0000
,
0000
0000
0000
0000
,
0000
0000
0000
0000
,
0000
0000
0033
0000
;

//---------------dance-single - ----------------
#NOTES:
     dance-single:
     :
     Beginner:
     3:
     0.160,0.292,0.073,0.000,0.000: // measure 1
0000
0000
0000
0000
,  // measure 2
0000
0000
0000
0000
,  // measure 3
0000
0000
0000
0000
,  // measure 4
0000
0000
0000
0000
,  // measure 5
0000
0000
0000
0000
,  // measure 6
0000
0000
0000
0000
,  // measure 7
0010
0000
0000
0000
,  // measure 8
0000
0000
0000
1000
,  // measure 9
0000
0000
0000
0000
,  // measure 10
0000
0001
0000
0000
,  // measure 11
0100
0000
0000
0010
,  // measure 12
0000
1000
0000
0000
,  // measure 13
0000
0001
0000
0000
,  // measure 14
0000
0000
0000
0000
,  // measure 15
0000
0000
0000
0000
,  // measure 16
0000
0000
0000
0100
,  // measure 17
0000
0000
0000
0010
,  // measure 18
0000
0000
0000
1000
,  // measure 19
0000
0000
0000
0000
,  // measure 20
0000
0000
0000
0001
,  // measure 21
0000
0000
0000
1000
,  // measure 22
0000
0000
0000
0010
,  // measure 23
0000
0000
0000
0010
,  // measure 24
0000
0000
0000
0100
,  // measure 25
0000
0000
0000
0000
,  // measure 26
0000
0001
0000
0001
,  // measure 27
0000
0001
0000
0000
,  // measure 28
0000
1000
0000
1000
,  // measure 29
0000
0000
0000
0010
,  // measure 30
0000
0000
0000
1001
,  // measure 31
0000
0000
0000
0000
,  // measure 32
0000
0000
0000
0100
,  // measure 33
0000
0100
0000
0000
,  // measure 34
0000
0000
0000
0010
,  // measure 35
0000
0000
0000
1000
,  // measure 36
0000
0000
0000
0001
,  // measure 37
0000
0000
0000
1000
,  // measure 38
0000
0000
0000
0010
,  // measure 39
0000
0000
0000
0100
,  // measure 40
0000
0000
0000
0001
,  // measure 41
0000
0000
0000
1000
,  // measure 42
0000
0000
0000
1001
,  // measure 43
0000
0000
0000
0000
,  // measure 44
0000
0000
0000
0010
,  // measure 45
0000
0010
0000
0010
,  // measure 46
0000
0010
0100
0010
,  // measure 47
0000
0000
0000
0000
,  // measure 48
0000
0000
0000
0000
,  // measure 49
0000
0000
0000
0000
,  // measure 50
0000
0000
0000
1000
,  // measure 51
0000
0000
0000
0000
,  // measure 52
0000
0001
0000
1000
,  // measure 53
0000
0000
0000
0010
,  // measure 54
0000
0000
0000
0100
,  // measure 55
0100
0000
0000
0010
,  // measure 56
0010
0000
0000
1000
,  // measure 57
1000
0000
0000
0001
,  // measure 58
0001
0000
0000
1000
,  // measure 59
1000
0000
0000
0001
,  // measure 60
1000
0001
1000
0001
,  // measure 61
0000
1000
0000
0010
,  // measure 62
0000
0010
0000
0110
,  // measure 63
0000
0000
0000
0000
,  // measure 64
0000
0010
0000
0010
,  // measure 65
0000
0000
0000
0000
,  // measure 66
0000
0100
0000
0100
,  // measure 67
0000
0000
0000
0000
,  // measure 68
0000
0000
0000
0000
,  // measure 69
0000
0000
0000
0000
,  // measure 70
0000
0000
0000
0010
,  // measure 71
0000
1000
0000
0001
,  // measure 72
0000
1001
0000
0001
,  // measure 73
0000
1000
0000
0010
,  // measure 74
0000
0110
0000
1001
,  // measure 75
0000
0001
0000
1000
,  // measure 76
0000
0010
0000
0100
,  // measure 77
0000
0100
0000
0010
,  // measure 78
0000
0100
0000
0010
,  // measure 79
0000
0100
0000
0010
,  // measure 80
0000
0010
0000
0010
,  // measure 81
0000
0010
0000
1001
,  // measure 82
0000
1000
0001
1000
,  // measure 83
0000
1000
0000
1000
,  // measure 84
0000
0100
0000
0010
,  // measure 85
0000
0000
0000
0000
,  // measure 86
0000
0000
0000
0000
,  // measure 87
0000
0000
0000
0000
,  // measure 88
0000
0000
0000
0000
,  // measure 89
0000
0000
0000
0000
,  // measure 90
0000
0000
0000
0000
,  // measure 91
0000
0000
0000
0000
,  // measure 92
0000
0000
0000
0110
,  // measure 93
0000
0000
0000
1001
,  // measure 94
0000
0000
0000
0010
,  // measure 95
0000
0010
0000
0100
,  // measure 96
0000
0100
0000
1000
,  // measure 97
0000
0000
0000
0001
,  // measure 98
0000
0000
0000
0100
,  // measure 99
0000
0000
0000
0010
,  // measure 100
0000
0000
0000
0110
,  // measure 101
0000
0000
0000
1001
,  // measure 102
0000
0000
0000
0001
,  // measure 103
0000
0001
0000
1000
,  // measure 104
0000
1000
0000
0010
,  // measure 105
0000
0000
0000
0100
,  // measure 106
0000
0000
0000
0001
,  // measure 107
0000
0000
0000
1000
,  // measure 108
0000
0000
0000
1000
,  // measure 109
0000
0000
0000
1000
,  // measure 110
0000
0000
0000
0001
,  // measure 111
0000
0001
0000
0001
,  // measure 112
0000
0001
0000
1000
,  // measure 113
0000
0010
0000
0000
,  // measure 114
0000
0000
0000
0100
,  // measure 115
0000
0000
0000
0010
,  // measure 116
0000
0000
0000
1000
,  // measure 117
0000
0000
0000
0000
,  // measure 118
0000
0000
0000
0001
,  // measure 119
0000
0000
0000
0000
,  // measure 120
0000
0010
0000
0010
,  // measure 121
0000
0010
0000
0000
,  // measure 122
0000
0100
0000
1000
,  // measure 123
0000
0000
0000
0001
,  // measure 124
0000
0000
0000
0100
,  // measure 125
0000
0000
0000
0010
,  // measure 126
0000
0010
0000
0010
,  // measure 127
0000
0000
0000
0100
,  // measure 128
0000
0000
0000
0100
,  // measure 129
0000
0000
0010
0000
,  // measure 130
0000
0000
0000
0010
,  // measure 131
0000
0000
0000
0000
,  // measure 132
1000
0000
0000
0000
,  // measure 133
0000
0000
0000
0000
,  // measure 134
0000
0001
0000
0000
,  // measure 135
0000
0000
0000
1000
,  // measure 136
0000
0000
0000
0000
,  // measure 137
0000
0001
0000
0000
,  // measure 138
0000
0000
0000
0100
,  // measure 139
0000
0000
0010
0000
,  // measure 140
0000
0100
0000
0000
,  // measure 141
0010
0000
0000
1000
,  // measure 142
0000
0000
0001
0000
,  // measure 143
0000
1000
0000
0000
,  // measure 144
0001
0000
0000
1000
,  // measure 145
0000
0000
0010
0000
,  // measure 146
0000
0000
0100
0000
;
