#TITLE:Not Over;
#SUBTITLE:(Adam White Remix);
#ARTIST:Paul Oakenfold ft. One Republic;
#TITLETRANSLIT:;
#SUBTITLETRANSLIT:;
#ARTISTTRANSLIT:;
#CREDIT:;
#BANNER:bn.png;
#BACKGROUND:nov.png;
#LYRICSPATH:;
#CDTITLE:;
#MUSIC:Not Over (Adam White Remix).mp3;
#OFFSET:-6.970;
#SAMPLESTART:68.160;
#SAMPLELENGTH:12.000;
#SELECTABLE:YES;
#BPMS:0.000=138.000,144.000=69.000,176.000=138.000,224.000=276.000,248.000=138.000;
#STOPS:;
#BGCHANGES:;

//---------------dance-single - ----------------
#NOTES:
     dance-single:
     :
     Challenge:
     7:
     0.359,0.448,0.016,0.288,0.183: // measure 1
1000
0000
0000
0000
0010
0000
0000
0000
0100
0000
0000
0010
0000
0000
1000
0000
,  // measure 2
0001
0000
0000
0000
0010
0000
0000
0000
0001
0000
0000
0100
0000
0000
0010
0000
,  // measure 3
1000
0000
0000
0000
0001
0000
0000
0000
1000
0000
0000
0010
0000
0000
0100
0000
,  // measure 4
0002
0000
0000
0000
0000
0000
0000
0000
0003
0000
0000
1000
0100
0000
0010
0000
,  // measure 5
0100
0000
1000
0000
0001
0000
0100
0000
0010
0000
0000
0010
0000
0000
0020
0000
,  // measure 6
0100
0000
0000
0100
0000
0000
0200
0000
0000
0000
0000
0000
0330
0000
0000
0000
,  // measure 7
0000
0000
0100
0000
0010
0000
1000
0000
0001
0000
0000
0001
0000
0000
0002
0000
,  // measure 8
1000
0000
0000
1000
0000
0000
2000
0000
0000
0000
0000
0000
3003
0000
0000
0000
,  // measure 9
0000
0000
1000
0000
0010
0000
0100
0000
0010
0000
0000
1000
0000
0000
0200
0000
,  // measure 10
0010
0000
0000
0010
0000
0000
0020
0000
0000
0000
0000
0000
0330
0000
0000
0000
,  // measure 11
0000
0000
0100
0000
1000
0000
0001
0000
0010
0000
0000
0010
0000
0000
0010
0000
,  // measure 12
0001
0000
0000
0001
1000
0000
0000
0001
1000
0000
0001
0000
0100
0000
0001
0000
,  // measure 13
0010
0000
0001
0000
1000
0000
0010
0000
0100
0000
0000
0010
0000
0000
0100
0000
,  // measure 14
0100
0000
0000
0010
0000
0000
0100
0000
0000
0000
0000
0000
0000
0000
0000
0000
,  // measure 15
0000
0010
1000
0001
0010
0000
0010
0200
,  // measure 16
0000
0000
0000
2000
0000
0000
0000
0000
,  // measure 17
3300
0000
0100
0000
0010
0000
1000
0000
0100
0000
0000
0010
0000
0000
0100
0000
,  // measure 18
0000
0100
0000
0000
0010
0000
0000
0200
0000
0000
0000
0000
0000
0000
0000
0000
,  // measure 19
0300
1000
0010
0100
0001
0000
1000
0020
,  // measure 20
0000
0000
0000
0000
,  // measure 21
0130
0000
0010
0000
1000
0000
0010
0100
,  // measure 22
0001
0000
1000
0000
0100
0000
0001
0010
,  // measure 23
1000
0000
0100
0000
1000
0000
0010
0100
,  // measure 24
0001
0000
1000
0000
0001
0000
0001
0100
,  // measure 25
1000
0000
0100
0000
0010
0000
1000
0001
,  // measure 26
0010
0000
0100
0000
0010
0000
0001
0100
,  // measure 27
1000
0000
0100
0000
0010
0000
0010
0001
,  // measure 28
1000
0000
0001
0000
0010
0000
0100
1000
,  // measure 29
0010
0000
0100
0000
0010
0000
1000
0001
,  // measure 30
1000
0000
0100
0000
1000
0000
0010
0100
,  // measure 31
0001
0000
0100
0000
1000
0000
0100
0010
,  // measure 32
1000
0000
0001
0000
0010
0000
0100
1000
,  // measure 33
0100
0000
1000
0000
0010
0000
0100
0001
,  // measure 34
1000
0000
0010
0000
1000
0000
0100
1000
,  // measure 35
0010
0000
0100
0000
,  // measure 36
0001
0001
1000
0100
0010
0000
0100
1000
,  // measure 37
0000
0000
1000
0100
0001
0000
0001
0100
0000
0100
0010
0001
0000
1000
0020
0000
,  // measure 38
0000
0000
0000
0000
0000
0000
0000
0030
0000
0100
0010
1000
0001
0000
1000
1000
,  // measure 39
0000
0000
0001
0010
0100
0000
0010
0010
0000
0100
1000
0010
0000
0100
0002
0000
,  // measure 40
0000
0000
0000
0000
0000
0000
0003
0000
0000
0001
0100
0001
0100
0000
0100
0020
,  // measure 41
0000
0000
0130
0010
1000
0000
0001
2000
0000
3100
1000
0010
0000
0100
0002
0000
,  // measure 42
0000
0000
0000
0000
0000
0000
0003
0000
0000
0001
0100
0100
0010
0000
1000
0200
,  // measure 43
0000
0000
1300
0100
0010
0000
0010
0200
0000
1300
0100
0001
0000
0100
0020
0000
,  // measure 44
0000
0000
0000
0030
0000
0000
0000
0000
,  // measure 45
1001
0001
0010
0001
0100
0001
1000
0200
,  // measure 46
0000
0010
0020
0000
0000
0000
0330
0000
,  // measure 47
0001
0100
0001
0010
0100
0010
0001
0200
,  // measure 48
0000
0010
0020
0000
0000
0000
0330
0000
,  // measure 49
0010
1000
0100
1000
0010
0100
0001
2000
,  // measure 50
0000
0100
0200
0000
0000
0000
3300
1000
,  // measure 51
0001
0010
2000
0000
3000
0000
0000
0010
,  // measure 52
0001
0100
0010
0000
0010
0000
1000
0000
,  // measure 53
0002
0000
2000
3000
,  // measure 54
2000
3000
2000
3000
,  // measure 55
2000
0000
0000
3003
,  // measure 56
0000
0000
0001
0100
0000
0010
0000
1000
,  // measure 57
0002
0000
0000
0000
,  // measure 58
0000
0000
0000
0000
,  // measure 59
0000
0000
0000
0000
,  // measure 60
0203
0000
0000
0000
,  // measure 61
0020
0000
0000
0000
,  // measure 62
0000
0000
0300
0000
,  // measure 63
2000
0000
0000
3030
,  // measure 64
2002
0000
0000
0000
,  // measure 65
3003
0000
0000
0000
;
