#TITLE:New Castle Legions;
#SUBTITLE:;
#ARTIST:Dirty Androids;
#TITLETRANSLIT:;
#SUBTITLETRANSLIT:;
#ARTISTTRANSLIT:;
#GENRE:;
#CREDIT:;
#BANNER:bn.png;
#BACKGROUND:bg.png;
#LYRICSPATH:;
#CDTITLE:;
#MUSIC:New Castle Legions.mp3;
#OFFSET:-0.049;
#SAMPLESTART:18.020;
#SAMPLELENGTH:12.000;
#SELECTABLE:YES;
#BPMS:0.000=120.000
,100.000=150.000
,160.000=120.000
,164.000=170.000
,196.000=180.000
;
#STOPS:
;
#BGCHANGES:;
#KEYSOUNDS:;
#ATTACKS:;

//---------------dance-single - Blank----------------
#NOTES:
     dance-single:
     :
     Hard:
     8:
     0.499,0.483,0.381,0.224,0.066,349.000,46.000,27.000,0.000,0.000,0.000,0.499,0.483,0.381,0.224,0.066,349.000,46.000,27.000,0.000,0.000,0.000:
0000
0000
0000
0000
,
0000
0000
0000
0000
,
0000
0000
0000
0000
,
0000
0000
0000
0000
,
0000
0000
0000
0000
,
0001
0100
0010
0000
0100
0000
1001
0000
,
1000
0010
0100
0000
0001
0000
1100
0000
,
1000
0100
0001
0000
0001
0100
0010
0000
,
0010
0001
0100
1000
0100
0000
1001
0000
,
0001
0000
0000
0000
1010
0000
0000
0100
0000
0000
0010
0000
1000
0000
0000
0000
,
0100
0000
0000
0000
0011
0000
0000
0001
0000
0000
0100
0000
0010
0000
0000
0000
,
0100
0000
0000
0000
1001
0000
0000
1000
0000
0000
0010
0000
0100
0000
0000
0000
,
0001
0000
0000
0000
1100
0000
0000
1000
0000
0000
0010
0000
0100
0000
0000
0000
,
0010
0000
0000
0000
1001
0000
0000
0001
0000
0000
0100
0000
1000
0000
0000
0000
,
0100
0000
0000
0000
1010
0000
0000
0100
0000
0000
0010
0000
0001
0000
0000
0000
,
0001
0000
0000
0000
0110
0000
0000
0010
0000
0000
1000
0000
0100
0000
0000
0000
,
0110
0000
0000
0010
0001
0000
0000
0001
0200
0000
0000
0000
0000
0000
0000
0000
,
0302
0000
0000
0000
0100
0000
0000
0203
0000
0000
0010
0000
1300
0000
0000
0000
,
0200
0000
0000
0000
0010
0000
0000
0320
0000
0000
1000
0000
0130
0000
0000
0000
,
0200
0000
0000
0000
0001
0000
0000
0302
0000
0000
0010
0000
0013
0000
0000
0000
,
0001
0010
0100
1000
0100
0010
0001
1000
,
0010
0000
1000
0000
2100
0000
0000
0001
0000
0000
0010
0000
3010
0000
0000
0000
,
0100
0000
0001
0000
0102
0000
0000
0010
0000
0000
1000
0000
1003
0000
0000
0000
,
1001
0010
1001
0100
,
0001
0000
0000
0100
0000
0000
0010
0000
0000
1000
0000
0000
0001
0000
1000
0000
,
0100
1000
0010
0000
0100
0000
0110
0000
,
0100
0001
0010
0000
0100
0000
1100
0000
,
0100
1000
0010
0000
0100
0000
0101
0000
,
0001
0100
1000
0100
0010
1000
0001
0010
,
0100
0010
0010
0000
0100
0000
1100
0000
,
1000
0010
0010
0000
0100
0000
0101
0000
,
0001
1000
1000
0000
0100
0000
1100
0000
,
2020
0000
0000
3030
,
0010
1000
0001
0000
0010
0000
1100
0000
,
1000
0010
0100
0000
0001
0000
1100
0000
,
1000
0010
0100
0000
0001
0000
0011
0000
,
1001
0101
1010
1100
,
1000
0010
0001
0000
0010
0000
0110
0000
,
0100
1000
0001
0000
0100
0000
1010
0000
,
1000
1000
0001
0000
0010
0010
0100
0000
,
1000
0000
0020
0000
0200
0000
0000
0330
,
0100
0010
1000
0000
0001
0000
0010
0000
,
1000
0000
0010
0000
0001
0000
0100
0010
,
0000
0100
0001
0000
1000
0000
0100
0000
,
1000
0000
0010
0100
0000
0100
0001
1000
,
0000
1000
0010
0000
0100
0000
0001
0000
,
0010
0000
0100
1000
0000
1000
0100
0010
,
0000
0010
0100
0000
1000
0000
0001
0000
,
0100
0000
0010
0010
0000
0000
0000
0000
,
0100
0001
1000
0100
0010
0010
0010
0000
,
0100
0010
0001
1000
0100
0100
0100
0000
,
1000
0001
0100
0010
1000
1000
1000
0000
,
1000
0010
0100
0001
0010
0010
0010
0000
,
0010
0001
0100
1000
0100
0010
1000
0000
,
1000
0010
0001
0010
0100
0001
0010
0000
,
0001
0010
0100
1000
0100
0010
0001
1000
,
2002
0000
0000
0000
0000
0000
0000
3003
,
0102
0000
0010
0000
0100
0100
0103
0000
,
2001
0000
0100
0000
0010
0010
3010
0000
,
1002
0000
0100
0000
0010
0010
0013
0000
,
2001
0000
0010
0000
0100
0100
3100
0000
,
1002
0000
1000
0000
0010
0010
0013
0000
,
2001
0000
0100
0000
0001
0001
3001
0000
,
1002
0000
0100
0000
0010
0010
0013
0000
,
1001
0000
0000
0101
0000
0000
1010
0000
,
0010
0001
0010
1000
0010
0001
0010
0000
,
0100
1000
0100
0001
0100
1000
0100
0000
,
1020
0130
1002
0013
,
0210
0310
0012
1003
,
0001
0000
0001
0100
0000
0010
1000
0000
,
1000
0100
0000
0100
0010
0001
1000
0000
,
0010
0000
1000
0100
0000
0100
0010
0000
,
0002
0000
0000
0000
0000
0000
0000
0003
;

//---------------dance-single - Blank----------------
#NOTES:
     dance-single:
     :
     Medium:
     6:
     0.387,0.393,0.116,0.199,0.050,289.000,14.000,24.000,0.000,0.000,0.000,0.387,0.393,0.116,0.199,0.050,289.000,14.000,24.000,0.000,0.000,0.000:
0000
0000
0000
0000
,
0000
0000
0000
0000
,
0000
0000
0000
0000
,
0000
0000
0000
0000
,
0000
0000
0000
0000
,
1000
0001
0100
0000
0010
0000
1000
0000
,
0010
0100
0010
0000
0100
0000
0001
0000
,
1000
0100
0010
0000
0010
0001
0100
0000
,
0010
1000
0001
0010
0200
0000
0300
0000
,
0020
0000
0000
0000
0000
0000
0000
0002
0000
0000
0000
0000
0033
0000
0000
0000
,
0002
0000
0000
0000
0000
0000
0000
0200
0000
0000
0000
0000
0303
0000
0000
0000
,
0200
0000
0000
0000
0000
0000
0000
0020
0000
0000
0000
0000
0330
0000
0000
0000
,
2000
0000
0000
0000
0000
0000
0000
0002
0000
0000
0000
0000
3003
0000
0000
0000
,
0002
0000
0000
0000
0000
0000
0000
2000
0000
0000
0000
0000
3003
0000
0000
0000
,
0020
0000
0000
0000
0000
0000
0000
2000
0000
0000
0000
0000
3030
0000
0000
0000
,
0020
0000
0000
0000
0000
0000
0000
0200
0000
0000
0000
0000
0330
0000
0000
0000
,
0010
0000
1000
0000
0010
0001
0010
1000
,
0100
0000
0000
0000
1000
0000
0000
0100
0000
0000
1000
0000
0010
0000
0000
0000
,
0100
0000
0000
0000
0010
0000
0000
1000
0000
0000
1000
0000
0001
0000
0000
0000
,
0001
0000
0000
0000
0010
0000
0000
0001
0000
0000
0100
0000
0010
0000
0000
0000
,
0100
0010
1000
0001
,
1000
0000
0000
0000
0001
0000
0000
0100
0000
0000
1000
0000
0100
0000
0000
0000
,
0010
0000
0000
0000
1000
0000
0000
0010
0000
0000
0001
0000
0010
0000
0000
0000
,
0110
0010
1001
0010
,
0101
1100
0011
1010
,
0001
0000
1000
0000
0100
1000
0100
0000
,
1000
0000
0010
0000
0100
0010
0100
0000
,
0010
0000
1000
0000
0001
1000
0001
0000
,
1000
0100
0010
0000
0010
0100
1000
0000
,
1000
0000
0001
0000
0100
0010
1000
0000
,
0001
0000
1000
0000
0100
0010
0001
0000
,
0100
0000
0010
0000
1000
0010
0100
0000
,
0202
0000
0000
0303
,
0001
0000
1000
0000
0100
1000
0100
0000
,
0010
0000
0001
0000
0010
0100
0010
0001
,
1000
0000
0001
0000
0100
0010
1000
0000
,
0010
0000
0100
0000
0010
1000
0100
0010
,
0001
0000
1000
0000
0100
1000
0010
0000
,
0100
0000
0001
0000
1000
0001
0010
0000
,
0012
0103
2010
3100
,
1002
0000
1000
0000
2000
0000
0000
3003
,
1000
0100
0001
0100
,
1000
0010
0100
0001
,
0000
1000
0001
0000
0100
0000
0010
0000
,
1000
0100
0010
0010
,
0000
0010
0100
0000
1000
0000
0010
0000
,
0100
0001
1000
0100
,
0000
1000
0100
0000
0010
0000
0001
0000
,
1000
0000
0010
0100
0000
0000
0000
0000
,
1000
0000
0001
0000
0100
0001
0100
0000
,
0010
0000
1000
0000
0100
1000
0100
0000
,
1000
0000
0010
0000
0100
0001
0010
0000
,
0100
0000
1000
0000
0100
1000
0010
0000
,
0100
0000
0010
0000
1000
1000
0001
0000
,
0010
0000
0100
0000
0010
0010
0001
0000
,
0010
0000
0001
0000
0100
0100
0010
0000
,
2002
0000
0000
3003
,
0001
0000
0100
0000
0010
1000
0010
0000
,
0100
0000
0010
0000
0010
0100
0001
0000
,
1000
0000
0100
0000
1000
0100
1000
0000
,
0100
0000
1000
0000
0010
0100
0001
0000
,
1000
0000
0001
0000
0001
0100
0010
0000
,
0100
0000
0010
0000
0100
0010
0100
0000
,
0010
0000
1000
0000
0001
0010
0100
0000
,
0110
0010
0011
0100
,
0110
0000
0010
0000
0010
0001
0100
0000
,
0001
0000
0100
0000
1000
0100
0010
0000
,
1000
0010
0001
0010
,
0100
0010
1000
0001
,
1000
0000
0000
0001
0000
0000
0100
0000
,
0000
0010
0000
0000
1000
0100
1000
0000
,
0100
0000
0000
1000
0000
0000
0010
0000
,
0200
0000
0000
0000
,
0300
0000
0000
0000
;

//---------------dance-single - Blank----------------
#NOTES:
     dance-single:
     :
     Easy:
     3:
     0.239,0.242,0.058,0.331,0.000,155.000,7.000,40.000,0.000,0.000,0.000,0.239,0.242,0.058,0.331,0.000,155.000,7.000,40.000,0.000,0.000,0.000:
0000
0000
0000
0000
,
0000
0000
0000
0000
,
0000
0000
0000
0000
,
0000
0000
0000
0000
,
0000
0000
0000
0000
,
1000
1000
0001
0001
,
1000
0010
0100
0010
,
0100
0100
0010
0010
,
1000
0001
0000
0000
,
0002
0000
0000
0003
,
2000
0000
0000
3000
,
0020
0000
0000
0030
,
0020
0000
0000
0030
,
2000
0000
0000
3000
,
0002
0000
0000
0003
,
0200
0000
0000
0300
,
0010
0010
0110
0000
,
0002
0000
0000
1003
,
2000
0000
0000
3100
,
0200
0000
0000
0310
,
0010
0001
0010
1000
,
0020
0000
0000
0130
,
2000
0000
0000
3100
,
0020
0000
0032
0000
,
0103
0010
1000
0001
,
1000
0001
0100
0001
,
0010
0001
0100
0010
,
1000
0100
1000
0010
,
0100
0100
0010
0010
,
0100
0001
1000
0100
,
1000
0010
0100
0001
,
0010
0001
0100
0010
,
2002
0000
0000
3003
,
0001
1000
0100
1000
,
0001
0100
0001
1000
,
0100
1000
0001
0100
,
0001
0001
1000
0001
,
0001
0010
0001
1000
,
0010
1000
0001
0010
,
0011
0000
1100
0000
,
0101
0000
0000
0000
,
1000
0000
0001
0000
,
0100
0000
0010
0000
,
1000
0000
0010
0000
,
0100
0000
0001
0000
,
1000
0000
0100
0000
,
1000
0000
0010
0000
,
0100
0000
0001
0000
,
1000
1000
0000
0000
,
0001
0100
0020
0030
,
0100
0010
2000
3000
,
0010
1000
0200
0300
,
1000
0010
0200
0300
,
0010
1000
0002
0003
,
1000
0001
0200
0300
,
0001
1000
0200
0300
,
1100
0000
0000
0000
,
0002
0000
0000
0003
,
0200
0000
0000
0300
,
0020
0000
0000
0030
,
2000
0000
0000
3000
,
0200
0000
0000
0300
,
2000
0000
0000
3000
,
0020
0000
0000
0030
,
0210
0000
0000
0300
,
0020
0000
0000
0030
,
2000
0000
0000
3000
,
0002
0000
2003
0000
,
3002
0000
0203
0000
,
0302
0000
0000
0000
,
0000
0000
0000
0000
,
0203
0000
0000
0000
,
0020
0000
0000
0000
,
0330
0000
0000
0000
;

//---------------dance-single - Blank----------------
#NOTES:
     dance-single:
     :
     Beginner:
     1:
     0.110,0.151,0.008,0.017,0.000,90.000,1.000,2.000,0.000,0.000,0.000,0.110,0.151,0.008,0.017,0.000,90.000,1.000,2.000,0.000,0.000,0.000: // measure 0
0000
0000
0000
0000
,  // measure 1
0000
0000
0000
0000
,  // measure 2
0000
0000
0000
0000
,  // measure 3
0000
0000
0000
0000
,  // measure 4
0000
0000
0000
0000
,  // measure 5
1000
0000
0000
0000
,  // measure 6
0001
0000
0000
0000
,  // measure 7
0100
0000
0000
0000
,  // measure 8
0010
0000
0100
0000
,  // measure 9
0010
0000
0000
0000
,  // measure 10
1000
0000
0000
0000
,  // measure 11
0001
0000
0000
0000
,  // measure 12
1000
0000
0000
0000
,  // measure 13
0100
0000
0000
0000
,  // measure 14
1000
0000
0000
0000
,  // measure 15
0001
0000
0000
0000
,  // measure 16
0200
0000
0000
0300
,  // measure 17
0010
0000
0000
0000
,  // measure 18
1000
0000
0000
0000
,  // measure 19
0001
0000
0000
0000
,  // measure 20
1000
0000
0000
0000
,  // measure 21
0010
0000
0000
0000
,  // measure 22
1000
0000
0000
0000
,  // measure 23
0100
0000
0010
0000
,  // measure 24
0001
0001
0001
0000
,  // measure 25
1000
0000
0000
0000
,  // measure 26
0001
0000
0000
0000
,  // measure 27
0100
0000
0000
0000
,  // measure 28
0001
0000
0001
0000
,  // measure 29
1000
0000
0000
0000
,  // measure 30
0010
0000
0000
0000
,  // measure 31
0100
0000
0000
0000
,  // measure 32
1001
0000
0000
0000
,  // measure 33
0010
0000
0000
0000
,  // measure 34
1000
0000
0000
0000
,  // measure 35
0001
0000
0000
0000
,  // measure 36
0100
0000
0100
0000
,  // measure 37
0100
0000
0000
0000
,  // measure 38
0010
0000
0000
0000
,  // measure 39
1000
0000
1000
0000
,  // measure 40
1000
0000
0000
0000
,  // measure 41
0001
0000
0000
0000
,  // measure 42
1000
0000
1000
0000
,  // measure 43
1000
0000
0000
0000
,  // measure 44
0010
0000
0010
0000
,  // measure 45
0010
0000
0000
0000
,  // measure 46
0100
0000
0100
0000
,  // measure 47
0100
0000
0000
0000
,  // measure 48
0001
0000
0001
0000
,  // measure 49
0000
0000
1000
1000
,  // measure 50
0000
0000
0001
0001
,  // measure 51
0000
0000
0010
0010
,  // measure 52
0000
0000
0100
0100
,  // measure 53
0100
0000
1000
1000
,  // measure 54
0000
0000
0001
0001
,  // measure 55
0000
0000
1000
1000
,  // measure 56
0001
0000
0000
0000
,  // measure 57
1000
0000
0000
0000
,  // measure 58
0010
0000
0000
0000
,  // measure 59
1000
0000
0000
0000
,  // measure 60
0100
0000
0000
0000
,  // measure 61
1000
0000
0000
0000
,  // measure 62
0001
0000
0000
0000
,  // measure 63
1000
0000
0000
0000
,  // measure 64
0001
0000
0000
0000
,  // measure 65
0001
0000
0000
0000
,  // measure 66
0100
0000
0000
0000
,  // measure 67
0001
0000
1000
0000
,  // measure 68
0001
0000
1000
0000
,  // measure 69
0010
0000
0000
0000
,  // measure 70
0100
0000
0000
0000
,  // measure 71
0001
0000
1000
0000
,  // measure 72
0020
0000
0000
0030
;
