#TITLE:Naissance;
#SUBTITLE:;
#ARTIST:BanYa;
#TITLETRANSLIT:;
#SUBTITLETRANSLIT:;
#ARTISTTRANSLIT:;
#CREDIT:;
#BANNER:Naissance-banner.png;
#BACKGROUND:Naissance-bg.png;
#LYRICSPATH:;
#CDTITLE:;
#MUSIC:Naissance.ogg;
#OFFSET:-0.052;
#SAMPLESTART:69.134;
#SAMPLELENGTH:7.085;
#SELECTABLE:YES;
#BPMS:0.000=135.500;
#STOPS:;
#BGCHANGES:-10000.000=songbackground=1.000=0=0=1,
0.000=Naissance.avi=1.000=1=0=0,
220.000=Naissance-bg.png=2.000=1=0=0,
99999=-nosongbg-=1.000=0=0=0 // don't automatically add -songbackground-
;

//---------------dance-single - ----------------
#NOTES:
     dance-single:
     :
     Hard:
     7:
     0.424,0.484,0.130,0.329,0.075: // measure 1
0000
0000
0000
0000
,  // measure 2
0000
0000
0000
0000
,  // measure 3
0000
0000
0000
0000
,  // measure 4
0000
0000
0000
0000
,  // measure 5
1000
0001
0100
0100
,  // measure 6
0001
1000
0010
0010
,  // measure 7
1000
0010
1000
1000
,  // measure 8
0010
0100
0010
0100
0010
0100
0001
0000
,  // measure 9
1000
1000
0001
1000
,  // measure 10
0010
0010
0100
0010
,  // measure 11
1000
0010
0100
0001
,  // measure 12
1000
0001
1000
0001
1000
0001
0001
0000
,  // measure 13
0100
0010
1000
0010
,  // measure 14
0001
0010
0100
0001
,  // measure 15
1000
0100
0010
0001
,  // measure 16
1000
0001
1000
0001
1000
0001
0010
0000
,  // measure 17
0202
0000
0000
0303
,  // measure 18
0001
1000
0010
1000
,  // measure 19
0010
0001
0010
0100
,  // measure 20
0001
0000
0100
0000
0010
1000
0001
0000
,  // measure 21
0202
0000
0000
0303
0000
0000
0001
0000
1000
0000
0001
0000
,  // measure 22
2002
0000
0000
3003
0000
0000
0001
0000
1000
0000
0100
0000
,  // measure 23
2200
0000
0000
3300
0000
0000
1000
0000
0100
0000
0010
0000
,  // measure 24
0001
0000
1000
0001
1000
0001
0020
0000
,  // measure 25
0200
0000
0000
0330
0000
0000
0010
0000
0001
0000
0100
0000
,  // measure 26
0220
0000
0000
0330
0000
0000
0010
0000
1000
0000
0001
0000
,  // measure 27
2020
0000
0000
3030
0000
0000
1000
0000
0001
0000
1000
0000
,  // measure 28
1000
0000
1000
0100
0020
0000
0000
0000
,  // measure 29
0031
0100
0010
0000
0100
1000
0010
0000
,  // measure 30
0100
0001
1000
0000
1000
0001
0010
0100
,  // measure 31
0010
0001
1000
0000
0100
1000
0010
0000
,  // measure 32
0100
0000
0001
0000
0100
0000
1000
0000
0100
0000
0010
0000
1000
0100
0000
0000
,  // measure 33
2000
0000
3001
0000
0001
0100
0001
0000
,  // measure 34
0200
0000
0310
0000
0100
0001
1000
0000
,  // measure 35
0200
0000
0310
0000
0100
1000
0001
0000
,  // measure 36
1000
0001
1000
0001
,  // measure 37
0100
0010
2000
0000
3100
0000
1000
0000
,  // measure 38
0100
1000
0010
0000
0200
0000
0301
0000
,  // measure 39
0001
0010
0100
0000
0020
0000
0031
0000
,  // measure 40
0100
0000
0001
0000
0100
0000
0010
0000
1000
0000
0001
0000
0010
0100
0000
0000
,  // measure 41
2200
3300
1000
0001
,  // measure 42
0202
0303
0001
0100
,  // measure 43
0202
0303
0001
1000
,  // measure 44
0100
0000
1000
0010
0100
0001
0010
0100
,  // measure 45
2200
0000
3300
0000
1000
0001
0001
0000
,  // measure 46
0220
0000
0330
0000
0100
0010
0001
0000
,  // measure 47
2002
0000
3003
0000
0001
1000
0010
0000
,  // measure 48
0100
0000
0010
0000
1000
0000
0001
0000
0010
0000
0001
0000
1000
0010
0000
0000
,  // measure 49
0100
0100
0010
0000
1000
1000
0100
0000
,  // measure 50
0100
0100
1000
0000
1000
1000
0001
0100
,  // measure 51
1000
0100
0100
0000
0010
1000
1000
0000
,  // measure 52
0001
1000
0100
0000
1000
0010
0100
0000
,  // measure 53
0001
1000
0001
1000
0001
1000
0001
1000
,  // measure 54
0001
1000
0001
0010
0001
0010
1000
0010
,  // measure 55
0011
0000
0000
0000
;

//---------------dance-single - ----------------
#NOTES:
     dance-single:
     :
     Medium:
     5:
     0.342,0.431,0.229,0.150,0.000: // measure 1
0000
0000
0000
0000
,  // measure 2
0000
0000
0000
0000
,  // measure 3
0000
0000
0000
0000
,  // measure 4
0000
0000
0000
0000
,  // measure 5
1000
0001
1000
1000
,  // measure 6
0001
1000
0001
0001
,  // measure 7
1000
0001
1000
1000
,  // measure 8
0010
0100
0010
0010
,  // measure 9
1000
0001
1000
1000
,  // measure 10
0001
1000
0001
0001
,  // measure 11
2000
0000
0000
3000
,  // measure 12
0010
0100
0001
1000
,  // measure 13
0100
1000
0100
1000
,  // measure 14
0010
0100
0010
0100
,  // measure 15
0001
0010
0001
0010
,  // measure 16
0000
0000
0000
0000
,  // measure 17
2002
0000
0000
3003
,  // measure 18
0001
1000
0100
1000
,  // measure 19
0010
0100
0010
0010
,  // measure 20
0100
0000
0001
0000
1000
0001
1000
0000
,  // measure 21
0202
0303
0001
0100
,  // measure 22
0220
0330
0010
1000
,  // measure 23
2200
3300
1000
0100
,  // measure 24
0110
1001
0101
1010
,  // measure 25
0202
0303
0001
0100
,  // measure 26
0220
0330
0010
1000
,  // measure 27
2020
3030
0010
1000
,  // measure 28
1001
0010
1001
0110
,  // measure 29
0001
0100
0001
0000
0100
0001
0100
0000
,  // measure 30
0001
0100
0001
0000
0001
0100
0010
1000
,  // measure 31
0100
1000
0100
0000
1000
0100
1000
0000
,  // measure 32
0100
1000
0100
0000
1000
0100
0010
0001
,  // measure 33
1000
0001
0100
0100
,  // measure 34
0001
1000
0010
0010
,  // measure 35
1000
0001
0010
0010
,  // measure 36
0001
0100
1000
0100
,  // measure 37
0010
0010
1000
0010
,  // measure 38
1000
1000
0100
1000
,  // measure 39
0100
0100
0010
0001
,  // measure 40
1000
0000
0001
0000
1000
0001
1000
0000
,  // measure 41
0101
0000
0001
0100
,  // measure 42
0110
0000
0010
1000
,  // measure 43
1100
0000
1000
0010
,  // measure 44
0110
0010
0110
0100
,  // measure 45
0110
0000
0010
1000
,  // measure 46
1001
0000
0001
1000
,  // measure 47
1100
0000
1000
0010
,  // measure 48
0100
0010
1000
0001
,  // measure 49
1000
0001
1000
0000
0001
1000
0001
0000
,  // measure 50
1000
0001
1000
0000
0001
1000
0001
0000
,  // measure 51
0001
0100
0010
0000
0100
0010
1000
0000
,  // measure 52
0010
1000
0010
0000
0100
0010
1000
0000
,  // measure 53
0001
1000
0001
1000
,  // measure 54
0001
0000
1000
0001
1000
0001
1000
0001
,  // measure 55
1001
0000
0000
0000
;

//---------------dance-single - ----------------
#NOTES:
     dance-single:
     :
     Easy:
     2:
     0.159,0.269,0.159,0.020,0.000: // measure 1
0000
0000
0000
0000
,  // measure 2
0000
0000
0000
0000
,  // measure 3
0000
0000
0000
0000
,  // measure 4
0000
0000
0000
0000
,  // measure 5
0001
0000
0001
0000
,  // measure 6
0001
0000
0001
0000
,  // measure 7
0001
0000
0001
0000
,  // measure 8
0001
1000
0001
1000
,  // measure 9
1000
0000
1000
0000
,  // measure 10
1000
0000
1000
0000
,  // measure 11
1000
0000
0000
0000
,  // measure 12
0010
0100
0010
0100
,  // measure 13
0010
0000
1000
0000
,  // measure 14
0001
0000
0010
0000
,  // measure 15
0001
0000
1000
0000
,  // measure 16
0020
0000
0000
0000
,  // measure 17
0200
0000
0000
0330
,  // measure 18
0010
0000
1000
0000
,  // measure 19
0010
0000
1000
0000
,  // measure 20
0001
1000
0100
0000
,  // measure 21
0110
0000
0000
0000
,  // measure 22
1001
0000
0000
0000
,  // measure 23
0101
0000
0000
0000
,  // measure 24
1010
0000
0010
0000
,  // measure 25
1010
0000
0000
0000
,  // measure 26
1001
0000
0000
0000
,  // measure 27
0011
0000
0000
0000
,  // measure 28
0110
0000
0100
0000
,  // measure 29
0010
0000
0001
0000
,  // measure 30
1000
0000
1000
0010
,  // measure 31
1000
0000
0010
0000
,  // measure 32
0100
0000
0001
1000
,  // measure 33
0001
0000
0000
0000
,  // measure 34
1000
0000
0000
0000
,  // measure 35
0010
0000
0000
0000
,  // measure 36
0100
0010
0100
0000
,  // measure 37
0010
0000
0000
0000
,  // measure 38
1000
0000
0000
0000
,  // measure 39
0001
0000
0000
0000
,  // measure 40
1000
0001
1000
0001
,  // measure 41
1001
0000
0000
0000
,  // measure 42
0110
0000
0000
0000
,  // measure 43
1010
0000
0000
0000
,  // measure 44
0011
0000
0010
0000
,  // measure 45
0011
0000
0000
0000
,  // measure 46
0101
0000
0000
0000
,  // measure 47
0110
0000
0000
0000
,  // measure 48
0010
0000
1000
0000
,  // measure 49
0001
0000
0001
0000
,  // measure 50
1000
0000
1000
0000
,  // measure 51
0010
0000
0100
0000
,  // measure 52
0001
0000
1000
0000
,  // measure 53
0010
0100
0010
0100
,  // measure 54
0010
0010
0010
0010
,  // measure 55
1001
0000
0000
0000
;

//---------------dance-single - ----------------
#NOTES:
     dance-single:
     :
     Beginner:
     1:
     0.087,0.161,0.020,0.000,0.000: // measure 1
0000
0000
0000
0000
,  // measure 2
0000
0000
0000
0000
,  // measure 3
0000
0000
0000
0000
,  // measure 4
0000
0000
0000
0000
,  // measure 5
1000
0000
0000
0000
,  // measure 6
1000
0000
0000
0000
,  // measure 7
1000
0000
0000
0000
,  // measure 8
1000
0000
0000
0000
,  // measure 9
0001
0000
0000
0000
,  // measure 10
0001
0000
0000
0000
,  // measure 11
0001
0000
0000
0000
,  // measure 12
0000
0000
0000
0000
,  // measure 13
0010
0000
0000
0000
,  // measure 14
0100
0000
0000
0000
,  // measure 15
0001
0000
0000
0000
,  // measure 16
0000
0000
0000
0000
,  // measure 17
0110
0000
0000
0000
,  // measure 18
0010
0000
0000
0000
,  // measure 19
1000
0000
0000
0000
,  // measure 20
0100
0000
0100
0000
,  // measure 21
0010
0000
0000
0000
,  // measure 22
0001
0000
0000
0000
,  // measure 23
1000
0000
0000
0000
,  // measure 24
0001
0000
0001
0000
,  // measure 25
0100
0000
0000
0000
,  // measure 26
0010
0000
0000
0000
,  // measure 27
1000
0000
0000
0000
,  // measure 28
0100
0000
0100
0000
,  // measure 29
0100
0000
0000
0000
,  // measure 30
0010
0000
0000
0000
,  // measure 31
0001
0000
0000
0000
,  // measure 32
1000
0000
1000
0000
,  // measure 33
0001
0000
0000
0000
,  // measure 34
0100
0000
0000
0000
,  // measure 35
0010
0000
0000
0000
,  // measure 36
1000
0000
1000
0000
,  // measure 37
1000
0000
0000
0000
,  // measure 38
0001
0000
0000
0000
,  // measure 39
1000
0000
0000
0000
,  // measure 40
0010
0000
0010
0000
,  // measure 41
0100
0000
0000
0000
,  // measure 42
0001
0000
0000
0000
,  // measure 43
1000
0000
0000
0000
,  // measure 44
0001
0000
0001
0000
,  // measure 45
0100
0000
0000
0000
,  // measure 46
0010
0000
0000
0000
,  // measure 47
1000
0000
0000
0000
,  // measure 48
1000
0000
1000
0000
,  // measure 49
0010
0000
0000
0000
,  // measure 50
0100
0000
0000
0000
,  // measure 51
0001
0000
0000
0000
,  // measure 52
1000
0000
0000
0000
,  // measure 53
0001
0000
0001
0000
,  // measure 54
1000
0000
1000
0000
,  // measure 55
1001
0000
0000
0000
;
