#TITLE:NB RANGER;
#SUBTITLE:;
#ARTIST:M2U;
#TITLETRANSLIT:;
#SUBTITLETRANSLIT:;
#ARTISTTRANSLIT:;
#CREDIT:;
#BANNER:bn.png;
#BACKGROUND:bg.png;
#LYRICSPATH:;
#CDTITLE:;
#MUSIC:NB RANGER.mp3;
#OFFSET:-0.048;
#SAMPLESTART:13.960;
#SAMPLELENGTH:12.000;
#SELECTABLE:YES;
#BPMS:0.000=140.000;
#STOPS:;
#BGCHANGES:0.000=movie 2[1].avi=1.000=1=1=0,
268.000=bg.png=1.000=1=0=0,
99999=-nosongbg-=1.000=0=0=0 // don't automatically add -songbackground-
;

//---------------dance-single - ----------------
#NOTES:
     dance-single:
     :
     Hard:
     9:
     0.529,0.564,0.085,0.085,0.182:
0000
0000
0000
0000
,
0000
0000
0000
0000
,
0000
0000
0000
0000
,
0000
0000
0000
0000
,
1000
0000
0001
0000
0100
0001
0100
0000
,
0010
0100
1000
0000
0100
0010
1000
0001
,
0011
0000
0001
0000
0010
0001
1000
0000
,
0001
0100
1000
0100
0010
1000
0001
0000
,
0100
1000
0100
0001
0100
1000
0100
0001
,
0100
1000
0100
0001
1000
0000
0000
0000
,
1000
0010
0001
0010
1000
0010
0001
0010
,
1000
0010
0001
0010
1000
0000
0000
0000
,
0001
0100
0010
0100
0001
0010
0100
0010
,
0100
0001
0100
0010
0100
0000
0000
0000
,
1000
0010
0100
0010
0100
0010
0100
1000
,
0100
0010
0100
1000
0010
0000
0000
0000
,
0100
0000
1001
0000
0010
0000
1001
1000
,
0200
0000
0010
0000
1000
0000
0310
0001
,
0100
0010
1000
0010
1000
0100
0010
0100
,
1000
0010
0100
0001
0010
0000
0000
0000
,
0010
0100
1000
0100
1000
0010
0100
0001
,
1000
0001
0100
0001
0010
0000
0000
0000
,
0100
1000
0001
0100
1000
0100
1000
0100
,
0001
0010
1000
0010
0100
0000
0000
0000
,
0010
0001
1000
0010
0100
0010
1000
0001
,
1000
0100
0010
0001
1000
0001
1000
0000
,
0010
1000
0010
1000
0010
0000
1000
0000
0000
0000
0001
0000
0001
0000
0000
0000
,
0010
0000
0000
0001
0000
0000
1000
0000
0020
0000
0000
0000
0030
0000
0000
0000
,
0100
0001
0100
0010
0100
1000
0100
0010
,
0100
0000
0000
0001
0000
0000
1000
0000
0200
0000
0000
0000
0310
0000
0000
0000
,
0100
0000
0000
1000
0000
0000
0010
0000
0000
0100
0000
0000
0001
0000
0000
0000
,
1000
0000
0000
0100
0000
0000
1000
0000
0020
0000
0000
0000
0030
0000
0000
0000
,
0100
0001
0010
0100
0010
0001
1000
0010
,
1000
0100
1000
0001
0020
0000
0230
0000
,
1300
0000
0100
0000
1100
0000
1000
0100
0000
1000
0100
0000
0010
0000
0001
0000
,
0100
0000
0100
0000
0100
0000
0010
1000
0000
1000
0001
0000
0010
0000
0100
0000
,
1000
0001
1000
0000
0010
0000
1000
0000
0100
0000
0001
0000
0100
0000
0010
0000
,
0001
0100
0001
1000
0100
1000
0010
1000
,
0001
0100
0000
0010
0000
1000
0000
0100
,
0000
0010
0001
0010
0100
1000
1000
0001
,
0100
0000
0001
0100
0000
0000
0100
0000
0001
0100
0000
0000
0010
0000
1000
0010
,
0000
0000
0010
0000
0100
0010
0000
0000
0100
0000
0001
0000
1000
0000
0000
0000
,
1000
0010
1000
0001
0010
0100
0010
0001
,
1000
0010
0100
0001
0101
0000
0000
0000
,
0001
1000
0100
1000
0010
0100
0010
1000
,
0010
0100
0001
1000
1100
0000
0000
0000
,
1000
0001
1000
0000
0100
0000
0010
0000
0100
0000
0001
0000
1000
0000
0100
0000
,
0010
0001
0100
0000
0010
0000
1000
0000
0100
0000
1000
0000
0001
0000
0100
0000
,
0010
1000
0010
0000
1000
0000
0100
0000
0001
0000
0100
0000
0010
0000
0001
0000
,
0100
0010
1000
0001
1000
0000
0100
0000
0020
0000
0000
0000
0000
0000
0000
0000
,
0130
0000
0000
0000
0000
0000
0010
0000
0000
0000
0000
0000
0001
0100
0001
0100
,
0010
0000
0000
0000
0000
0000
0100
0000
0000
0000
0000
0000
0010
1000
0010
1000
,
0010
0000
0000
0000
0000
0000
1000
0000
0000
0000
0000
0000
1000
0100
1000
0100
,
1000
0000
0000
0000
0000
0000
0100
0000
0000
0000
0000
0000
0010
0100
0010
0100
,
0010
0000
0000
0000
0000
0000
0101
0000
0000
0000
0000
0000
0001
0100
0010
1000
,
0010
0000
0000
0000
0000
0000
0110
0000
0000
0000
0000
0000
1000
0001
0100
0001
,
0100
0000
0000
0000
0000
0000
1010
0000
0000
0000
0000
0000
1000
0100
0010
0001
,
0010
0000
0000
0010
0000
0000
0100
0000
0000
1000
0000
0000
1000
0100
0010
1000
,
0001
1000
0100
0000
1000
0000
0100
0000
0001
0000
0100
0000
1000
0000
0100
0000
,
0010
0001
0010
1000
0001
0000
0000
0000
,
0001
0100
0001
0000
0100
0000
0010
0000
1000
0000
0100
0000
0001
0000
0100
0000
,
1000
0010
0100
0001
1000
0000
0000
0000
,
0001
0100
0001
0000
0100
0000
1000
0000
0100
0000
0010
0000
1000
0000
0010
0000
,
0001
0010
0100
1000
0100
0000
0000
0000
,
0010
1000
0001
0000
0010
0000
0100
0000
1000
0000
0100
0000
1000
0000
0010
0000
,
0100
0001
0010
1000
0020
0000
0030
0000
,
2002
0000
3003
0000
;

//---------------dance-single - ----------------
#NOTES:
     dance-single:
     :
     Medium:
     5:
     0.356,0.395,0.161,0.076,0.000:
0000
0000
0000
0000
,
0000
0000
0000
0000
,
0000
0000
0000
0000
,
0000
0000
0000
0000
,
0001
1000
0001
0000
0100
0000
0010
0000
,
1000
0000
0010
0000
0100
0010
1001
0000
,
0001
0100
0001
0000
0100
0000
0010
0000
,
1000
0100
1000
0100
1000
0100
0010
0000
,
0100
1000
0010
0001
,
0010
0000
0100
0010
1000
0000
0000
0000
,
0001
1000
0010
1000
,
0100
0000
0010
0001
0100
0000
0000
0000
,
0010
1000
0001
0010
,
0001
0000
1000
0001
0100
0000
0000
0000
,
0100
0010
1000
0001
,
0010
0000
0100
0010
0001
0000
0000
0000
,
1000
0000
0101
0000
0001
0100
0010
0000
,
0100
0000
1001
0000
0001
1000
0100
0000
,
1000
0001
0100
0010
,
1000
0000
0010
1000
0001
0000
0000
0000
,
1000
0100
1000
0010
,
0100
0000
0010
1000
0001
0000
0000
0000
,
0001
0010
0100
0010
,
0100
0000
1000
0010
0100
0000
0000
0000
,
0010
1000
0001
0010
,
0100
0000
0010
0001
1000
0000
0000
0000
,
0001
0100
0001
0000
0100
0000
0010
0000
,
1000
0001
0020
0030
,
0001
0010
0001
0000
0100
1000
0100
0000
,
1000
0010
0200
0300
,
0010
1000
0010
0001
,
0100
1000
0200
0300
,
0020
0000
2030
0000
,
3001
1000
0001
0100
,
0202
0000
0000
0303
,
0001
0100
1000
0100
0010
0000
0100
0000
,
0010
1000
0001
0000
1000
0001
0100
0000
,
0001
1000
0001
1000
0001
1000
0001
0000
,
1000
0000
1100
0000
1000
0010
0100
0000
,
0010
0000
0101
0000
0001
0010
0100
0000
,
0010
0000
0001
0000
1000
0010
0100
0000
,
0010
0000
1000
0000
0001
1000
0001
0000
,
1000
0100
0010
0100
,
1000
0010
0100
0001
0010
0000
0000
0000
,
0100
0010
0001
1000
,
0010
0100
0001
1000
0100
0000
0000
0000
,
1000
0100
1000
0000
0100
0000
0010
0000
,
0001
0010
0100
0000
1000
0000
0100
0000
,
1000
0100
0001
0000
0100
0000
0010
0000
,
0001
0100
1000
0100
0010
0000
1000
0000
,
0001
0000
0000
1000
0000
0000
0010
0000
,
1000
0000
0000
0100
0000
0000
0010
0000
,
0100
0000
0000
1000
0000
0000
0001
0000
,
1000
0000
0000
0010
0000
0000
0100
0000
,
0101
0000
0000
1100
0000
0000
1010
0000
,
1001
0000
0000
1100
0000
0000
0011
0000
,
0110
0000
0000
1001
0000
0000
0101
0000
,
1010
0000
0000
0101
0000
0000
1001
0000
,
0001
1000
0100
1000
,
0010
1000
0001
0010
0100
0000
0000
0000
,
0010
0001
0100
0010
,
1000
0001
0100
0001
0010
0000
0000
0000
,
0100
0010
0001
0010
,
0100
1000
0010
0100
0001
0000
0000
0000
,
1000
0001
0100
0010
,
0100
0010
1000
0001
0010
0000
0000
0000
,
2002
0000
3003
0000
;

//---------------dance-single - ----------------
#NOTES:
     dance-single:
     :
     Easy:
     4:
     0.260,0.338,0.127,0.102,0.000:
0000
0000
0000
0000
,
0000
0000
0000
0000
,
0000
0000
0000
0000
,
0000
0000
0000
0000
,
0010
0100
0000
0000
,
0000
0000
0010
1000
,
0001
1000
0000
0000
,
0220
0000
0000
0330
,
0010
1000
0010
1000
,
0010
1000
0010
0000
,
0100
0001
0100
0001
,
0100
0001
0100
0000
,
0001
0010
0001
0010
,
0001
0010
0001
0000
,
1000
0010
1000
0010
,
1000
0010
1000
0000
,
0001
1000
0100
0001
,
0100
0010
0010
0100
,
1000
0001
0100
0001
,
1000
0100
1000
0000
,
0001
1000
0010
1000
,
0001
0010
0001
0000
,
0001
0100
0010
0100
,
0001
0010
0100
0000
,
1000
0010
0100
0010
,
1000
0100
0010
0000
,
0100
1100
0100
0010
,
0001
1000
0020
0030
,
0100
0100
0100
0100
,
0010
1000
0002
1000
,
2003
0000
0000
3000
,
0002
0000
0003
0000
,
0200
0000
0000
0000
,
0000
0000
0000
0300
,
0020
0000
0000
0030
,
0100
0010
1000
0000
,
0001
1000
0000
1000
,
0000
0001
0100
0001
,
0010
0010
0000
0100
,
0000
0010
0001
1000
,
0100
0000
1000
0000
,
0010
0100
0010
1000
,
0001
1000
0100
0010
,
0100
1000
0010
0000
,
0100
0001
0100
1000
,
0100
0010
1000
0000
,
0001
0001
1000
1000
,
0010
0100
0001
0010
,
0100
0010
0001
1000
,
0010
0100
0001
0000
,
1001
0000
0000
0010
,
1001
0000
0000
0100
,
1001
0000
0000
0010
,
1001
0000
0100
0000
,
0101
0000
0000
1010
,
1001
0000
0000
1100
,
0011
0000
0000
0101
,
1010
0010
2002
3003
,
0001
0100
1000
0100
,
0001
0100
1000
1000
,
1000
0010
0001
0010
,
1000
0010
0001
0001
,
0100
0010
1000
0001
,
0010
0100
0010
0000
,
0100
1000
0010
0100
,
0001
0010
0001
0000
,
2002
0000
3003
0000
;

//---------------dance-single - ----------------
#NOTES:
     dance-single:
     :
     Beginner:
     1:
     0.128,0.224,0.110,0.008,0.000: // measure 1
0000
0000
0000
0000
,  // measure 2
0000
0000
0000
0000
,  // measure 3
0000
0000
0000
0000
,  // measure 4
0000
0000
0000
0000
,  // measure 5
0010
0000
0000
0000
,  // measure 6
0000
0000
0100
0100
,  // measure 7
0010
0000
0000
0000
,  // measure 8
1001
0000
0000
0000
,  // measure 9
1000
0000
0000
0000
,  // measure 10
0001
0000
0001
0000
,  // measure 11
0100
0000
0000
0000
,  // measure 12
0010
0000
0010
0000
,  // measure 13
0100
0000
0000
0000
,  // measure 14
0001
0000
1000
0000
,  // measure 15
0010
0000
0000
0000
,  // measure 16
0100
0000
0001
0000
,  // measure 17
1000
0000
0000
0000
,  // measure 18
1001
0000
0000
0000
,  // measure 19
0010
0000
0000
0000
,  // measure 20
0100
0000
0100
0000
,  // measure 21
0010
0000
0000
0000
,  // measure 22
1000
0000
1000
0000
,  // measure 23
0001
0000
0000
0000
,  // measure 24
0100
0000
0100
0000
,  // measure 25
0010
0000
0000
0000
,  // measure 26
1000
0000
1000
0000
,  // measure 27
1001
0000
0000
0000
,  // measure 28
0001
0000
0000
0000
,  // measure 29
0100
0000
0100
0000
,  // measure 30
0100
0000
0000
0000
,  // measure 31
0010
0000
0010
0000
,  // measure 32
0010
0000
0000
0000
,  // measure 33
2000
0000
0000
0000
,  // measure 34
0000
0000
3000
0000
,  // measure 35
0001
0000
0000
0000
,  // measure 36
0100
0000
0000
0000
,  // measure 37
0010
0000
0100
0000
,  // measure 38
0010
0010
0010
0000
,  // measure 39
1000
0000
1000
0000
,  // measure 40
0001
0001
0001
0000
,  // measure 41
0100
0000
0100
0000
,  // measure 42
0010
0010
0010
0000
,  // measure 43
1001
0000
0000
0000
,  // measure 44
1000
0000
0001
0000
,  // measure 45
0100
0000
0000
0000
,  // measure 46
0010
0000
0100
0000
,  // measure 47
0010
0000
0000
0000
,  // measure 48
1000
0000
0000
0000
,  // measure 49
0001
0000
0000
0000
,  // measure 50
0100
0000
0000
0000
,  // measure 51
0110
0000
0000
0000
,  // measure 52
1001
0000
0000
0000
,  // measure 53
1001
0000
0000
0000
,  // measure 54
0110
0000
0000
0000
,  // measure 55
0110
0000
0010
0000
,  // measure 56
1001
0000
0100
0000
,  // measure 57
1001
0000
0010
0000
,  // measure 58
0110
0000
0100
0000
,  // measure 59
0010
0000
0000
0000
,  // measure 60
1000
0000
0001
0000
,  // measure 61
1000
0000
0000
0000
,  // measure 62
0010
0000
0100
0000
,  // measure 63
0010
0000
0000
0000
,  // measure 64
0100
0000
0001
0000
,  // measure 65
1000
0000
0000
0000
,  // measure 66
1000
0000
0001
0000
,  // measure 67
0110
0000
0000
0000
;
