#TITLE:My Epiphany;
#SUBTITLE:;
#ARTIST:Crystal Begley;
#TITLETRANSLIT:;
#SUBTITLETRANSLIT:;
#ARTISTTRANSLIT:;
#CREDIT:;
#BANNER:bn.png;
#BACKGROUND:bg.png;
#LYRICSPATH:;
#CDTITLE:;
#MUSIC:My Epiphany.mp3;
#OFFSET:-2.626;
#SAMPLESTART:76.180;
#SAMPLELENGTH:12.000;
#SELECTABLE:YES;
#BPMS:0.000=150.000;
#STOPS:;
#BGCHANGES:;

//---------------dance-single - ----------------
#NOTES:
     dance-single:
     :
     Hard:
     7:
     0.376,0.389,0.030,0.099,0.068:
0000
0000
0000
0000
,
0000
0000
0000
0000
,
0000
0000
0000
0000
,
0000
0000
0000
0000
,
0000
0000
0000
0000
,
1000
0000
0010
0000
0100
0001
1000
0000
,
0001
0000
1000
0000
0100
1000
0100
0000
,
1000
0000
0010
0000
0100
0001
1000
0000
,
0001
0000
1000
0000
0100
1000
0100
0000
,
1000
0000
0100
0000
0010
0000
0001
0010
,
0001
0100
1000
0100
,
0010
0000
1000
0000
0010
0100
0001
0000
,
1000
0000
0001
0000
0001
0010
1000
0000
,
0010
0000
0100
0000
1000
0100
0001
0000
,
0001
0000
0100
0000
0010
0001
0100
0000
,
0010
0000
1000
0000
0001
0000
0010
0100
,
1000
1000
0001
0001
,
1000
0000
0001
0000
0100
0000
0001
0010
,
0100
0000
0000
0100
0000
0000
0100
0000
0000
0000
0000
0000
0000
0000
0000
0000
,
1100
0000
0100
0000
1000
0000
0010
0100
,
0001
0000
0000
1000
0000
0000
0100
0000
0000
0000
0000
0000
0000
0000
0000
0000
,
1010
0000
0010
0000
0100
0000
0010
1000
,
0001
0000
0000
0001
0000
0000
0100
0000
0000
0000
0000
0000
0000
0000
0000
0000
,
0001
0100
1000
0100
,
0001
0010
1000
0010
,
0001
0000
1000
0000
0010
0000
0100
0001
,
1000
0000
0000
0100
0000
0000
0010
0000
0000
0000
0000
0000
0000
0000
0000
0000
,
0100
0000
1000
0000
0010
0000
0100
0010
,
1000
0000
0000
1000
0000
0000
1000
0000
0000
0000
0000
0000
0000
0000
0000
0000
,
0001
0000
1000
0000
0100
0000
1000
0010
,
0100
0000
0000
0100
0000
0000
0001
0000
0000
0000
0000
0000
0000
0000
0000
0000
,
0100
0001
0010
1000
,
0010
0001
0100
0010
,
1000
0000
0001
0000
1000
1000
0100
0000
,
1000
0100
0010
0000
0010
0001
0010
0000
,
0001
0100
0010
0000
0100
0010
1000
0000
,
0001
1000
0100
0000
0100
0010
0001
0000
,
0001
0010
0100
0000
0100
1000
0010
0000
,
0100
0010
1000
0000
0010
0000
0110
0000
,
0010
1000
0001
0000
0010
0000
1100
0000
,
1000
0100
0010
0000
0010
0001
0100
0000
,
0001
0100
1000
0000
1000
0100
0010
0000
,
0010
0100
0001
0000
0001
1000
0100
0000
,
1000
0010
0100
0000
0010
1000
0001
0000
,
1000
0000
0001
0000
0100
0000
0001
0010
,
0100
0100
0010
0010
,
0001
0000
1000
0000
0010
0000
0100
0001
,
0010
0000
0000
0100
0000
0000
2000
0000
0000
0000
0000
0000
3000
0000
0000
0000
,
0001
0000
1000
0000
0010
0000
0100
0010
,
1000
0000
0000
0010
0000
0000
0200
0000
0000
0000
0000
0000
0300
0000
0000
0000
,
0010
0000
1000
0000
0001
0000
0010
0100
,
1000
0000
0000
0100
0000
0000
2000
0000
0000
0000
0000
0000
3000
0000
0000
0000
,
0100
1000
0010
0001
,
0010
0100
0001
1000
,
0100
0000
1000
0000
0010
0000
0100
0001
,
1000
0000
0000
0001
0000
0000
0200
0000
0000
0000
0000
0000
0300
0000
0000
0000
,
0001
0000
1000
0000
0010
0000
0100
0010
,
0100
0000
0000
0010
0000
0000
2000
0000
0000
0000
0000
0000
3000
0000
0000
0000
,
0001
0000
1000
0000
0100
0000
1000
0100
,
0010
0000
0000
0010
0000
0000
0200
0000
0000
0000
0000
0000
0300
0000
0000
0000
,
0010
0001
0100
1000
,
0100
0010
1000
0001
,
1000
0000
0001
0100
0010
0000
0100
0010
,
1000
0000
0000
0010
0000
0000
0200
0000
0000
0000
0000
0000
0300
0000
0000
0000
,
0010
0000
1000
0010
0100
0000
0100
0010
,
1000
0000
0000
0001
0000
0000
0020
0000
0000
0000
0000
0000
0030
0000
0000
0000
,
0001
0000
0010
0100
1000
0000
0100
1000
,
0010
0000
0000
0100
0000
0000
0020
0000
0000
0000
0000
0000
0030
0000
0000
0000
,
0100
0010
1000
0001
,
0010
1000
0010
0001
,
0100
0000
0001
0100
0010
0000
0100
0010
,
1000
0000
0000
0010
0000
0000
0200
0000
0000
0000
0000
0000
0300
0000
0000
0000
,
0010
0000
0100
0010
1000
0000
1000
0001
,
0100
0000
0000
0010
0000
0000
2000
0000
0000
0000
0000
0000
3000
0000
0000
0000
,
1000
0000
1000
0100
0010
0000
0010
0100
,
1000
0000
0000
0001
0000
0000
0200
0000
0000
0000
0000
0000
0300
0000
0000
0000
,
0001
0100
1000
0100
,
0010
1000
0001
0010
,
0200
0000
0000
0300
;

//---------------dance-single - ----------------
#NOTES:
     dance-single:
     :
     Medium:
     6:
     0.388,0.539,0.319,0.015,0.000: // measure 1
0000
0000
0000
0000
,  // measure 2
0000
0000
0000
0000
,  // measure 3
0000
0000
0000
0000
,  // measure 4
0000
0000
0000
0000
,  // measure 5
0010
0000
0100
0000
,  // measure 6
0001
0000
0100
0000
0001
0100
0001
0000
,  // measure 7
0100
0000
0010
0000
1000
0010
1000
0000
,  // measure 8
0010
0000
0100
0000
0010
0100
0010
0000
,  // measure 9
0100
0000
0010
0000
1000
0010
1000
0000
,  // measure 10
0020
0000
0000
0100
,  // measure 11
0130
0010
1000
0000
,  // measure 12
0001
0000
1000
0000
0100
1000
0100
0000
,  // measure 13
1000
0000
0010
0000
0100
0010
0100
0000
,  // measure 14
0010
0000
1000
0000
0001
0010
0001
0000
,  // measure 15
0010
0000
0100
0000
0100
1000
0100
0000
,  // measure 16
0200
0000
0000
0310
,  // measure 17
0001
0100
1000
0000
,  // measure 18
0100
0000
0010
0000
1000
0000
0001
1000
,  // measure 19
0001
0001
0001
1000
,  // measure 20
0010
0000
1000
0000
0010
0000
0100
0010
,  // measure 21
1000
0001
0010
0100
,  // measure 22
0010
0000
0001
0000
0100
0000
0010
1000
,  // measure 23
0001
1000
0100
0010
,  // measure 24
0011
0011
1010
1010
,  // measure 25
0011
0011
1010
1010
,  // measure 26
1001
0000
0001
0000
1000
0000
0010
1000
,  // measure 27
0010
0010
0100
0000
,  // measure 28
0010
0000
1000
0000
0100
0000
0010
0001
,  // measure 29
0100
0010
1000
0000
,  // measure 30
0010
0000
0100
0000
0001
0000
1000
0100
,  // measure 31
0010
0100
1000
0000
,  // measure 32
1100
0110
1100
0110
,  // measure 33
0011
0110
1001
0110
,  // measure 34
1001
0000
0000
0000
,  // measure 35
0001
0000
0001
0000
1000
0001
1000
0000
,  // measure 36
1000
0000
1000
0000
0010
1000
0010
0000
,  // measure 37
0100
0000
0100
0000
0010
1000
0010
0000
,  // measure 38
0100
0000
0001
0000
0010
0100
1000
0000
,  // measure 39
0100
0000
0010
0000
0001
0000
0010
0001
,  // measure 40
0010
0001
0010
0000
,  // measure 41
0001
0000
0100
0000
1000
0100
0010
0000
,  // measure 42
0100
0000
0010
0000
0100
0010
1000
0000
,  // measure 43
0001
0000
1000
0000
0100
1000
0100
0000
,  // measure 44
1000
0000
0010
0000
0100
0010
1000
0000
,  // measure 45
0001
0000
0010
0000
0100
0000
1000
0100
,  // measure 46
1000
0100
0010
0001
,  // measure 47
1001
0000
0001
0000
1000
0000
0010
1000
,  // measure 48
0010
0010
0010
0000
,  // measure 49
0101
0000
0001
0000
0100
0000
0010
0100
,  // measure 50
0010
0010
0010
0000
,  // measure 51
0110
0000
0010
0000
1000
0000
0001
0010
,  // measure 52
0100
0010
0001
0000
,  // measure 53
1001
0101
1001
1100
,  // measure 54
1001
0101
1001
1100
,  // measure 55
1001
0000
0001
0000
1000
0000
0010
1000
,  // measure 56
0010
0010
0010
0000
,  // measure 57
0100
0000
0010
0000
1000
0000
0001
0010
,  // measure 58
0100
1000
0100
0000
,  // measure 59
0100
0000
0010
0000
0001
0000
0010
0001
,  // measure 60
0010
0001
0100
0000
,  // measure 61
0110
0000
1001
0000
,  // measure 62
0110
0000
1001
0000
,  // measure 63
0001
0000
1000
0100
1000
0000
0100
1000
,  // measure 64
0100
0010
0001
0000
,  // measure 65
0001
0000
0100
0010
1000
0000
1000
0010
,  // measure 66
0100
0010
1000
0000
,  // measure 67
0001
0000
1000
0100
1000
0000
0100
0010
,  // measure 68
0001
0010
0100
0000
,  // measure 69
0010
0001
0100
1000
,  // measure 70
0100
0010
1000
0001
,  // measure 71
0010
0000
0100
1000
0100
0000
0100
0010
,  // measure 72
0001
0010
0100
0000
,  // measure 73
0010
0000
0001
0000
0100
0000
0010
1000
,  // measure 74
0001
0010
0100
0000
,  // measure 75
0100
0000
1000
0100
1000
0000
0100
0010
,  // measure 76
0001
0100
0010
0000
,  // measure 77
0110
1010
0011
1100
,  // measure 78
0101
1010
0011
1100
,  // measure 79
1000
0100
0010
0001
0010
0100
1000
0000
;

//---------------dance-single - ----------------
#NOTES:
     dance-single:
     :
     Easy:
     3:
     0.250,0.269,0.015,0.122,0.000:
0000
0000
0000
0000
,
0000
0000
0000
0000
,
0000
0000
0000
0000
,
0000
0000
0000
0000
,
0001
0000
0000
0000
,
1000
0000
0010
0000
,
0100
0000
0001
0000
,
1000
0000
0100
0000
,
1000
0000
0001
0000
,
0200
0000
0000
0301
,
1000
1000
1000
0000
,
0010
0000
0100
0000
,
0001
0000
1000
0000
,
0100
0000
1000
0000
,
0100
0000
1000
0000
,
0020
0000
0000
0130
,
0010
1000
0001
0000
,
2000
0000
0000
3001
,
1000
0100
0010
0000
,
0200
0000
0000
0310
,
0001
1000
0001
0000
,
2000
0000
0000
3010
,
1000
0010
0100
0000
,
0010
0100
0001
0010
,
0100
0010
0001
1000
,
0020
0000
0000
0130
,
0001
1000
0100
0000
,
2000
0000
0000
3100
,
0010
0001
0010
0000
,
0020
0000
0000
0031
,
0010
0100
1000
0000
,
0100
0000
1000
0000
,
0010
0100
0010
0000
,
0100
0010
1000
1001
,
0001
0000
1000
0000
,
0010
0000
1000
0000
,
0100
0000
1000
0000
,
0001
0000
0100
0000
,
0002
0000
0000
0013
,
0001
0010
0100
0000
,
0100
0000
1000
0000
,
0100
0000
1000
0000
,
0010
0000
0100
0000
,
0100
0000
0010
0000
,
2000
0000
0000
3010
,
1000
0100
0100
0000
,
2000
0000
0000
3001
,
1000
0100
0010
0000
,
0200
0000
0000
1300
,
0100
0010
0001
0000
,
0020
0000
0000
0130
,
1000
0001
0100
0000
,
0001
0100
1000
0100
,
0001
0010
1000
0010
,
0002
0000
0000
1003
,
0001
0100
0001
0000
,
0200
0000
0000
0310
,
1000
0100
1000
0000
,
0200
0000
0000
0310
,
0100
1000
0010
0000
,
1000
0010
1000
0001
,
0010
0001
1000
0000
,
0001
0100
0001
1000
,
0100
1000
0001
0100
,
0001
0010
0001
1000
,
0010
1000
0001
0010
,
0001
0100
0001
1000
,
0100
1000
0001
0100
,
0001
0100
1000
0100
,
0001
0100
1000
0100
,
0010
1000
0010
1000
,
0001
0010
0001
1000
,
0010
1000
0100
1000
,
0001
0100
0001
1000
,
0100
1000
0001
0100
,
0001
0001
0001
0000
,
0001
0100
0010
1000
,
0100
1000
0010
0100
,
0010
0100
0001
1001
;

//---------------dance-single - ----------------
#NOTES:
     dance-single:
     :
     Beginner:
     1:
     0.134,0.209,0.046,0.000,0.000:
0000
0000
0000
0000
,
0000
0000
0000
0000
,
0000
0000
0000
0000
,
0000
0000
0000
0000
,
0000
0000
0000
0000
,
0010
0000
0000
0000
,
1000
0000
0000
0000
,
0001
0000
0000
0000
,
1000
0000
0000
0000
,
0100
0000
0000
0000
,
1000
0000
0000
0000
,
0001
0000
0000
0000
,
0100
0000
0000
0000
,
0010
0000
0000
0000
,
0100
0000
0000
0000
,
0010
0000
0000
0000
,
1000
0000
0000
0000
,
1001
0000
0000
0000
,
0010
0010
0010
0000
,
1001
0000
0000
0000
,
0100
0100
0100
0000
,
1001
0000
0000
0010
,
0010
0000
0000
0000
,
0100
0000
0010
0000
,
1000
0000
0001
0000
,
0110
0000
0000
0000
,
1000
1000
1000
0000
,
0110
0000
0000
0000
,
0001
0001
0001
0000
,
0110
0000
0000
1000
,
1000
1000
0000
0000
,
0010
0000
0100
0000
,
0001
0000
1000
0000
,
0100
0100
0000
0000
,
1000
0000
0000
0000
,
0010
0000
0000
0000
,
0100
0000
0000
0000
,
0010
0000
0000
0000
,
1000
0000
0000
0000
,
1000
0001
1000
0000
,
0001
0000
0000
0000
,
0100
0000
0000
0000
,
0001
0000
0000
0000
,
1000
0000
0000
0000
,
0100
0000
0000
0000
,
1000
1000
1000
0000
,
0100
0000
0000
0000
,
0010
0001
0010
0000
,
0001
0000
0000
0000
,
1000
0000
0000
0000
,
0001
0000
0000
0000
,
0100
0000
0000
0000
,
0010
0000
0010
0000
,
0100
0000
0100
0000
,
0001
0000
0000
0000
,
1000
0000
0000
0000
,
0001
0000
0000
0000
,
0100
0000
0000
0000
,
0001
0000
0000
0000
,
1000
0000
0000
0000
,
0100
0000
1000
0000
,
0100
0100
0100
0000
,
1000
0000
1000
0000
,
1000
0000
0000
0000
,
0001
0000
0001
0000
,
0001
0000
0000
0000
,
0100
0000
0100
0000
,
0100
0000
0000
0000
,
0010
0000
1000
0000
,
0001
0001
0001
0000
,
1000
0000
0000
0000
,
0001
0001
0001
0000
,
0100
0000
0000
0000
,
0010
0010
0010
0000
,
1000
0000
0000
0000
,
0100
0100
0100
0000
,
1000
0000
0001
0000
,
0100
0000
0001
0000
,
1000
1000
1000
0000
;
