#TITLE:Monkey Fingers;
#SUBTITLE:;
#ARTIST:Banya;
#TITLETRANSLIT:;
#SUBTITLETRANSLIT:;
#ARTISTTRANSLIT:;
#CREDIT:;
#BANNER:Monkey Fingers-banner.png;
#BACKGROUND:Monkey Fingers-bg.png;
#LYRICSPATH:;
#CDTITLE:;
#MUSIC:Monkey Fingers.ogg;
#OFFSET:0.281;
#SAMPLESTART:25.840;
#SAMPLELENGTH:12.000;
#SELECTABLE:YES;
#BPMS:0.000=186.001;
#STOPS:;
#BGCHANGES:0.000=Monkey Fingers.avi=1.000=0=0=1,
99999=-nosongbg-=1.000=0=0=0 // don't automatically add -songbackground-
;

//---------------dance-single - ----------------
#NOTES:
     dance-single:
     :
     Hard:
     8:
     0.597,0.644,0.379,0.000,0.000:
0000
0000
0000
0000
,
0000
0000
0000
0000
,
0000
0000
0000
0000
,
0000
0000
0000
0000
,
0000
0000
0001
0100
0001
0100
0001
0000
,
1001
0000
1000
0100
1000
0100
1000
0000
,
1001
0000
0001
0100
0001
0100
0001
0000
,
1001
0000
1000
0100
1000
0100
1000
0000
,
1001
0000
0001
0010
0001
0010
0001
0000
,
1001
0000
1000
0010
1000
0010
1000
0000
,
1001
0000
0001
0010
0001
0010
0001
0000
,
1001
0000
1000
0010
1000
0010
1000
0000
,
1001
0001
0100
1000
,
0100
0010
1000
1010
,
0011
0000
0001
0010
,
0100
0010
0001
0011
,
0110
0000
0100
1000
,
0010
0100
0001
1001
,
1100
0000
1000
0010
,
0100
0001
1000
0101
,
1010
0000
0010
1000
0000
0001
0100
0000
,
0010
1000
0000
0001
0100
0000
0001
0100
,
0010
0100
0010
0100
0000
0010
1000
0000
,
0100
1000
0000
0010
0001
0000
0001
0100
,
0010
1000
0001
0100
0000
0010
1000
0000
,
0001
0100
0000
0010
1000
0000
0001
0100
,
0010
1000
0100
1000
0000
0010
0001
0000
,
0100
1000
0000
0010
0001
0000
0001
0100
,
0010
1000
0001
0100
0000
0010
0100
0000
,
0010
1000
0000
0010
0100
0000
0010
1000
,
0001
0010
0100
1000
0100
1000
0000
0000
,
0000
0000
1000
0100
0010
0001
0010
0000
,
0001
0000
0100
0000
1000
0100
0010
0000
,
0100
0000
0010
1000
0001
0010
0100
0000
,
0000
0000
1000
0100
0001
0000
0001
0100
,
1000
0000
1000
0010
0100
0000
0010
0000
,
0000
0100
0010
1001
,
1001
0000
0001
0100
0001
0100
0010
0000
,
0000
0000
0010
0100
1000
0100
0010
0100
,
1000
0010
0100
0001
0010
0000
0100
0000
,
0000
0000
1000
0100
1000
0100
1000
0000
,
0000
0000
0010
0100
0010
0100
0010
0000
,
0000
0000
0001
0100
0001
0100
0001
0000
,
0000
0000
0001
0010
0001
0010
0001
0000
,
0000
0001
0100
0010
,
1000
0100
0010
0011
,
1100
0000
0100
0010
,
0001
0010
0100
1100
,
0110
0000
0100
1000
,
0010
0100
0001
1001
,
0101
0000
0001
0100
,
0010
1000
0010
0110
,
0110
0000
0010
0100
0000
0001
1000
0000
,
0010
0100
0000
0001
1000
0000
0001
0100
,
0001
0100
0010
0100
0000
0010
1000
0000
,
0010
0100
0000
0010
1000
0000
0010
1000
,
0100
0010
0001
0010
0000
0001
0010
0000
,
0010
0100
0000
0010
0100
0000
0010
0100
,
1000
0100
0010
0100
0000
0100
1000
0000
,
1000
0010
0000
0010
0100
0000
0100
0010
,
1000
0001
0010
0100
0000
0100
1000
0000
,
0100
0010
0000
0010
0100
0000
0010
0100
,
0010
1000
0001
0010
0100
1000
0000
0000
,
0000
0000
1000
0100
0010
0001
0010
0000
,
0001
0000
0100
0001
0100
0001
0100
0000
,
0110
0000
0010
1000
0010
1000
0010
0000
,
0110
0000
0010
1000
0001
0010
0100
0000
,
1100
0000
1000
0100
1000
0100
1000
0100
,
1000
0100
1000
0100
0010
0001
0010
0000
,
0011
0000
0001
0100
0010
1000
0001
0000
,
1001
0000
0001
0010
0100
0010
0001
0000
,
0011
0000
0001
0100
0010
1000
0100
0000
,
1100
0000
1000
0100
0010
0001
0010
0000
,
0110
0000
0010
0100
1000
0010
0100
0000
,
0110
0000
0010
1000
0001
0010
0100
0000
,
1100
0000
1000
0100
0010
0001
0011
0000
,
1100
0000
0000
0000
;

//---------------dance-single - ----------------
#NOTES:
     dance-single:
     :
     Medium:
     7:
     0.473,0.606,0.429,0.000,0.000:
0000
0000
0000
0000
,
0000
0000
0000
0000
,
0000
0000
0000
0000
,
0000
0000
0000
0000
,
0000
0010
0100
0110
,
1001
0001
1000
1001
,
0110
0010
0100
1001
,
0110
0010
0100
0110
,
1001
0001
0100
1010
,
1010
1000
0100
0011
,
0011
0001
0100
0110
,
0110
0010
1000
1001
,
1001
0001
1000
0100
,
1000
0010
0100
0001
,
0001
0000
1000
0001
,
0100
0001
0010
0100
,
0100
0000
0010
0001
,
1000
0010
0100
0010
,
0010
0000
0100
0010
,
1000
0001
0010
0100
,
0100
0000
1000
0000
0000
0001
0000
0000
,
0100
0000
0000
0010
0000
0000
0100
0010
,
0100
0010
0100
0010
0000
0000
1000
0000
,
0000
0010
0000
0000
0100
0000
0001
0100
,
0001
0100
0001
0100
0000
0000
0010
0000
,
0000
1000
0000
0000
0100
0000
1000
0100
,
1000
0100
1000
0100
0000
0000
0010
0000
,
0000
0001
0000
0000
0010
0000
0001
0100
,
0001
0100
0001
0100
0000
0000
0010
0000
,
0000
0100
0000
0000
0010
0000
1000
0000
,
0001
0000
1000
0100
0010
0001
0000
0000
,
0000
0000
0001
0010
0100
1000
0000
0000
,
0000
1000
0001
0100
,
0001
0000
0100
0010
1000
0001
1000
0000
,
0000
0000
1000
0100
1000
0000
1000
0100
,
1000
0000
1000
0100
0010
0000
0011
0000
,
0000
0001
0100
1000
,
0100
0001
0010
0100
,
0000
0010
0001
1000
,
0001
0100
0001
0100
0001
0000
0010
0000
,
0000
0100
1000
0010
,
0010
0100
0001
0010
,
0010
0001
1000
0010
,
0010
0100
0001
0010
,
0010
0100
1000
0010
,
0100
0001
0010
0100
,
0100
0000
0010
0001
,
1000
0010
0100
0001
,
0001
0000
1000
0010
,
1000
0010
0100
0001
,
0001
0000
1000
0100
,
1000
0010
0100
0010
,
0010
0000
0100
0000
0000
0010
0000
0000
,
1000
0000
0000
0001
0000
0000
1000
0100
,
1000
0100
1000
0100
0000
0000
0010
0000
,
0000
0001
0000
0000
0010
0000
0010
0100
,
0010
0100
0010
0100
0000
0000
0100
0000
,
0000
1000
0000
0000
0010
0000
0100
0010
,
0100
0010
0100
0010
0000
0000
0010
0000
,
0000
0100
0000
0000
0001
0000
1000
0001
,
1000
0001
1000
0001
0000
0000
0100
0000
,
0000
0010
0000
0000
0100
0000
0010
0000
,
1000
0000
0010
0100
0010
0100
0000
0000
,
0000
0000
0001
1000
0001
1000
0000
0000
,
0000
0001
0100
0110
,
0110
0010
1000
1100
,
1100
1000
0010
0110
,
0110
1001
0110
1001
,
0110
0001
0100
0101
,
1010
1000
0100
1100
,
0011
0001
0010
0110
,
1001
0001
0100
0110
,
1001
0001
0100
0110
,
0110
0010
1000
1001
,
1001
0001
0010
0110
,
0110
1000
0100
0110
,
1001
0000
0000
0000
;

//---------------dance-single - ----------------
#NOTES:
     dance-single:
     :
     Easy:
     4:
     0.302,0.417,0.070,0.000,0.000:
0000
0000
0000
0000
,
0000
0000
0000
0000
,
0000
0000
0000
0000
,
0000
0000
0000
0000
,
0000
1000
0001
1000
,
1000
0001
1000
0001
,
0001
1000
0001
1000
,
1000
0001
1000
0001
,
0001
0100
0010
0100
,
0100
0010
0100
0010
,
0010
0100
0010
0100
,
0100
0010
0100
0010
,
0010
1000
0000
1000
,
0000
1000
0001
0010
,
0010
0001
0000
0001
,
0000
0001
0100
0010
,
0010
0100
0000
0100
,
0000
0100
0010
1000
,
1000
0001
0000
1000
,
0000
0010
0010
0010
,
0000
0100
0000
0000
,
0010
0000
0000
1000
,
0001
0100
0000
0000
,
0010
0000
0000
1000
,
0100
0010
0000
0000
,
0100
0000
0000
1000
,
1000
0001
0000
0000
,
0100
0000
0000
0010
,
0010
0100
0000
0000
,
0010
0000
0000
1000
,
0001
1001
0000
0000
,
0000
0110
0000
0000
,
0000
0010
1000
0010
,
0000
0100
0001
0010
,
0000
0000
0100
0000
1000
0100
0000
0000
,
1000
0100
0010
0001
,
0000
0001
1000
0010
,
0010
1000
0001
0010
,
0000
0001
0000
0000
0010
0000
0100
0000
,
1000
0100
1000
0010
,
0000
0100
0000
0000
,
0000
0010
0000
0000
,
0000
1000
0000
0000
,
0000
0001
0000
0000
,
0000
1000
0001
0100
,
0100
0001
1000
0100
,
0100
0000
1000
0010
,
0100
0010
1000
0001
,
0001
0000
1000
0001
,
0010
0100
0010
0001
,
0001
0000
0001
0100
,
0010
0100
0010
1000
,
0001
1000
0000
0000
,
0001
0000
0000
0100
,
0100
0010
0000
0000
,
0100
0000
0000
0010
,
1000
0100
0000
0000
,
0010
0000
0000
0001
,
0001
1000
0000
0000
,
0001
0000
0000
0100
,
0010
0100
0000
0000
,
0010
0000
0000
1000
,
0100
1000
0000
0000
,
0000
0010
0010
0010
,
0000
0010
0001
0100
,
1000
0100
0001
0010
,
0010
0000
0001
0010
,
0100
1100
1100
1100
,
0000
1000
0010
0001
,
0010
1000
0010
0001
,
0001
0000
0001
0100
,
1000
0100
0001
0100
,
0100
0000
0010
1000
,
0010
1000
0010
1000
,
1000
0001
0010
0001
,
0010
0001
0010
0011
,
1001
0000
0000
0000
;

//---------------dance-single - ----------------
#NOTES:
     dance-single:
     :
     Beginner:
     1:
     0.125,0.189,0.030,0.000,0.000: // measure 1
0000
0000
0000
0000
,  // measure 2
0000
0000
0000
0000
,  // measure 3
0000
0000
0000
0000
,  // measure 4
0000
0000
0000
0000
,  // measure 5
0000
1000
0000
0000
,  // measure 6
0000
0001
0000
0000
,  // measure 7
0000
1000
0000
0000
,  // measure 8
0000
0001
0000
0000
,  // measure 9
0000
0100
0000
0000
,  // measure 10
0000
0010
0000
0000
,  // measure 11
0000
0100
0000
0000
,  // measure 12
0000
0010
0000
0000
,  // measure 13
0000
1000
0000
0000
,  // measure 14
0000
0000
0000
0000
,  // measure 15
0000
0001
0000
0000
,  // measure 16
0000
0000
0000
0000
,  // measure 17
0000
0010
0000
0000
,  // measure 18
0000
0000
0000
0000
,  // measure 19
0000
0100
0000
0000
,  // measure 20
0000
0000
0000
0000
,  // measure 21
0000
1000
0000
0000
,  // measure 22
0000
0000
0000
0001
,  // measure 23
0001
0001
0000
0000
,  // measure 24
0000
0000
0000
0100
,  // measure 25
0100
0100
0000
0000
,  // measure 26
0000
0000
0000
0010
,  // measure 27
0010
0010
0000
0000
,  // measure 28
0000
0000
0000
1000
,  // measure 29
1000
1000
0000
0000
,  // measure 30
0000
0000
0000
0001
,  // measure 31
0001
0001
0000
0000
,  // measure 32
0000
1000
0000
0000
,  // measure 33
0000
0010
0000
0000
,  // measure 34
0000
0100
0100
0100
,  // measure 35
0000
0010
0000
0000
,  // measure 36
0000
1000
0000
0000
,  // measure 37
0000
0001
0000
0001
,  // measure 38
0000
0001
0001
0001
,  // measure 39
0000
1000
0000
0010
,  // measure 40
0000
0100
0100
0100
,  // measure 41
0000
1001
0000
0000
,  // measure 42
0000
0000
0000
0000
,  // measure 43
0000
0000
0000
0000
,  // measure 44
0000
0000
0000
0000
,  // measure 45
0000
1000
0000
0000
,  // measure 46
0000
0001
0000
0000
,  // measure 47
0000
0100
0000
0000
,  // measure 48
0000
0010
0000
0010
,  // measure 49
0000
0010
0000
0000
,  // measure 50
0000
1000
0000
0000
,  // measure 51
0000
0100
0000
0000
,  // measure 52
0000
1000
0000
0000
,  // measure 53
0000
0001
0000
0000
,  // measure 54
0000
0000
0000
0100
,  // measure 55
0100
0100
0000
0000
,  // measure 56
0000
0000
0000
0010
,  // measure 57
0010
0010
0000
0000
,  // measure 58
0000
0000
0000
1000
,  // measure 59
1000
1000
0000
0000
,  // measure 60
0000
0000
0000
0001
,  // measure 61
0001
0001
0000
0000
,  // measure 62
0000
0000
0000
0100
,  // measure 63
0100
0100
0000
0000
,  // measure 64
0000
0010
0000
0000
,  // measure 65
0000
0000
0000
0000
,  // measure 66
0000
0000
0000
1000
,  // measure 67
1000
0000
0000
0000
,  // measure 68
0000
0001
0000
0001
,  // measure 69
0001
0000
0000
0000
,  // measure 70
0000
0000
0000
0100
,  // measure 71
0100
0000
0000
0000
,  // measure 72
0000
0000
0000
0010
,  // measure 73
0010
0000
0000
0000
,  // measure 74
0000
0000
0000
1000
,  // measure 75
1000
0000
0000
0000
,  // measure 76
0000
0000
0000
0110
,  // measure 77
1001
0000
0000
0000
;
