#TITLE:Models Are Ugly;
#SUBTITLE:;
#ARTIST:Dougal & Gammer;
#TITLETRANSLIT:;
#SUBTITLETRANSLIT:;
#ARTISTTRANSLIT:;
#CREDIT:;
#BANNER:mrubn.png;
#BACKGROUND:bg.png;
#LYRICSPATH:;
#CDTITLE:;
#MUSIC:Models Are Ugly.mp3;
#OFFSET:-0.009;
#SAMPLESTART:31.964;
#SAMPLELENGTH:12.000;
#SELECTABLE:YES;
#BPMS:0.000=173.000,155.000=86.500,187.000=173.000,223.000=86.500,225.000=173.000;
#STOPS:60.000=0.347
,61.000=0.347
,90.000=1.040
;
#BGCHANGES:;

//---------------dance-single - ----------------
#NOTES:
     dance-single:
     :
     Hard:
     8:
     0.490,0.523,0.468,0.195,0.015:
0000
0000
0000
0000
,
0000
0000
0000
0000
,
0000
0000
0000
0000
,
0000
0000
0000
0000
,
1000
0100
0010
0100
,
1000
0001
0100
0010
,
1000
0001
0010
0100
,
0010
0001
0100
0010
1000
0010
0100
0001
,
1000
1000
1000
1000
,
1000
0010
1000
0001
1000
0100
1000
0010
,
0100
0100
0100
0100
,
0120
0030
2001
3000
,
0001
0001
0001
0001
,
0001
0100
0001
1000
0001
0010
0001
1000
,
0100
0100
0100
0100
,
0011
1100
0010
0010
,
0010
0000
0010
0000
0010
1000
0010
0100
,
0010
0001
0010
0100
0001
0000
0001
0000
,
0001
0001
0101
0000
,
1010
0000
0100
0100
,
0100
0000
0100
0000
0100
0010
0100
1000
,
0100
0001
0100
0010
1000
0000
1000
0000
,
1000
1000
0000
1001
,
1001
0000
0001
1000
0100
0000
1100
0000
,
1100
0000
1000
0100
0010
0000
0001
0000
,
0011
0010
0011
1100
,
0011
1100
0011
0110
,
0110
0000
0010
1000
0100
0000
1100
0000
,
1100
0000
1000
0001
0010
0000
1000
0000
,
1100
0100
1100
0011
,
1100
0011
1100
1001
,
0101
0000
0001
0100
0010
0000
1010
0000
,
0101
0000
0010
1000
0100
0000
1100
0000
,
0110
1100
0110
1001
,
0110
0000
1001
0000
0110
0000
0100
0001
,
0010
0000
0100
0010
0100
0000
0010
1000
,
0100
0000
1000
0100
1000
0000
0100
0000
,
0011
0100
1010
1001
,
0110
1010
0101
2200
,
0000
0300
0200
0000
0000
0300
0200
0000
,
0000
0300
0200
0000
0000
3300
0022
0000
,
0000
0030
0020
0000
0000
0030
0020
0000
,
0000
0030
0020
0000
0000
0033
2000
0000
,
0000
0010
0020
0000
3000
0100
0200
0000
,
0030
0001
0002
0000
0000
0300
0020
0000
,
0000
0003
0200
0000
0000
0030
2000
0000
,
0000
0300
0020
0000
0000
0000
3030
0000
,
0000
0000
0000
0000
,
0000
0000
0000
1001
,
0001
0000
0001
0000
0001
0000
0001
0100
,
0100
0100
0100
0100
0100
0100
0010
0000
,
0010
0000
0010
0000
0010
0000
0010
1000
,
1000
1000
1000
1000
1000
1000
1001
0000
,
0100
0000
0100
0000
0100
0000
0100
0010
,
0010
0010
0010
0010
0010
0010
1000
0000
,
1000
0000
0000
1000
0000
0000
1000
0000
0000
1000
0001
0010
,
0001
0000
0100
0000
0000
0000
0001
0000
0000
1000
0000
0000
0001
0000
0000
0100
0000
0000
0001
0000
0000
1000
0000
0000
,
0001
0010
0100
1000
1000
1000
1000
1000
,
1000
1000
0100
1000
0100
0010
0100
1000
,
0001
0010
0001
0100
0100
0100
0100
0100
,
0100
0100
0010
1000
0010
0100
0010
0001
,
0010
0100
1000
0001
0001
0001
0001
0001
,
0001
0001
1000
0100
1000
0010
0100
0001
,
0010
0100
0000
0000
0000
0000
0000
0000
;

//---------------dance-single - ----------------
#NOTES:
     dance-single:
     :
     Medium:
     6:
     0.433,0.552,0.789,0.156,0.000:
0000
0000
0000
0000
,
0000
0000
0000
0000
,
0000
0000
0000
0000
,
0000
0000
0000
0000
,
1000
0100
1000
0001
,
0100
0001
0010
0001
,
0100
0010
1000
0001
,
1000
0001
0100
0001
0100
0001
0010
0100
,
1000
0100
0010
0001
,
0101
1010
1001
0011
,
0110
0010
0001
0100
,
0110
0000
1001
0000
,
0001
0100
1000
0100
,
0110
1001
0110
1001
,
0110
0010
1000
0001
,
0011
0101
0001
0100
,
0010
0010
0110
0101
,
0011
0110
1100
1000
,
0001
0100
0101
0000
,
1010
0000
0100
0010
,
1000
0001
0010
1000
,
0010
0001
0101
1010
,
1100
0011
0000
0101
,
0101
1100
1100
0101
,
0101
1100
1100
0101
,
1100
0101
1100
0101
,
1100
0101
1100
1010
,
1010
0011
0011
1010
,
1010
0011
0011
1010
,
0011
1010
0011
1010
,
0011
1010
1001
0001
,
0100
0000
0010
0100
0010
0000
0100
0000
,
0010
0000
1000
0010
1000
0000
1010
0000
,
0101
1010
0101
1010
,
1001
1100
0110
0001
,
0010
0000
0010
0100
1000
0000
0100
0000
,
1000
0000
0010
1000
0001
0000
1000
0000
,
1000
0001
0001
0100
,
0100
0010
0010
0200
,
0000
0302
0000
2003
,
0000
3200
0000
0320
,
0000
0032
0000
0203
,
0000
0000
0020
0000
0000
0330
0020
0000
,
0000
0230
0000
0302
,
0000
2003
0000
3200
,
0000
2300
0000
3020
,
0000
0200
0000
0330
,
0000
0000
0000
0000
,
0000
0000
0000
1001
,
0001
0001
0001
0001
,
1000
0001
1000
0010
,
0100
0010
1000
0010
,
0100
0001
0010
0110
,
0010
0001
1000
0001
,
0100
0100
0100
0001
,
1000
0100
0010
0000
,
0000
0011
0001
0100
,
0010
0110
0110
0110
,
0110
0010
1000
0001
,
0010
1100
1100
1100
,
1100
1010
0010
0100
,
0001
1001
1001
1001
,
1001
0001
0100
1000
,
0100
0000
0000
0000
;

//---------------dance-single - ----------------
#NOTES:
     dance-single:
     :
     Easy:
     4:
     0.281,0.307,0.029,0.010,0.000:
0000
0000
0000
0000
,
0000
0000
0000
0000
,
0000
0000
0000
0000
,
0000
0000
0000
0000
,
0001
0000
1000
0000
,
0010
0000
1000
0000
,
0100
0000
1000
0000
,
0002
0000
0000
0000
,
0103
0001
0100
0001
,
0100
0100
0100
0100
,
0010
0100
0010
0100
,
0010
0000
0010
0000
,
1000
0100
1000
0100
,
1000
1000
1000
1000
,
0100
1000
0100
1000
,
0100
0010
0001
1000
,
0001
1000
0001
0001
,
0001
0001
1000
0001
,
1000
0001
0100
0000
,
0010
0000
0100
0001
,
0100
0001
0100
0100
,
0100
0100
0010
1000
,
0010
1000
0000
1000
,
1000
0001
0001
1000
,
1000
0001
0001
1000
,
0001
1000
0001
1000
,
0001
1000
0001
0010
,
0010
0100
0100
0010
,
0010
0100
0100
0010
,
0100
0010
0100
0010
,
0100
0010
0100
1000
,
1000
0100
0100
1000
,
1000
0100
0100
1000
,
0100
1000
0100
1000
,
0100
1000
0100
1000
,
1000
0001
0001
1000
,
1000
0001
0001
1000
,
0001
1000
0001
1000
,
0001
1000
0001
0100
,
0000
0010
0000
1000
,
0000
0100
0000
1000
,
0000
0001
0000
0100
,
0000
0001
0000
0010
,
0000
0100
0000
1000
,
0000
0100
0000
0010
,
0000
0001
0000
1000
,
0000
0100
0000
1000
,
0000
0000
0000
0000
,
0000
0000
0000
1000
,
0001
1000
0001
1000
,
1000
1000
1000
0001
,
1000
0001
1000
0001
,
0001
0001
0001
1001
,
0001
0001
0001
1000
,
1000
1000
1000
0001
,
1000
0001
1000
0000
,
0000
0110
0010
0100
,
0010
0100
0100
0100
,
0100
0010
0100
0010
,
0100
0010
0010
0010
,
0010
1001
0010
0010
,
0010
0001
0001
0001
,
0001
0010
0100
1000
,
0001
0000
0000
0000
;

//---------------dance-single - ----------------
#NOTES:
     dance-single:
     :
     Beginner:
     1:
     0.085,0.121,0.039,0.000,0.000: // measure 1
0000
0000
0000
0000
,  // measure 2
0000
0000
0000
0000
,  // measure 3
0000
0000
0000
0000
,  // measure 4
0000
0000
0000
0000
,  // measure 5
0000
0000
0000
0000
,  // measure 6
0000
0000
0000
0000
,  // measure 7
0000
0000
0000
0000
,  // measure 8
0000
0000
0000
0000
,  // measure 9
1000
0000
0000
0000
,  // measure 10
0001
0000
0001
0000
,  // measure 11
1000
0000
0000
0000
,  // measure 12
0010
0000
0010
0000
,  // measure 13
0100
0000
0000
0000
,  // measure 14
0100
0000
0100
0000
,  // measure 15
0100
0000
0000
0000
,  // measure 16
0010
0010
0010
0000
,  // measure 17
0000
0000
1000
0000
,  // measure 18
1000
0000
1000
0000
,  // measure 19
0000
0000
0001
0000
,  // measure 20
0001
0000
0001
0000
,  // measure 21
0000
0000
0100
0000
,  // measure 22
0100
0000
0100
0000
,  // measure 23
0000
0000
0000
0010
,  // measure 24
0000
0000
0000
1000
,  // measure 25
0000
0000
0000
0001
,  // measure 26
0000
0000
0000
0001
,  // measure 27
0000
0000
0000
1000
,  // measure 28
0000
0000
0000
0010
,  // measure 29
0000
0000
0000
0100
,  // measure 30
0000
0000
0000
0100
,  // measure 31
0000
0000
0000
0010
,  // measure 32
0000
0000
0000
1000
,  // measure 33
0000
0000
0000
0001
,  // measure 34
0000
0000
0000
0001
,  // measure 35
0000
0000
0000
0010
,  // measure 36
0000
0000
0000
0010
,  // measure 37
0000
0000
0000
0100
,  // measure 38
0000
0000
0000
0100
,  // measure 39
0000
0000
0000
1000
,  // measure 40
0000
0000
0000
0000
,  // measure 41
0000
0000
0000
0001
,  // measure 42
0000
0000
0000
0000
,  // measure 43
0000
0000
0000
0100
,  // measure 44
0000
0000
0000
0000
,  // measure 45
0000
0000
0000
0010
,  // measure 46
0000
0000
0000
0000
,  // measure 47
0000
0000
0000
1000
,  // measure 48
0000
0000
0000
0000
,  // measure 49
0000
0000
0000
1001
,  // measure 50
0000
0000
0000
0010
,  // measure 51
0000
0000
0000
0100
,  // measure 52
0000
0000
0000
0010
,  // measure 53
0000
0000
0000
1001
,  // measure 54
0000
0000
0000
0100
,  // measure 55
0000
0000
0000
0010
,  // measure 56
0000
0000
0000
0000
,  // measure 57
0000
1001
0000
0000
,  // measure 58
0000
0100
0000
0000
,  // measure 59
0000
0010
0000
0000
,  // measure 60
0000
1000
0000
0000
,  // measure 61
0000
1001
0000
0000
,  // measure 62
0000
0001
0000
0000
,  // measure 63
0000
0010
0000
0000
;
