#TITLE:Miss Sunshine;
#SUBTITLE:;
#ARTIST:R.I.O.;
#TITLETRANSLIT:;
#SUBTITLETRANSLIT:;
#ARTISTTRANSLIT:;
#GENRE:;
#CREDIT:;
#BANNER:bn.png;
#BACKGROUND:bg.png;
#LYRICSPATH:;
#CDTITLE:;
#MUSIC:Miss Sunshine.mp3;
#OFFSET:-0.028;
#SAMPLESTART:73.780;
#SAMPLELENGTH:12.000;
#SELECTABLE:YES;
#BPMS:0.000=130.120
,80.000=65.060
,104.000=130.120
;
#STOPS:
;
#BGCHANGES:;
#KEYSOUNDS:;
#ATTACKS:;

//---------------dance-single - ----------------
#NOTES:
     dance-single:
     :
     Hard:
     6:
     0.289,0.375,0.055,0.201,0.055,194.000,6.000,22.000,0.000,0.000,0.000,0.289,0.375,0.055,0.201,0.055,194.000,6.000,22.000,0.000,0.000,0.000: // measure 0
0000
0000
0000
0000
,  // measure 1
0000
0000
0000
0000
,  // measure 2
0000
0000
0000
0000
,  // measure 3
0000
0000
0000
0000
,  // measure 4
0101
0000
0000
0000
0000
0001
1000
0100
,  // measure 5
1000
0000
0000
0000
0000
1000
0001
1000
,  // measure 6
0100
0000
1000
0000
0010
0100
0001
0100
,  // measure 7
0000
0000
0000
0000
0000
0010
1000
0001
,  // measure 8
0010
0000
0000
0000
0000
1000
0001
1000
,  // measure 9
0100
0000
0000
0000
0000
0100
0010
1000
,  // measure 10
0001
0100
0010
1000
0100
1000
0010
0200
,  // measure 11
0000
0000
0000
0000
0000
0310
0010
0010
,  // measure 12
0100
0000
0101
0000
0001
1000
0010
0000
,  // measure 13
1010
0000
1000
0001
0010
0000
0100
0000
,  // measure 14
1000
0000
0001
0000
1000
0000
0100
0010
,  // measure 15
0000
1000
0001
0000
0000
0001
0001
0001
,  // measure 16
1000
0000
0010
0000
0100
0001
0010
0000
,  // measure 17
0100
0000
1000
0100
1000
0000
0010
0000
,  // measure 18
0100
0000
0000
0000
0000
0010
2000
0000
,  // measure 19
0002
3003
0000
0000
,  // measure 20
0010
0000
0010
0000
0000
0010
0000
0020
0000
0000
0030
0000
0000
0000
0000
0000
,  // measure 21
0100
0000
0100
0000
0000
0100
0000
0200
0000
0000
0300
0000
0000
0000
0000
0000
,  // measure 22
0001
0000
0001
0000
0000
0001
0000
0002
0000
0000
0003
0000
0000
0000
0000
0000
,  // measure 23
1000
0000
1000
0000
0000
1000
0000
2000
0000
0000
3000
0000
0000
0000
0000
0000
,  // measure 24
0010
0000
1000
0000
0000
0100
0000
0020
0000
0000
0030
0000
0000
0000
0000
0000
,  // measure 25
0100
0000
0010
0000
0000
1000
0000
0020
0000
0000
0030
0000
0000
0000
0000
0000
,  // measure 26
0010
0001
1000
0100
,  // measure 27
1000
0010
1000
0001
,  // measure 28
0010
0001
0100
0010
,  // measure 29
0100
0001
1000
0100
,  // measure 30
0010
0001
0010
0001
,  // measure 31
1000
1000
0010
0100
,  // measure 32
0001
1000
0010
0110
,  // measure 33
2002
0000
0000
3003
,  // measure 34
0001
0000
0100
0000
0000
0020
0000
0200
,  // measure 35
0000
0330
0000
0000
,  // measure 36
0100
0000
0010
0000
0000
2000
0000
0200
,  // measure 37
0000
3300
0000
0000
,  // measure 38
0001
0000
1000
0000
0000
0020
0000
0200
,  // measure 39
0000
0330
0000
0000
,  // measure 40
0100
0000
0001
0000
0000
0020
0000
0200
,  // measure 41
0000
0000
0330
0000
,  // measure 42
0010
0001
0001
0100
1000
0100
0010
1000
,  // measure 43
0001
0010
0100
0100
0010
0001
0010
0100
,  // measure 44
0001
0000
0001
1000
0010
1000
0001
0010
,  // measure 45
0001
0100
0010
1000
0100
0010
0001
0010
,  // measure 46
0001
0000
0001
0100
0010
1000
0100
1000
,  // measure 47
0010
0100
0001
0010
0100
1000
0100
0010
,  // measure 48
0001
0000
0001
0010
0100
0100
0010
0001
,  // measure 49
0000
0002
0000
0000
0003
0000
0000
0000
,  // measure 50
0220
0000
0000
0000
,  // measure 51
0000
0000
0000
0330
0000
0000
0000
0000
;

//---------------dance-single - ----------------
#NOTES:
     dance-single:
     :
     Medium:
     4:
     0.242,0.258,0.082,0.100,0.018,166.000,9.000,11.000,0.000,0.000,0.000,0.242,0.258,0.082,0.100,0.018,166.000,9.000,11.000,0.000,0.000,0.000:
0000
0000
0000
0000
,
0000
0000
0000
0000
,
0000
0000
0000
0000
,
0000
0000
0000
0000
,
0110
0000
0010
0000
1000
0000
0010
0100
,
0010
0000
1000
0000
0001
0000
0010
0001
,
0010
0010
0100
0100
,
0020
0030
0000
0010
,
0011
0000
0001
0000
0100
0000
1000
0100
,
0010
1000
0010
0100
,
0010
0000
1000
0000
0010
1000
0001
0020
,
0000
0030
0000
0000
,
0010
0001
0100
1000
,
0110
0010
1000
0001
,
1001
0000
0001
0000
1000
0000
0100
2000
,
0000
0000
0100
3000
0000
0000
0000
0000
,
1100
1000
0100
0010
,
0011
0001
0100
0010
,
0110
0000
0000
0000
0000
0010
2000
0000
,
0200
0000
0000
3300
,
1000
0000
0001
0000
0000
0100
0000
0100
0000
0000
0000
0000
0000
0000
0000
0000
,
0010
0000
0100
0000
0000
0010
0000
0010
0000
0000
0000
0000
0000
0000
0000
0000
,
0100
0001
1000
0100
1000
0010
0100
0001
,
1000
0000
0000
1000
0001
0000
0000
0000
,
0001
0100
0001
0100
0010
0100
0010
1000
,
0100
0000
0000
0100
0010
0000
0000
0000
,
0010
0001
0010
0001
,
0100
0010
0100
0010
,
1000
0100
1000
0100
,
1000
0010
0100
0001
,
1000
1000
0001
0001
,
1000
1000
0001
0001
,
0100
0010
1000
0100
,
0010
0000
0000
0000
,
0010
0000
0001
0000
0000
0100
0000
0200
,
0000
0300
0000
0000
,
0010
0000
1000
0000
0000
0001
0000
2000
,
0000
3000
0000
0000
,
1000
0000
0100
0000
0000
1000
0000
0020
,
0000
0030
0000
0000
,
0100
0000
0001
0000
0000
0010
0000
0020
,
0000
0030
0000
0000
,
0110
0010
0001
0001
,
1000
0000
0001
0000
0100
0000
0010
1000
,
0100
1000
0010
0010
,
0100
0000
0001
0000
1000
0000
0100
0010
,
0001
0010
1000
0010
,
0100
0000
0010
0000
0001
0000
1000
0001
,
0100
0000
0001
0000
1000
0000
0100
1000
,
0010
0000
0000
0000
,
2002
0000
0000
0000
,
0000
0000
0000
3003
0000
0000
0000
0000
;

//---------------dance-single - ----------------
#NOTES:
     dance-single:
     :
     Easy:
     2:
     0.169,0.187,0.018,0.128,0.000,114.000,2.000,14.000,0.000,0.000,0.000,0.169,0.187,0.018,0.128,0.000,114.000,2.000,14.000,0.000,0.000,0.000:
0000
0000
0000
0000
,
0000
0000
0000
0000
,
0000
0000
0000
0000
,
0000
0000
0000
0000
,
1000
0000
0000
0001
,
0100
0000
0000
0010
,
0100
0010
1000
0001
,
1000
0000
0000
1000
,
0010
0000
0000
0010
,
0100
0000
0000
0100
,
0001
1000
0001
0010
,
0100
0000
0000
0000
,
0010
0001
0010
0001
,
0001
1000
0010
1000
,
1000
0010
0100
0010
,
2000
0002
0000
3003
,
0001
0001
1000
0010
,
0100
0010
0010
1000
,
0001
0000
0000
0001
,
1000
0000
0000
0000
,
0020
0000
0000
0000
0000
0030
0000
0000
,
0200
0000
0000
0000
0000
0300
0000
0000
,
0002
0000
0000
0000
0000
0003
0000
0000
,
2000
0000
0000
0000
0000
3000
0000
0000
,
0010
0000
0100
0000
,
0001
0000
1000
0000
,
0002
0000
0000
1000
,
1003
0000
0000
0000
,
1000
0010
0100
0010
,
1000
0000
0000
0000
,
0020
0000
0000
0100
,
0130
0000
0000
0000
,
0100
0000
0000
0010
,
0010
0000
0000
0000
,
1001
0001
1000
0001
,
2000
0000
3000
0000
,
0010
0100
0010
0100
,
0020
0000
0030
0000
,
0100
0001
1000
0100
,
0020
0000
0030
0000
,
0010
0001
0010
0100
,
2000
0000
3000
0000
,
0001
1000
0001
1000
,
0001
1000
0001
1000
,
0001
0100
0010
0100
,
0010
0100
0010
0100
,
0010
1000
0010
0100
,
0001
0010
0100
1000
,
0100
0000
0100
0000
,
0100
0000
0000
0000
,
2002
0000
0000
0000
,
0000
0000
0000
3003
0000
0000
0000
0000
;

//---------------dance-single - ----------------
#NOTES:
     dance-single:
     :
     Beginner:
     1:
     0.079,0.091,0.036,0.000,0.000,57.000,4.000,0.000,0.000,0.000,0.000,0.079,0.091,0.036,0.000,0.000,57.000,4.000,0.000,0.000,0.000,0.000:
0000
0000
0000
0000
,
0000
0000
0000
0000
,
0000
0000
0000
0000
,
0000
0000
0000
0000
,
1000
0000
0000
0000
,
0001
0000
0000
0000
,
0100
0000
0100
0000
,
0100
0000
0000
0000
,
0010
0000
0000
0000
,
0100
0000
0000
0000
,
0001
0000
0001
0000
,
0001
0000
0000
0000
,
1000
0000
0000
0000
,
0010
0000
0000
0000
,
0100
0000
0100
0000
,
0100
0000
0000
0000
,
0010
0000
0000
0000
,
1000
0000
0000
0000
,
0001
0000
0000
1000
,
1000
0000
0000
0000
,
0110
0000
0000
0000
,
0010
0000
0000
0000
,
1000
0000
0000
0000
,
0001
0000
0000
0000
,
0010
0000
0000
0000
,
0100
0000
0000
0000
,
1000
0000
0000
0000
,
0001
0000
0000
0000
,
0100
0000
0010
0000
,
0100
0000
0000
0000
,
0010
0000
0000
0000
,
1000
0000
0000
0000
,
0001
0000
0000
0100
,
0100
0000
0000
0000
,
0110
0000
0000
0000
,
0010
0000
0000
0000
,
1000
0000
0000
0000
,
0001
0000
0000
0000
,
0100
0000
0000
0000
,
0010
0000
0000
0000
,
1000
0000
0000
0000
,
0001
0000
0000
0000
,
1001
0000
0000
0000
,
0010
0000
0010
0000
,
0010
0000
0000
0000
,
0100
0000
0100
0000
,
0100
0000
0000
0000
,
0001
0000
1000
0000
,
0001
0000
0001
0000
,
1000
0000
0000
0000
,
0110
0000
0000
0000
;
