#TITLE:Miles;
#SUBTITLE:;
#ARTIST:electronic boutique;
#TITLETRANSLIT:;
#SUBTITLETRANSLIT:;
#ARTISTTRANSLIT:;
#CREDIT:;
#BANNER:bn.png;
#BACKGROUND:bg.png;
#LYRICSPATH:;
#CDTITLE:;
#MUSIC:Miles.mp3;
#OFFSET:-7.716;
#SAMPLESTART:14.860;
#SAMPLELENGTH:12.000;
#SELECTABLE:YES;
#BPMS:0.000=130.000;
#STOPS:;
#BGCHANGES:;

//---------------dance-single - ----------------
#NOTES:
     dance-single:
     :
     Hard:
     7:
     0.298,0.415,0.038,0.304,0.118:
0001
0000
0000
0000
,
0000
0000
1000
0001
,
1000
1000
0000
0000
,
0000
0000
0000
0020
,
0130
0001
0010
0001
,
0100
0000
1000
0000
0100
0010
1000
0010
,
1000
0000
0100
0000
1000
0000
0001
0100
,
0000
0000
0000
0000
,
0110
0000
0010
1000
,
0001
0000
0010
0000
0001
0100
0010
0100
,
0001
0000
0100
0000
1000
0000
0100
0010
,
0000
0000
0000
0000
0000
0000
0100
0010
,
2000
0000
0000
0000
0000
0000
0000
3001
,
0200
0000
0000
0000
0301
0010
0100
1000
,
0200
0000
0000
2300
0000
0000
0200
0000
,
0000
0000
0000
0000
0000
3300
0000
1000
,
0020
0000
0000
0000
0000
0000
0000
0130
,
0020
0000
0000
0000
0130
0001
0100
0010
,
2000
0000
0000
3200
0000
0000
0020
0000
,
0000
0000
0000
0330
,
0010
0000
0000
0100
0000
0000
1000
0000
0000
0000
0001
0000
0000
0000
0000
0000
,
1000
0000
0000
1000
0000
0000
0100
0000
0000
0000
1000
0000
0000
0000
0000
0000
,
0010
0000
0000
0100
0000
0000
0000
0000
,
0001
0000
0000
1000
0000
0000
0100
0000
0000
0000
1000
0000
0010
0000
1000
0000
,
0010
0000
0000
1000
0000
0000
0010
0000
0000
0000
0100
0000
0000
0000
0000
0000
,
0010
0000
0000
0100
0000
0000
0001
0000
0000
0000
0100
0000
0000
0000
0000
0000
,
0001
0000
0000
1000
0000
0000
0000
0000
,
0001
0000
0000
0001
0000
0000
1000
0000
0000
0000
0010
0000
0000
0000
0000
0000
,
0100
0000
0000
0000
0010
0000
0000
1000
0000
0000
0000
0000
1000
0000
0100
0000
,
0010
0000
0000
0000
0100
0000
0000
1000
0000
0000
0000
0000
1000
0000
0001
0000
,
0100
0000
0001
0000
1000
0000
0000
0010
0000
0000
0000
0000
0000
0000
0000
0000
,
1000
0000
0000
1000
0000
0000
0001
0000
0000
0000
0001
0000
0001
0000
0010
0000
,
0100
0000
0000
0000
0010
0000
0000
0001
0000
0000
0000
0000
0100
0000
0001
0000
,
1000
0000
0000
0000
0010
0000
0000
0100
0000
0000
0100
0000
0010
0000
1000
0000
,
0001
0000
1000
0000
1000
0000
0000
0100
0000
0000
0000
0000
0000
0000
1000
0000
,
0100
0000
1000
0000
0010
0000
0000
0100
0000
0010
0000
1000
0000
0001
0000
0000
,
0000
0000
0001
0000
1000
0000
0000
0100
0000
0000
1000
0000
0000
0010
0000
0000
,
0100
0000
0000
0001
0000
0000
1000
0000
0000
0001
0000
0000
0000
0000
0000
0000
,
0100
0000
0000
0001
0000
0000
0020
0000
0000
0000
0000
0000
0130
0000
1000
0000
,
0001
0000
0100
0000
0001
0000
0001
0010
0000
0010
0000
0001
0000
0001
1000
0000
,
0002
0203
0320
2030
,
3000
0000
1100
0000
0000
0101
0000
0000
1002
0000
0000
0000
0103
0000
0000
0000
,
0001
0000
0000
0100
0000
0000
0010
0000
0000
1000
0000
0000
0001
0000
1000
0000
,
0010
0000
0000
1000
0000
0000
0010
0000
0000
0000
0200
0000
0000
0000
0000
0000
,
0300
0000
0000
0000
0000
0000
0001
1000
,
0020
0000
1000
0000
1000
0000
1030
0010
,
0200
0000
0010
0000
0310
1000
0010
0001
,
0020
0000
0000
0230
0000
0000
0002
0000
,
0000
0000
0000
0000
0000
0303
0001
0010
,
0200
0000
0010
0000
0010
0000
0310
0001
,
2000
0000
0001
0000
3001
0100
1000
0100
,
0020
0000
0000
2030
0000
0000
0200
0000
,
0000
0000
0000
0000
0000
3300
0000
0000
,
2200
0000
0000
0000
0000
0000
3300
0100
,
0020
0000
0000
0000
0031
0010
0100
0010
,
0002
0000
0000
2003
0000
0000
0002
0000
,
0000
0000
0000
0000
0000
0000
3003
0001
,
0200
0000
0000
0000
0000
0000
0000
1300
,
0200
0000
0000
0000
0310
1000
0001
0010
,
0200
0000
0000
0320
0000
0000
0032
0000
,
0000
0000
0000
0000
,
1003
0000
0000
1000
0000
0000
0001
0000
0000
0000
0010
0000
0000
0000
0000
0000
,
0000
0200
0000
0000
,
0000
0000
0000
0000
,
0000
0300
0000
0000
;

//---------------dance-single - ----------------
#NOTES:
     dance-single:
     :
     Medium:
     4:
     0.227,0.342,0.015,0.205,0.000:
0001
0000
0000
0000
,
0000
0000
1000
0001
,
1000
0000
0000
0000
,
0000
0000
0000
0000
,
1000
0010
1000
0010
,
1000
0000
0010
0000
1000
0100
0010
0001
,
0010
0000
0001
0000
0010
0000
0001
0100
,
0000
0000
0000
0000
,
0001
0000
0100
0010
,
0100
0000
0010
0000
0100
0010
1000
0001
,
0100
0000
0001
0000
0100
0000
0001
0010
,
0000
0000
0000
0000
,
0002
0000
0000
0000
,
2000
0000
0000
3003
0001
0000
1000
0000
,
0010
0000
0000
1000
0000
0000
0020
0000
,
0000
0000
0000
0030
,
0200
0000
0000
0000
,
0020
0330
0010
1000
,
0100
0000
0000
0010
0000
0000
0200
0000
,
0000
0000
0000
0300
,
1000
0000
0000
0000
,
0001
0000
0000
0000
,
0100
0000
0000
0100
0000
0000
0000
0000
,
0001
1000
0001
0100
,
0001
0000
0000
0010
0000
0000
0000
0000
,
0100
0000
0000
1000
0000
0000
0000
0000
,
0100
0000
0000
0100
0000
0000
0000
0000
,
1000
0001
0100
0001
,
1000
0001
0100
0000
,
0001
0000
1000
0000
0010
0000
0100
0010
,
0100
0010
1000
0000
,
1000
0000
0001
0000
0100
0000
0001
0100
,
1000
0000
0100
0000
0010
0000
0100
0010
,
1000
0000
0001
0000
1000
0000
0100
1000
,
0010
0100
0001
0000
,
1000
0001
0100
0001
,
0100
0010
0100
0000
0010
0000
1000
0000
,
0001
1000
0001
0000
1000
0000
0100
0000
,
1000
0100
0010
0000
0100
0000
1000
0000
,
0010
0100
0001
0000
1000
0000
0001
0000
,
0100
0001
0100
0001
0100
0001
0100
0001
,
0000
0100
0000
0000
0110
0000
0010
0000
,
1001
0000
0001
0000
1000
0000
0100
1000
,
0010
0000
0100
0000
0001
0000
0010
0100
,
1000
0000
0000
0000
,
0002
0000
0000
0000
,
0200
0000
0303
0000
0001
0100
0001
0100
,
0020
0000
0000
2030
0000
0000
0200
0000
,
0000
0000
0000
3300
,
0200
0000
0000
0000
,
2000
0000
3300
0000
1000
0100
0010
0001
,
0020
0000
0000
0230
0000
0000
0020
0000
,
0000
0000
0000
0330
,
0020
0000
0000
0000
,
0002
0000
0033
0000
0001
0010
0100
0010
,
0002
0000
0000
2003
0000
0000
0200
0000
,
0000
0000
0000
3300
,
2000
0000
0000
0000
,
3200
0000
0000
0000
1300
0010
0100
0001
,
0200
0000
0000
0302
0000
0000
2000
0000
,
0000
0000
0000
3003
,
0001
0000
0000
0001
0000
0100
0000
0000
,
0000
0200
0000
0000
,
0000
0000
0000
0000
,
0000
0300
0000
0000
;

//---------------dance-single - ----------------
#NOTES:
     dance-single:
     :
     Easy:
     2:
     0.162,0.213,0.038,0.129,0.000:
1000
0000
0000
0000
,
0000
0000
0000
0000
,
0001
0000
0000
0000
,
0000
0000
0000
0000
,
1001
0000
0001
1000
,
0001
0100
0001
0010
,
0100
0010
0001
1000
,
0000
0000
0000
0000
,
0110
0000
0010
1000
,
0010
0100
0001
0010
,
0001
1000
0100
0010
,
0000
0000
0000
0000
,
0200
0000
0000
0000
,
1300
0000
0100
1000
,
0020
0000
0000
0000
,
0000
0000
0000
0030
,
0200
0000
0000
0000
,
0301
0000
1000
0001
,
0200
0000
0000
0000
,
0000
0000
0000
0300
,
0001
0000
0000
0000
,
1000
0000
0000
0000
,
0100
0000
1000
0000
,
0010
1000
0010
0000
,
0100
0000
0001
0000
,
1000
0000
1000
0000
,
0001
1000
0001
0000
,
0100
0001
0010
0100
,
1000
0100
1000
0000
,
0100
0010
0100
0000
,
1000
0001
1000
0000
,
0001
0001
0100
0000
,
0001
0100
0010
0000
,
0100
0010
0100
0000
,
0010
1000
0100
0000
,
1000
0100
1000
0000
,
0100
1000
0010
0100
,
0001
0010
0100
0000
,
0010
0001
1000
0001
,
0100
0001
0010
0100
,
2000
0000
0000
0000
,
3100
0000
1001
1001
,
1001
0001
0100
0001
,
0010
0100
1000
0100
,
0000
0000
0000
0000
,
2000
0000
0000
0000
,
3001
0000
0001
0100
,
0020
0000
0000
0000
,
0000
0000
0000
0030
,
0200
0000
0000
0000
,
0310
0000
0010
1000
,
0200
0000
0000
0000
,
0000
0000
0000
0300
,
2000
0000
0000
0000
,
3001
0000
1000
0100
,
2000
0000
0000
0020
,
0000
0000
0000
3030
,
0020
0000
0000
0000
,
0200
0330
0010
1000
,
0002
0000
0000
0200
,
0000
0000
0000
0303
,
0200
0000
0000
0300
,
0000
0010
0000
0000
;

//---------------dance-single - ----------------
#NOTES:
     dance-single:
     :
     Beginner:
     1:
     0.069,0.162,0.015,0.000,0.000: // measure 1
0010
0000
0000
0000
,  // measure 2
0000
0000
0000
0000
,  // measure 3
0100
0000
0000
0000
,  // measure 4
0000
0000
0000
0000
,  // measure 5
0001
0000
0000
0000
,  // measure 6
1000
0000
0000
0000
,  // measure 7
0010
0000
0000
0100
,  // measure 8
0000
0000
0000
0000
,  // measure 9
0010
0000
0000
0000
,  // measure 10
1000
0000
0000
0000
,  // measure 11
0001
0000
0000
0000
,  // measure 12
0000
0000
0000
0100
,  // measure 13
0100
0000
0000
0000
,  // measure 14
0001
0000
1000
0000
,  // measure 15
1000
0000
0000
0000
,  // measure 16
0000
0000
0000
0000
,  // measure 17
0001
0000
0000
0000
,  // measure 18
0100
0000
0001
0000
,  // measure 19
1000
0000
0000
1000
,  // measure 20
0000
0000
0000
0000
,  // measure 21
0100
0000
0000
0000
,  // measure 22
0100
0000
0000
0000
,  // measure 23
1000
0000
0000
0000
,  // measure 24
0010
0000
0000
0000
,  // measure 25
0100
0000
0000
0000
,  // measure 26
0100
0000
0000
0000
,  // measure 27
0001
0000
0000
0000
,  // measure 28
0001
0000
0000
0000
,  // measure 29
0100
0000
0000
0000
,  // measure 30
0001
0000
0000
0000
,  // measure 31
1000
0000
0000
0000
,  // measure 32
0000
0000
0000
0000
,  // measure 33
1000
0000
0000
0000
,  // measure 34
0001
0000
0000
0000
,  // measure 35
0100
0000
0000
0000
,  // measure 36
0001
0000
0000
0000
,  // measure 37
0100
0000
0000
0000
,  // measure 38
0010
0000
0000
0000
,  // measure 39
0100
0000
0000
0000
,  // measure 40
0001
0000
0000
0000
,  // measure 41
1000
1000
1000
1000
,  // measure 42
1001
0000
0000
0000
,  // measure 43
0010
0000
0000
0000
,  // measure 44
0100
0000
0000
0000
,  // measure 45
0000
0000
0000
0000
,  // measure 46
1001
0000
0000
0000
,  // measure 47
0001
0000
1000
0000
,  // measure 48
1000
0000
0000
0000
,  // measure 49
0000
0000
0000
0000
,  // measure 50
0010
0000
0000
0000
,  // measure 51
0100
0000
0001
0000
,  // measure 52
0001
0000
0000
0000
,  // measure 53
0000
0000
0000
0000
,  // measure 54
1000
0000
0000
0000
,  // measure 55
0001
0000
0000
0000
,  // measure 56
0100
0000
0000
0100
,  // measure 57
0000
0000
0000
0000
,  // measure 58
0010
0000
0000
0000
,  // measure 59
1000
0000
0000
0000
,  // measure 60
0001
0000
0000
1000
,  // measure 61
0000
0000
0000
0000
,  // measure 62
0100
0000
0000
0000
;
