#TITLE:Mikunologie;
#SUBTITLE:;
#ARTIST:X Plorez feat. Hatsune Miku;
#TITLETRANSLIT:;
#SUBTITLETRANSLIT:;
#ARTISTTRANSLIT:;
#GENRE:;
#CREDIT:;
#BANNER:bn.png;
#BACKGROUND:bg.png;
#LYRICSPATH:;
#CDTITLE:;
#MUSIC:Mikunologie.mp3;
#OFFSET:-0.201;
#SAMPLESTART:85.060;
#SAMPLELENGTH:12.000;
#SELECTABLE:YES;
#BPMS:0.000=130.000
;
#STOPS:
;
#BGCHANGES:0.000=Mikunologie.avi=1.000=0=0=0=StretchNoLoop====,
99999=-nosongbg-=1.000=0=0=0 // don't automatically add -songbackground-
;
#KEYSOUNDS:;
#ATTACKS:;

//---------------dance-single - Blank----------------
#NOTES:
     dance-single:
     :
     Hard:
     7:
     0.379,0.355,0.139,0.154,0.158,306.000,18.000,20.000,0.000,0.000,0.000,0.379,0.355,0.139,0.154,0.158,306.000,18.000,20.000,0.000,0.000,0.000:
0000
0000
0000
0000
,
0000
0000
0000
0000
,
0000
0000
0000
0000
,
0000
0000
0000
0000
,
0000
0000
0000
0000
,
1000
0000
0001
0000
0100
0000
0000
0001
0000
0000
0000
0000
0000
0001
0000
0001
,
1000
0000
0100
0000
1000
0000
0000
0010
0000
0100
0000
0000
0010
0000
1000
0000
,
0001
0000
1000
0000
0100
0000
0000
0100
0000
0000
0000
0000
0000
0100
0000
0100
,
0010
0001
1000
0001
0020
0000
0000
0000
,
0031
0010
0001
0000
0100
0000
0010
0000
,
1000
0010
0100
0000
0010
0000
1000
0000
,
0001
1000
0100
0000
1000
0000
0010
0000
,
1010
0010
0011
0010
,
0120
0000
0100
0000
0130
0010
0001
0000
,
0002
0103
2000
3100
,
1000
0010
0200
0000
0310
1000
0010
0001
,
0020
0130
0200
0301
,
1000
0000
0000
0000
,
0000
0000
1000
0000
0001
0100
0000
0100
,
0010
0000
0000
0000
1000
0000
0000
0000
0001
0000
0000
0001
0000
0000
0010
0000
,
0000
0000
0100
0010
0001
0010
0000
0100
,
1000
0000
0100
0000
1000
0000
0010
0000
0100
0000
0000
0100
0000
0000
0100
0000
,
0000
0000
0010
0000
1000
0100
0000
0010
,
0001
0000
0000
0000
0100
0000
0000
0000
0010
0000
0000
0010
0000
0000
0020
0000
,
0000
0000
0000
0000
0030
0100
1000
0001
,
2000
3100
0020
0031
,
1000
0000
0001
0000
0100
0000
0000
0010
0000
0010
0000
0100
0000
0000
0000
0000
,
0110
0010
1001
0001
,
0100
0000
0010
0000
1000
0000
0000
0001
0000
0001
0000
1000
0000
0000
0000
0000
,
0100
0000
0010
0000
0001
0000
1000
0001
0000
0000
0000
0000
0000
0000
0000
0000
,
0000
0000
0100
0000
0010
1000
0000
0010
,
0100
0000
0000
0000
0001
0000
0000
0000
0010
0000
0000
0100
0000
0000
1000
0000
,
0001
0000
1000
0000
0010
1000
0000
0010
,
0001
0000
0010
0000
1000
0000
0010
0000
0100
0000
0000
0010
0000
0000
1000
0000
,
0100
0010
0100
0000
0010
0000
0001
0000
,
1000
0001
1000
0000
0001
0000
0100
0000
,
0010
0100
0010
0000
1000
0000
0010
0000
,
0100
0001
0010
0100
1100
0000
0011
0000
,
0001
0000
1000
0000
0001
0100
0100
0000
,
0010
0000
1000
0000
0100
0010
0010
0000
,
0001
0000
1000
0000
0100
1000
1000
0000
,
0010
0000
1000
0000
0001
1000
1000
0000
,
0001
0000
1000
0000
0100
1000
0010
0000
,
0100
0000
0001
0000
0010
0010
0100
0000
,
0100
0110
0010
0110
,
0100
0010
0100
1000
0001
0000
0000
0000
,
0102
0010
2000
3003
,
0001
0100
0010
0100
0010
1000
0100
0000
,
2100
0010
0002
3003
,
0001
0001
0010
0100
0010
0000
0000
0000
,
1020
0100
0002
0033
,
0001
0010
0001
0100
1000
0100
0010
0000
,
0120
0001
2000
3030
,
0010
0000
1000
0000
0001
0000
0010
0100
0000
0000
0000
0000
0000
0000
0000
0000
,
0010
0000
0001
0000
1000
0000
0000
0010
0000
1000
0000
0010
0000
0000
0000
0000
,
0100
0010
0100
0000
0001
1000
0001
0000
,
1000
0000
0100
0000
0010
0000
0000
0100
0000
1000
0000
0001
0000
0000
1000
0000
,
0001
0100
1000
0100
0020
0000
0000
0000
,
0130
0000
0100
0000
0010
0000
0000
0010
0000
0100
0000
0010
0000
0000
0000
0000
,
0100
0010
1000
0000
1000
0001
0010
0000
,
0001
0000
0100
0000
1000
0000
0000
0100
0000
0010
0000
1000
0000
0000
0000
0000
,
0001
0000
1000
0000
0100
1000
0000
0020
0000
0000
0000
0000
0000
0000
0000
0000
,
0130
0000
0010
0000
1000
0000
0000
0001
0000
0001
0000
0010
0000
0000
0000
0000
,
0011
0100
1010
1000
,
1001
0000
1000
0000
0100
0000
0000
0010
0000
0001
0000
0010
0000
0000
0000
0000
,
0101
0100
0110
0010
;

//---------------dance-single - Blank----------------
#NOTES:
     dance-single:
     :
     Medium:
     6:
     0.336,0.305,0.293,0.116,0.000,252.000,38.000,15.000,0.000,0.000,0.000,0.336,0.305,0.293,0.116,0.000,252.000,38.000,15.000,0.000,0.000,0.000:
0000
0000
0000
0000
,
0000
0000
0000
0000
,
0000
0000
0000
0000
,
0000
0000
0000
0000
,
0000
0000
0000
0000
,
0010
0000
0100
0000
0001
0000
0000
1000
,
0001
1000
0010
0100
,
0010
0000
1000
0000
0100
0000
0000
0100
,
0010
0001
0020
0000
,
0130
0000
0110
0000
0010
0001
0100
0000
,
0010
0000
0110
0000
0010
1000
0010
0000
,
0100
0000
0110
0000
0010
1000
0001
0000
,
2000
3002
0200
0303
,
2020
0000
0000
3030
,
0010
1000
0010
0100
,
0010
1000
0001
0000
0010
0000
0011
0000
,
0001
1000
0200
0000
,
0300
0000
0000
0000
,
1000
0000
0001
0000
0100
0001
0100
0000
,
0001
0000
0100
0000
1000
0100
0010
0000
,
0100
0000
0010
0000
0100
0010
1000
0000
,
1000
0000
0001
0000
1000
0001
0100
0000
,
0001
0000
1000
0000
0100
1000
0100
0000
,
1000
0000
0010
0000
0100
0001
0100
0000
,
0001
0000
0100
0000
0010
1000
0010
0000
,
0110
1001
0110
0000
,
0010
1000
0020
0000
0100
0000
0130
0000
,
0100
0001
0200
0000
0001
0000
0301
0000
,
0001
1000
0020
0000
0100
0000
0130
0000
,
0100
0010
1000
0010
1000
0000
0000
0000
,
1000
0000
0001
0000
0010
0001
0010
0000
,
0001
0000
0100
0000
0010
0100
0010
0000
,
0100
0000
0010
0000
1000
0010
1000
0000
,
0001
0001
1000
1000
,
0001
1000
0001
0000
0100
0000
0010
0000
,
1000
0010
1000
0000
0010
0100
0010
0000
,
0100
0001
0010
0100
,
1000
1000
0001
0001
,
0102
0100
0010
0100
,
0010
0100
0020
0033
,
2001
0100
0010
0100
,
0010
0100
0020
3030
,
0010
0000
0100
0000
0001
0100
1000
0000
,
0100
0000
0010
0000
0010
0001
0010
1000
,
0010
0000
0100
0000
0001
1000
0000
0100
,
1000
0100
0010
0000
,
0011
0011
0011
0000
,
0001
0100
1000
0100
,
0110
0110
0110
0000
,
0010
1000
0001
1000
0001
0000
0000
0000
,
1001
0101
1001
0000
,
0001
1000
0100
0010
,
0011
0110
1100
0000
,
0100
1000
0010
0100
0001
0000
0000
0000
,
1001
0101
0011
0000
,
0001
0010
0001
0100
,
0110
1001
0110
0000
,
0100
0010
1000
0000
,
1001
1100
1001
0000
,
0001
0010
1000
0010
,
0011
0101
1001
0000
,
0001
0100
0020
0000
,
0130
0000
0110
0000
0010
1000
0001
0000
,
1000
0000
1001
0000
0001
1000
0100
0000
,
1000
0000
1100
0000
0100
0010
0001
0000
,
0010
0000
0011
0000
0001
0100
0010
0000
,
0100
0000
0000
0000
;

//---------------dance-single - Blank----------------
#NOTES:
     dance-single:
     :
     Easy:
     3:
     0.224,0.229,0.031,0.031,0.000,195.000,4.000,4.000,0.000,0.000,0.000,0.224,0.229,0.031,0.031,0.000,195.000,4.000,4.000,0.000,0.000,0.000:
0000
0000
0000
0000
,
0000
0000
0000
0000
,
0000
0000
0000
0000
,
0000
0000
0000
0000
,
0000
0000
0000
0000
,
0001
0010
0001
0000
,
0100
0100
0010
1000
,
0001
1000
0100
0000
,
0010
0010
0020
0030
,
0100
0010
2000
3000
,
0001
1000
0100
0000
,
1000
0001
0020
0030
,
0001
0100
0010
0000
,
1001
0000
0001
0000
,
1000
1000
0010
0000
,
0100
0000
0010
0000
,
1000
1000
0001
0000
,
0000
0000
0000
0000
,
0001
0000
0100
0000
,
0010
0100
0001
1000
,
0100
0000
0010
0000
,
0010
0100
1000
0010
,
0001
0000
0010
0000
,
0100
0010
0001
0010
,
1000
0000
0000
0100
,
0010
0000
0010
0010
,
0011
0001
0010
1000
,
0010
0001
0100
0010
,
1000
0001
0100
0001
,
1000
1000
1000
0000
,
0010
0000
0100
0000
,
0010
0001
0010
0100
,
0100
1000
0100
0010
,
0100
0010
1000
1000
,
0001
1000
0100
0000
,
0100
1000
0010
0000
,
0100
0000
0000
0000
,
0010
0010
0100
0010
,
0100
0001
1000
0100
,
1000
0001
0100
0000
,
0001
1000
0010
1000
,
0001
0010
0001
1000
,
0001
0100
0010
0100
,
0001
0010
0100
0010
,
0001
1000
0100
1000
,
0010
0010
0010
0000
,
0010
0100
0010
0000
,
0100
0001
1000
0100
,
0010
0010
0010
0000
,
0001
0100
0110
0000
,
0100
0100
0100
0000
,
0010
1000
0001
0010
,
0001
0001
0001
0000
,
1000
0010
0100
0000
,
0001
0001
0001
0000
,
1000
0010
0100
0001
,
0010
0010
0010
0000
,
0100
1000
1010
0000
,
1000
0001
0100
0000
,
0001
1000
0010
0100
,
0010
0010
0010
0000
,
0100
0001
0010
0000
,
0100
1000
0100
0100
,
0010
0001
0010
0010
,
0001
1000
0001
0001
,
1000
0010
0200
0000
,
0300
0000
0000
0000
;

//---------------dance-single - Blank----------------
#NOTES:
     dance-single:
     :
     Beginner:
     1:
     0.098,0.126,0.000,0.000,0.000,89.000,0.000,0.000,0.000,0.000,0.000,0.098,0.126,0.000,0.000,0.000,89.000,0.000,0.000,0.000,0.000,0.000: // measure 0
0000
0000
0000
0000
,  // measure 1
0000
0000
0000
0000
,  // measure 2
0000
0000
0000
0000
,  // measure 3
0000
0000
0000
0000
,  // measure 4
0000
0000
0000
0000
,  // measure 5
1000
0000
0000
0000
,  // measure 6
0001
0000
0000
0000
,  // measure 7
1000
0000
0000
0000
,  // measure 8
0001
0001
0001
0000
,  // measure 9
0100
0000
0000
0000
,  // measure 10
0010
0000
0000
0000
,  // measure 11
1000
0000
0000
0000
,  // measure 12
0001
0001
0001
0000
,  // measure 13
1000
0000
0000
0000
,  // measure 14
0010
0000
0000
0000
,  // measure 15
0100
0000
0000
0000
,  // measure 16
0001
0001
0001
0000
,  // measure 17
0000
0000
0000
0000
,  // measure 18
0000
1000
0000
0000
,  // measure 19
1000
0000
0000
0000
,  // measure 20
0000
0001
0000
0000
,  // measure 21
0001
0000
0000
0000
,  // measure 22
0010
0000
0010
0000
,  // measure 23
0010
0000
0000
0000
,  // measure 24
0000
0000
0000
0000
,  // measure 25
0100
0100
0100
0000
,  // measure 26
0010
0000
0000
0000
,  // measure 27
0001
0001
0001
0000
,  // measure 28
1000
0000
0000
0000
,  // measure 29
0010
0000
0000
0000
,  // measure 30
0000
0100
0000
0000
,  // measure 31
0010
0000
0000
0000
,  // measure 32
0000
1000
0000
0000
,  // measure 33
0001
0000
0000
0000
,  // measure 34
0010
0000
0000
0000
,  // measure 35
0001
0000
1000
0000
,  // measure 36
0001
0000
0000
0000
,  // measure 37
0100
0000
0010
0000
,  // measure 38
1000
0000
0000
0000
,  // measure 39
0001
0000
0000
0000
,  // measure 40
1000
0000
0000
0000
,  // measure 41
0100
0000
0000
0000
,  // measure 42
0010
0000
0000
0000
,  // measure 43
0001
0000
0000
0000
,  // measure 44
1000
0000
0001
0000
,  // measure 45
1000
1000
1000
0000
,  // measure 46
0001
0001
0001
0000
,  // measure 47
0000
0000
0000
0000
,  // measure 48
1000
1000
1000
0000
,  // measure 49
0000
0000
0000
0000
,  // measure 50
0010
0010
0010
0000
,  // measure 51
0000
0000
0000
0000
,  // measure 52
0100
0100
0100
0000
,  // measure 53
0000
0000
0000
0000
,  // measure 54
1000
0001
1000
0000
,  // measure 55
0000
0000
0000
0000
,  // measure 56
0010
0100
0010
0000
,  // measure 57
0000
0000
0000
0000
,  // measure 58
0001
0010
0001
0000
,  // measure 59
0000
0000
0000
0000
,  // measure 60
0100
1000
0100
0000
,  // measure 61
0000
0000
0000
0000
,  // measure 62
1000
0000
0001
0000
,  // measure 63
0100
0100
0100
0000
,  // measure 64
0010
0000
1000
0000
,  // measure 65
0001
0001
0001
0000
;
