#TITLE:Man-He;
#SUBTITLE:;
#ARTIST:ADSRe;
#TITLETRANSLIT:;
#SUBTITLETRANSLIT:;
#ARTISTTRANSLIT:;
#CREDIT:;
#BANNER:bn.png;
#BACKGROUND:bg.png;
#LYRICSPATH:;
#CDTITLE:;
#MUSIC:ADSRe - Man-He.mp3;
#OFFSET:-0.798;
#SAMPLESTART:28.220;
#SAMPLELENGTH:12.000;
#SELECTABLE:YES;
#BPMS:0.000=140.000,213.500=280.000,217.000=560.000,229.000=139.999,230.000=70.000,231.750=139.999,232.000=279.999,262.000=140.000,263.000=279.999,295.000=559.998,311.000=139.999;
#STOPS:78.000=0.429
,311.750=0.107
,313.000=0.107
,314.500=0.107
,315.500=0.107
,317.250=0.107
;
#BGCHANGES:;

//---------------dance-single - ----------------
#NOTES:
     dance-single:
     :
     Hard:
     9:
     0.470,0.546,0.180,0.197,0.077: // measure 1
0000
0000
0000
0000
,  // measure 2
0000
0000
0000
0000
,  // measure 3
0000
0000
0000
0000
,  // measure 4
0000
0000
0000
0200
,  // measure 5
0301
1000
0100
1000
0000
0010
0100
0001
,  // measure 6
0000
1000
0001
1000
0100
1000
0001
0100
,  // measure 7
0001
0010
0000
0010
0000
0010
1000
0010
,  // measure 8
0100
0000
0000
0010
0000
0000
0010
0000
0000
0000
0000
0000
2000
0000
0000
0000
,  // measure 9
3100
0000
0010
0000
0001
1000
0010
0100
,  // measure 10
0100
0000
0010
0000
1000
0001
0010
0010
,  // measure 11
0001
0000
1000
0000
0010
1000
0010
0010
,  // measure 12
0100
0001
1000
0100
0020
0000
0001
0000
,  // measure 13
0031
0100
1000
0100
0010
0100
0010
0010
,  // measure 14
0000
0100
0010
1000
0001
0010
1000
0010
,  // measure 15
0001
0100
0010
1000
0100
1000
0010
0010
,  // measure 16
0100
0010
1000
0001
0020
0000
0001
0000
,  // measure 17
0130
0000
1001
0000
,  // measure 18
0101
0000
1010
0000
,  // measure 19
1000
0000
0000
0000
0010
0000
0000
0100
0001
0000
0000
1000
0000
0000
0001
0000
,  // measure 20
0100
0000
0000
0010
0000
0000
0010
0000
0100
0000
0000
0000
0010
0000
0000
0000
,  // measure 21
1000
0000
0100
0010
1000
0000
0010
0000
,  // measure 22
0011
0000
0001
0100
0020
0000
0130
0000
,  // measure 23
0010
0000
1000
0001
0010
0000
1100
0000
,  // measure 24
0101
1100
0101
1001
,  // measure 25
0010
0000
1000
0010
0001
0000
0010
0000
,  // measure 26
0100
0000
0010
1000
0002
0000
1003
0000
,  // measure 27
0001
0000
0001
0010
0100
0000
0110
0000
,  // measure 28
0011
0000
1010
0000
1001
0000
0000
1000
,  // measure 29
0010
0100
0000
0010
0101
0000
0000
0001
,  // measure 30
1000
0100
0000
0010
0110
0000
0100
1000
,  // measure 31
0001
1000
0000
0100
0011
0000
0001
0010
,  // measure 32
0100
1000
0002
0000
2003
0000
3010
0100
,  // measure 33
0000
0010
0000
0000
1000
0000
0000
1000
0000
0000
0001
0000
0022
0000
0000
0000
,  // measure 34
0000
0000
0000
0000
0033
0000
0001
1000
,  // measure 35
0000
0010
0000
0000
1000
0000
0000
0100
0000
0000
0001
0000
0100
0000
0000
0000
,  // measure 36
0000
0100
0010
0000
0001
0000
1000
0010
,  // measure 37
0000
1000
0000
0000
0001
0000
0000
0010
0000
0000
0001
0000
2002
0000
0000
0000
,  // measure 38
0000
3000
1000
1000
2003
0000
3001
0100
,  // measure 39
0100
0110
0110
0010
,  // measure 40
0000
0100
0001
0000
1000
0010
0200
0000
,  // measure 41
0001
0000
0000
0000
0010
0000
0000
0010
0000
0000
0010
0000
0320
0000
0000
0000
,  // measure 42
1000
0000
0000
0000
0100
0000
0000
0100
0000
0000
0100
0000
2030
0000
0000
0000
,  // measure 43
0100
0000
0000
0000
0001
0000
0000
0001
0000
0000
3001
0000
0002
0000
0000
0000
,  // measure 44
0010
0000
0000
0000
0100
0000
0000
0100
0000
0000
0100
0000
0103
0000
1000
0000
,  // measure 45
0100
0001
0010
0001
0010
0000
0001
1000
,  // measure 46
0100
1000
0001
0100
1000
0000
1000
0010
,  // measure 47
0001
0010
0100
0001
1000
0001
1000
0000
,  // measure 48
1000
0000
0001
0000
0001
0000
1000
0001
,  // measure 49
1000
0001
1000
0001
1000
0001
1000
0001
,  // measure 50
1000
0001
1000
0001
1000
0001
1000
0000
,  // measure 51
0010
0000
0000
0000
0100
0000
0000
0000
0010
0000
0000
0000
1000
0000
0000
0000
0000
0000
0000
0000
0000
1000
0000
0000
0000
0000
0000
0000
0000
0000
0001
0000
0000
0000
0000
0000
0010
0000
0000
0000
0000
0000
0100
0000
0000
0000
0000
0000
,  // measure 52
0010
0100
0010
0000
2002
0000
0000
0000
0000
0000
0000
0000
0000
0000
0000
0000
,  // measure 53
0000
0000
0000
0000
,  // measure 54
0000
0000
0000
0000
,  // measure 55
0000
0000
0000
0000
,  // measure 56
0000
0000
0000
0000
,  // measure 57
0000
0000
0000
0000
,  // measure 58
0000
3003
0000
0000
,  // measure 59
0010
1000
0010
0001
,  // measure 60
0010
0100
0010
1000
,  // measure 61
0001
0010
0001
0100
,  // measure 62
0001
1000
0100
1000
,  // measure 63
0100
0100
0010
1000
,  // measure 64
0001
0010
0001
1000
,  // measure 65
0100
1000
0001
1000
,  // measure 66
0100
1000
0000
0001
,  // measure 67
0100
1000
0100
0001
,  // measure 68
0010
1000
0010
0001
,  // measure 69
0100
0010
1000
0001
,  // measure 70
1000
0000
0100
0000
1000
0001
1000
0001
,  // measure 71
1000
0001
1000
0000
0001
0000
0100
0000
,  // measure 72
1000
0000
0100
0000
0010
0000
1000
0100
,  // measure 73
1000
0100
1000
0100
1000
0100
1000
0100
,  // measure 74
0010
0001
0010
0100
1000
0001
0200
0000
,  // measure 75
0000
0000
0000
0000
,  // measure 76
0000
0000
0000
0320
,  // measure 77
0000
0000
0000
2030
,  // measure 78
0000
0000
0000
0000
,  // measure 79
0000
0000
0000
0000
,  // measure 80
0000
0000
0000
0000
0000
0002
0000
3003
;

//---------------dance-single - ----------------
#NOTES:
     dance-single:
     :
     Medium:
     6:
     0.369,0.546,0.222,0.111,0.021:
0000
0000
0000
0000
,
0000
0000
0000
0000
,
0000
0000
0000
0000
,
0000
0000
0000
2000
,
3001
0001
1000
1000
,
0001
1000
0010
0100
,
0010
0010
0100
0100
,
0010
0000
0000
1000
0000
0000
0001
0000
0000
0000
1000
0000
0000
0000
0000
0000
,
0001
0000
0010
0000
0001
0100
0010
0000
,
0100
0000
0001
0000
1000
0100
1000
0000
,
0010
0000
0100
0000
0001
1000
0001
0000
,
0100
0010
2000
0001
,
3001
0000
0010
0000
0100
1000
0100
0000
,
0010
0000
0100
0000
1000
0010
1000
0000
,
0100
0000
0001
0000
0010
0001
0010
0000
,
0001
0000
0100
0000
0020
0000
0000
0030
,
1001
0000
0010
0000
,
1001
0000
0010
0000
,
1001
0110
1001
0110
,
0101
1100
1001
1000
,
0001
0000
1000
0001
0100
0000
0010
0000
,
1000
0020
0130
0010
,
1000
0000
0001
0010
0001
0000
0011
0000
,
0110
1100
1001
0001
,
1000
0000
0010
0100
0001
0000
1000
0000
,
0001
0020
0031
0100
,
1000
0000
0100
0001
0010
0000
0110
0000
,
1001
0000
0110
0000
1001
0000
0001
1000
,
0100
0000
0100
0000
0100
0000
0100
0010
,
0001
0000
0001
0000
0001
0000
0001
1000
,
0100
0000
0100
0000
0100
0000
0100
1000
,
0010
0010
0010
0010
,
0100
0000
0001
0000
1000
0001
2002
0000
,
0000
0000
3003
0001
,
1000
0000
0100
0000
1000
0010
0100
0000
,
0000
0010
0010
0000
0100
0000
0001
0000
,
1000
0000
0010
0000
0100
0001
0022
0000
,
0000
0000
0033
0001
,
1000
0010
0100
0001
,
0000
1000
0010
0000
0100
0000
0001
0000
,
1000
0000
0000
0000
0001
0000
0000
1000
0000
0000
0001
0000
0100
0000
0000
0000
,
0010
0000
0000
0000
0100
0000
0000
0010
0000
0000
0100
0000
0001
0000
0000
0000
,
0010
0000
0000
0000
0100
0000
0000
0100
0000
0000
0100
0000
0010
0000
0000
0000
,
0001
0000
0000
0000
1000
0000
0000
1000
0000
0000
1000
0000
0010
0000
1000
0000
,
0001
0000
0001
0000
1000
0001
0010
0000
,
0001
0000
0001
0001
0100
0000
0100
0010
,
1000
0000
0001
0000
0010
0001
0100
0000
,
0010
0000
1000
0001
0010
0000
0100
0000
,
0100
0100
0100
0100
,
0100
0100
0100
0110
,
1001
0101
1010
0011
,
1100
2002
0000
0000
,
0000
0000
0000
0000
,
0000
0000
0000
0000
,
0000
0000
0000
0000
,
0000
0000
0000
0000
,
0000
0000
0000
0000
,
0000
3003
0000
0000
,
1000
0001
1000
0000
,
0001
0100
0010
0000
,
0100
0000
0010
0000
,
1000
1000
0001
0001
,
0010
0001
0010
0000
,
0001
0100
0010
0000
,
0100
0000
0010
0000
,
1000
0000
0001
1000
,
0001
1000
0001
1000
,
0001
1000
0001
0010
,
0100
0010
0100
0010
,
0100
0010
0100
1000
,
0010
0100
0001
0010
,
0001
0100
1000
0100
,
0010
1000
0001
0010
,
0100
1000
0001
0200
,
0000
0000
0000
0000
,
0000
0000
0000
0000
,
0000
0000
0000
0000
,
0000
0000
0000
0300
,
0000
0000
0000
0000
,
0000
0000
0000
0000
0000
0020
0000
0030
;

//---------------dance-single - ----------------
#NOTES:
     dance-single:
     :
     Easy:
     4:
     0.246,0.410,0.051,0.094,0.000:
0000
0000
0000
0000
,
0000
0000
0000
0000
,
0000
0000
0000
0000
,
0000
0000
0000
0000
,
0001
1000
0001
0001
,
0100
0010
1000
0100
,
0010
0010
0100
0100
,
1001
0000
0000
0010
,
0100
0001
1000
1000
,
0001
0100
0010
0010
,
0100
0010
1000
1000
,
0001
1000
0200
0000
,
0310
0001
0010
0010
,
0100
1000
0001
0001
,
0100
0010
1000
1000
,
0010
0100
0002
0000
,
1003
0000
0001
0000
,
1000
0000
0001
0000
,
1000
1000
0001
0001
,
1001
0110
1001
0001
,
0100
0010
0000
0100
,
0000
0010
0000
1000
,
0001
1000
0000
0100
,
0100
0100
0100
1000
,
0000
0010
0000
0100
,
0000
0001
0100
1000
,
0000
0100
0000
0010
,
0010
0010
0000
0000
,
0100
0000
0010
0000
,
1000
0000
0001
0000
,
1000
0000
0001
1000
,
0000
0002
0203
0310
,
0000
0100
0000
0220
,
0000
0330
0000
0100
,
0000
0001
0000
1000
,
0001
1000
0000
1000
,
0000
0010
0000
0202
,
0000
0000
0303
0001
,
0000
1000
0000
0010
,
0000
0100
0010
1000
,
0001
1000
1000
0001
,
1000
0001
0001
1000
,
0001
1000
1000
0001
,
1000
0001
0001
1000
,
0100
0010
0000
0010
,
0100
1000
0000
0001
,
0100
0010
0000
0100
,
0010
1000
0000
0001
,
0000
1000
0000
0001
,
0000
1000
0000
0001
,
1000
0001
1000
0001
,
1000
0002
0000
0000
,
0000
0000
0000
0000
,
0000
0000
0000
0000
,
0000
0000
0000
0000
,
0000
0000
0000
0000
,
0000
0000
0000
0000
,
0000
0003
0000
0000
,
0001
0000
1000
0000
,
0010
0000
1000
0000
,
0010
0000
0100
0000
,
0010
1000
0010
1000
,
0010
0000
0100
0000
,
0010
1000
0001
0000
,
1000
0000
0001
0000
,
1000
0001
0100
0010
,
0000
1000
0000
0001
,
0000
0010
0000
0001
,
0000
0100
0000
0010
,
0000
1000
0000
0001
,
1000
0001
0000
1000
,
0000
0010
0000
0100
,
0010
1000
0001
0010
,
0100
1000
0001
0002
,
0000
0000
0000
0000
,
0000
0000
0000
0000
,
0000
0000
0000
0000
,
0000
0000
0000
0003
,
0000
0000
0000
0000
,
0000
0000
0000
0000
0000
0020
0000
0030
;

//---------------dance-single - ----------------
#NOTES:
     dance-single:
     :
     Beginner:
     2:
     0.125,0.233,0.068,0.009,0.000:
0000
0000
0000
0000
,
0000
0000
0000
0000
,
0000
0000
0000
0000
,
0000
0000
0000
1000
,
1000
0000
0000
0000
,
0001
0000
0000
0000
,
0100
0000
0000
0000
,
0010
0000
0000
1000
,
1000
0000
0000
0000
,
0001
0000
0000
0000
,
0100
0000
0000
0000
,
0010
0000
0010
0000
,
0100
0000
0000
0000
,
0001
0000
0000
0000
,
1000
0000
0000
0000
,
1000
0000
0010
0000
,
0010
0000
0000
0000
,
0100
0000
0000
0000
,
0001
0000
1000
0000
,
1001
0000
0000
0010
,
0000
0000
0000
1000
,
0000
0000
0000
0001
,
0000
0000
0000
1000
,
0000
1000
0000
0001
,
0000
0000
0000
0010
,
0000
0000
0000
0001
,
0000
0000
0000
0100
,
0000
0100
0000
0000
,
0010
0000
0000
0000
,
0010
0000
0000
0000
,
0010
0000
0000
0010
,
0010
0010
0000
1000
,
0000
0000
0000
1001
,
0000
0000
0000
0001
,
0000
0000
0000
0100
,
0000
0100
0000
0100
,
0000
0000
0000
0110
,
0000
0000
0000
1000
,
0000
0000
0000
0001
,
0000
0000
0000
0100
,
0000
0000
0000
0001
,
0000
0000
0000
1000
,
0000
0000
0000
0100
,
0000
0000
0000
1000
,
1000
1000
0000
0001
,
0001
0001
0000
0100
,
0100
0100
0000
0010
,
0010
0010
0000
0110
,
0000
0000
0000
1001
,
0000
0000
0000
0110
,
0000
1001
0000
0110
,
0000
1000
0000
0000
,
0000
0000
0000
0000
,
0000
0000
0000
0000
,
0000
0000
0000
0000
,
0000
0000
0000
0000
,
0000
0000
0000
0000
,
0000
0000
0000
0000
,
1000
0000
0000
0000
,
0001
0000
0000
0000
,
0100
0000
0000
0000
,
0010
0000
0010
0000
,
0010
0000
0000
0000
,
1000
0000
0000
0000
,
0001
0000
0000
0000
,
1000
0000
1000
0001
,
0000
0001
0000
1000
,
0000
1000
0000
0001
,
0000
0001
0000
1000
,
0000
1000
0000
0001
,
0000
0000
0000
1000
,
0000
0000
0000
0010
,
0000
0010
0000
0010
,
0000
0010
0000
0020
,
0000
0000
0000
0000
,
0000
0000
0000
0000
,
0000
0000
0000
0000
,
0000
0000
0000
0030
;

//---------------dance-single - ----------------
#NOTES:
     dance-single:
     :
     Challenge:
     9:
     0.531,0.718,0.265,0.299,0.137: // measure 1
0000
0000
0000
0000
,  // measure 2
0000
0000
0000
0000
,  // measure 3
0000
0000
0000
0000
,  // measure 4
0000
0000
0000
0101
,  // measure 5
0011
0010
0100
1000
0000
1000
0100
0010
,  // measure 6
0000
0010
0100
1000
0100
0010
0001
0010
,  // measure 7
0001
0100
0000
1000
0000
1000
0100
0001
,  // measure 8
0100
0000
0000
0100
0000
0000
0010
0000
0000
0000
1000
0000
0002
0000
0000
0000
,  // measure 9
0013
0001
0010
0100
1000
1000
0100
0100
,  // measure 10
0000
1000
0100
0010
0001
0001
1000
1000
,  // measure 11
0010
0000
0100
0000
0010
0010
1000
1000
,  // measure 12
0010
0001
0010
0100
2000
0000
0000
0000
,  // measure 13
3100
1000
0010
0100
0001
0010
0100
0100
,  // measure 14
0000
0010
0001
0010
1000
0010
0100
0100
,  // measure 15
0000
0100
1000
0010
0100
0001
1000
1000
,  // measure 16
0001
0100
1000
0100
0020
0000
0000
0030
,  // measure 17
0110
0000
1001
0000
,  // measure 18
0101
0000
1010
0000
,  // measure 19
0110
0000
0000
0000
1001
0000
0000
0010
0100
0000
0000
0100
0000
0000
0010
0000
,  // measure 20
1000
0000
0000
0100
0000
0000
0010
0000
0011
0000
0000
0000
0001
0000
0100
0000
,  // measure 21
0000
0100
0000
0000
0010
0000
1000
0010
0000
0000
0000
0000
0110
0000
0000
0000
,  // measure 22
0000
0000
0000
0000
0010
1000
0001
0000
0011
0000
0000
0000
0100
0000
0000
0000
,  // measure 23
0000
1000
0100
0001
0100
0000
0110
0000
,  // measure 24
0011
0000
0110
0000
1100
0000
1000
0100
,  // measure 25
0000
1000
0000
0000
0010
0000
0100
0010
0000
0000
0000
0000
0110
0000
0000
0000
,  // measure 26
0000
0000
0000
0000
0010
1000
0001
0000
1001
0000
0000
0000
0110
0000
0000
0000
,  // measure 27
0000
0000
0001
0000
1000
0000
0100
1000
0000
0000
0000
0000
1000
0000
0100
0000
,  // measure 28
0001
0100
1000
0000
0010
0000
0000
0100
,  // measure 29
0011
0000
0000
0000
0000
0000
0000
0001
,  // measure 30
1100
0000
0000
0000
0000
0000
0000
0010
,  // measure 31
1001
0000
0000
0000
0000
0000
0000
0010
,  // measure 32
0001
1000
0001
0000
0100
0000
0000
0000
0010
0000
0000
0000
0100
0000
0100
0000
,  // measure 33
0000
0010
0000
0000
1000
0000
0000
0001
0000
0000
0010
0000
0220
0000
0000
0000
,  // measure 34
0000
0000
0000
0000
0330
0000
0010
0100
,  // measure 35
0000
0100
0000
0000
1000
0000
0000
0100
0000
0000
0010
0000
0011
0000
0000
0000
,  // measure 36
0000
0001
0010
0100
1000
0000
0100
1000
,  // measure 37
0000
0100
0000
0000
0010
0000
0000
0100
0000
0000
1000
0000
2020
0000
0000
0000
,  // measure 38
0000
0000
3030
0000
0010
1000
0001
0000
0011
0000
0000
0000
0001
0000
0100
0000
,  // measure 39
1000
0000
0000
0000
1000
0000
0000
0100
0000
0000
0010
0000
1010
0000
0000
0000
,  // measure 40
0000
0010
1000
0001
0010
0001
0200
0000
,  // measure 41
0001
0000
0000
0000
0010
0000
0000
0010
0000
0000
0010
0000
0320
0000
0000
0000
,  // measure 42
1000
0000
0000
0000
0100
0000
0000
0100
0000
0000
0100
0000
2030
0000
0000
0000
,  // measure 43
0100
0000
0000
0000
0001
0000
0000
0001
0000
0000
3001
0000
0002
0000
0000
0000
,  // measure 44
0010
0000
0000
0000
0100
0000
0000
0100
0000
0000
0100
0000
0103
0010
0100
0000
,  // measure 45
0010
0000
1000
0000
0100
0000
1000
0000
0000
0000
1000
0100
1000
0000
0100
0000
,  // measure 46
0010
0000
0001
0000
0010
0000
0100
0000
0000
0000
0000
0000
0010
0001
0010
0000
,  // measure 47
0001
0000
0010
0000
0100
0000
1000
0000
0000
0000
0100
1000
0100
0000
1000
0000
,  // measure 48
0100
0010
0001
0000
1001
0000
0001
1000
,  // measure 49
0001
1000
0001
1000
0001
1000
0001
1000
,  // measure 50
0001
1000
0001
1000
0001
1000
1001
0000
,  // measure 51
0001
0000
0000
0000
0100
0000
0000
0000
0010
0000
0000
0000
1000
0000
0000
0000
0000
0000
0000
0000
0000
1001
0000
0000
0000
0000
0000
0000
0000
0000
0101
0000
0000
0000
0000
0000
0101
0000
0000
0000
0000
0000
0001
0000
0000
0000
0000
0000
,  // measure 52
0010
1000
0100
0000
0010
0000
0100
0000
0010
0000
0100
0000
0010
0000
0100
0000
,  // measure 53
0010
0100
0010
0100
0010
0100
0010
0100
,  // measure 54
0010
0100
0010
0100
0010
0100
0010
0100
,  // measure 55
0010
0200
0020
0000
0000
0000
0000
0000
,  // measure 56
0000
0000
0000
0000
,  // measure 57
0000
0000
0000
0000
,  // measure 58
0000
0000
0000
0000
0000
0000
0000
0000
0000
0000
0000
0000
0000
0000
0000
0000
0000
0000
0000
0000
0000
0000
0000
0000
0000
0000
0000
0000
0300
0030
0000
0000
,  // measure 59
0010
0001
0100
0010
,  // measure 60
1000
0001
0010
0001
,  // measure 61
1000
0100
1000
0010
,  // measure 62
0100
0001
0010
0100
,  // measure 63
0010
0001
1000
0001
,  // measure 64
0002
0023
0230
1300
,  // measure 65
0100
0010
0100
1000
,  // measure 66
0001
1000
0010
0200
,  // measure 67
0302
0023
0032
0203
,  // measure 68
2300
3200
0320
2030
,  // measure 69
3002
0023
0032
2003
,  // measure 70
3002
0000
0023
0000
0031
0010
0100
1000
,  // measure 71
0001
1000
0001
0000
0001
0000
1000
0000
,  // measure 72
0001
0000
0100
0000
1000
0000
0100
0010
,  // measure 73
1000
0001
0010
0100
0010
0001
1000
0010
,  // measure 74
1000
0100
0010
0001
1000
0001
2000
0000
,  // measure 75
0000
0000
0000
0000
,  // measure 76
0000
0000
0000
3002
,  // measure 77
0000
0000
0000
0203
,  // measure 78
0000
0000
0000
0300
,  // measure 79
0000
0000
0000
0000
,  // measure 80
0000
0000
0000
0000
0000
0020
0000
0000
,  // measure 81
0030
0000
0000
0000
;
