#TITLE:MODEL DD3;
#SUBTITLE:;
#ARTIST:Mutsuhiko Izuml;
#TITLETRANSLIT:;
#SUBTITLETRANSLIT:;
#ARTISTTRANSLIT:;
#CREDIT:;
#BANNER:bn.png;
#BACKGROUND:bg.png;
#LYRICSPATH:;
#CDTITLE:;
#MUSIC:MODEL DD3.mp3;
#OFFSET:-8.919;
#SAMPLESTART:0.100;
#SAMPLELENGTH:12.000;
#SELECTABLE:YES;
#BPMS:0.000=306.667;
#STOPS:;
#BGCHANGES:;

//---------------dance-single - ----------------
#NOTES:
     dance-single:
     :
     Hard:
     9:
     0.668,0.947,0.063,0.430,0.025:
0000
0000
0000
0000
,
0000
0000
0000
0000
,
0000
1000
0000
0000
0001
0000
0000
0100
,
0000
0010
1000
0001
,
0000
1000
0000
0000
0100
0000
0000
0010
,
0000
0001
0000
0100
0000
0000
0010
0000
,
0000
1000
0000
0000
0001
0000
1000
0000
,
0010
0000
0000
1000
0000
0000
0010
0000
,
0000
0100
0001
1001
,
0000
0000
0002
0000
0000
0200
0000
0000
,
0000
0000
0303
0000
0000
0100
0010
1000
,
0001
1000
0100
0020
0000
0000
0000
0000
,
0030
0000
0000
0000
0010
0001
0010
0100
,
0010
0001
0100
0010
1000
0001
1000
0020
,
0000
0000
0000
0000
0130
0001
0010
0100
,
1000
0002
0000
0000
0000
0003
0000
2000
,
0000
0002
0000
0000
0000
0000
0000
3003
,
0000
0000
0000
0001
0100
0001
0010
0100
,
1000
0200
0000
0000
0000
0000
0000
0300
,
0000
0000
0010
0001
0010
0001
0100
0010
,
1000
0010
1000
0100
1000
0020
0000
0000
,
0000
0200
0000
0000
0000
0000
0000
0330
,
0000
0020
0000
0000
0000
0000
0000
0000
,
0000
0030
0000
0000
1000
0002
2000
0000
,
0000
0000
0000
3003
,
0000
0020
0000
0000
,
0000
0000
0030
0200
0000
0300
0200
0000
,
0000
0000
0000
0300
,
0000
0002
0000
0000
0000
0000
0000
0000
,
0003
0000
0000
0001
0000
0001
1000
0000
,
1000
0100
0000
0000
0000
0000
0000
0100
,
0010
0001
1000
0001
0100
0001
0010
0000
,
0000
0000
0000
0100
0000
0000
0000
0000
0000
0000
0010
0000
0100
0000
1000
0000
,
0100
1000
0001
1000
0001
0200
0000
0000
,
0000
0000
0000
0000
,
0300
0010
0100
0000
0010
0000
1000
0000
,
0001
0000
0000
0001
0100
0000
0000
0000
,
0000
0000
0100
0010
1000
0010
1000
0001
,
0010
0100
1000
0001
0200
0000
0000
0000
,
0000
0000
0301
0010
0100
1000
0100
0010
,
0000
0000
0100
0000
0000
0000
0100
0010
,
0001
1000
0001
0100
0010
1000
0100
1000
,
0200
0000
0000
0000
0000
0300
0000
0000
,
0000
0010
0000
0000
0000
0010
0000
0000
,
0000
0010
0001
1000
0001
0000
0000
0000
,
0000
0001
0100
0001
0100
0001
0100
0001
,
0100
0001
2000
0000
0000
0000
0000
0000
,
3000
0001
1000
0001
1000
0001
1000
0001
,
1000
0001
1000
0001
1000
0001
0000
1000
,
0000
0000
0100
0000
0000
0000
0000
0010
0000
0000
0000
0000
0001
0000
0000
0000
,
0000
1000
0001
1000
0001
0000
0000
1000
,
0000
0000
0000
0010
0000
0000
0000
0000
0100
0000
0001
0000
0100
0000
0001
0000
,
0010
0000
0000
0000
0000
0000
0100
0000
0000
0000
0000
0000
0000
1000
0000
0000
,
0000
0000
1000
0100
0010
0001
2002
0000
,
0000
0000
0000
0000
,
0000
0000
0000
0000
3003
0000
0000
2000
,
0000
0000
0020
0000
0000
0000
0000
3030
,
0000
0000
0010
0100
0001
1000
0001
0010
,
0200
0000
0000
0000
0000
0300
0000
0000
,
0000
0100
1000
0100
0010
0100
1000
0010
,
0100
0001
1000
0001
0200
0000
0000
0000
,
0000
0310
1000
0100
0010
0001
2000
0000
,
0000
3000
0002
2000
,
0000
0000
3003
0000
,
1000
0010
1000
0100
0010
0001
0020
0000
,
0000
0000
0000
0000
0030
0000
0000
0100
,
1000
0100
1000
0010
0100
0001
0100
0001
,
0010
0001
0200
0000
0000
0000
0020
0000
,
0000
0000
0000
0000
0330
0000
0000
0110
,
0000
0000
0000
0000
,
0000
0000
1001
0000
,
0000
0000
0000
0000
,
0000
1001
0000
0000
0000
0000
0000
0000
,
0000
0000
0000
0000
0000
0000
0100
0001
,
1000
0010
1000
0100
0010
0001
0010
0100
,
1000
0001
1000
0010
0100
0001
0000
0001
,
0100
0000
0100
0010
0000
0010
1000
0000
,
1000
0100
0000
0100
0010
0000
0010
0001
,
0000
0001
0010
0000
0010
0100
0000
0100
,
1000
0000
1000
0001
0000
0001
0100
0000
,
0100
0010
0000
0010
1000
0000
1000
0100
,
0000
0100
0010
0000
0010
0001
0000
0001
,
0100
0001
0100
0001
0100
0001
0100
0001
,
0100
0001
0100
0001
0100
0001
0100
0001
,
0100
0001
0100
0001
0100
0001
0100
0001
,
0100
0001
0100
0001
0100
0001
0100
0001
,
0100
0001
0100
0001
0100
0001
0100
0001
,
0100
0020
0000
0000
0000
0000
0000
0000
,
0000
0030
0000
0000
0000
0000
0000
0000
;

//---------------dance-single - ----------------
#NOTES:
     dance-single:
     :
     Medium:
     7:
     0.414,0.612,0.164,0.379,0.025:
0000
0000
0000
0000
,
0000
0000
0000
0000
,
0000
1000
0000
0000
0000
0000
0000
0000
,
0000
0000
0000
0001
0000
1000
0000
1010
,
0000
0000
0000
0000
0000
0000
0000
1000
,
0000
0010
0000
0110
0000
0000
0000
0000
,
0000
0000
0000
0010
,
0100
0001
0000
0000
,
0000
0000
0000
0000
,
0000
0000
1000
0000
0000
0001
0000
0000
,
0000
0000
0000
0001
,
0010
0100
0000
0000
,
0000
0000
0000
0000
0000
1000
0000
0100
,
0000
1000
0000
0100
0000
1000
0000
0100
,
0000
0000
0000
0000
0000
0010
0000
0001
,
0000
0000
0000
0000
0000
0000
0000
1000
,
0000
0001
0000
0000
,
0000
0001
0100
0001
,
1000
0000
0000
0000
,
0000
0001
0000
0010
0000
0100
0000
1000
,
0000
0100
0000
2000
0000
0000
0000
0000
,
0000
0000
0200
0000
0000
3300
0000
0000
,
0000
0220
0000
0000
0000
0000
0000
0000
,
0000
0330
0000
0000
2020
0000
0000
0000
,
0000
0000
3030
0000
,
0000
0202
0000
0000
,
0000
0000
0000
0000
0003
0300
2002
0000
,
0000
0000
0000
0000
,
3003
2200
0000
0000
0000
0000
0000
0000
,
3300
0000
0000
0001
0000
0000
1000
0000
,
0000
1100
0000
0000
0000
0000
0000
0010
,
0000
0001
0000
0001
0100
0000
0100
0010
,
0000
0000
0000
0100
0000
0000
0000
0000
0000
0000
0001
0000
0000
0000
1000
0000
,
0000
0001
0000
1000
0001
0200
0000
0000
,
0000
0000
0000
0000
,
0300
0010
0100
0000
0010
0000
1000
0000
,
0001
0000
0000
0001
0100
0000
0000
0000
,
0000
0001
0100
0010
,
1000
0001
2000
0000
,
0000
3010
0100
0001
,
0000
0010
0000
0100
,
0100
0000
1000
0001
1000
0000
0001
0000
,
0002
0000
0000
0000
0000
0003
0000
0000
,
0000
1000
0000
0000
0000
1000
0000
0000
,
0000
2000
0000
0000
0000
0010
0000
0000
,
3010
1000
0001
0010
,
1000
0010
0001
0100
,
0010
1000
0001
1000
,
0100
0010
0001
1000
,
0000
0000
0001
0000
0000
0000
0000
1000
0000
0000
0000
0000
0001
0000
0000
0000
,
0000
1000
0001
1000
0001
0000
0000
0100
,
0000
0000
0000
0001
0000
0000
0000
0000
0001
0000
0100
0000
0001
0000
0100
0000
,
0001
0000
0000
0000
0000
0000
0001
0000
0000
0000
0000
0000
0000
0100
0000
0000
,
0000
0000
0100
0001
1000
0010
0200
0000
,
0000
0000
0000
0000
,
0000
0000
0000
0000
0300
0000
0000
0002
,
0000
0020
0000
0000
,
0033
1000
0100
1000
,
0002
0000
0000
0000
0000
0003
0000
0000
,
0000
0001
0000
1000
0000
0001
0000
1000
,
0000
0010
0000
0100
0020
0000
0000
0000
,
0030
1000
0000
0010
1000
0010
0200
0000
,
0000
0300
0020
0200
,
0000
0000
0330
0000
,
0100
0010
1000
0002
,
0000
0000
0000
0000
0003
0000
0000
0001
,
0000
0100
0000
0010
0000
0100
0000
0100
,
0000
0010
2000
0000
0000
0000
0200
0000
,
0000
0000
0000
0000
3300
0000
0000
1001
,
0000
0000
0000
0000
,
0000
0000
0110
0000
,
0000
0000
0000
0000
,
0000
0110
0000
0000
0000
0000
0000
0000
,
0000
0000
0000
1001
,
0000
0000
0000
0000
,
0000
0000
0001
1000
,
0100
0001
0100
0010
,
0001
0010
0001
1000
,
0100
0001
0100
0010
,
0001
0100
1000
0100
,
0010
1000
0001
1000
,
0100
0010
0001
1000
,
0020
0000
0000
0000
,
0000
0000
0000
0000
,
0000
0000
0000
0000
,
0000
0000
0000
0000
,
0030
0000
0000
0000
,
0000
2002
0000
0000
,
3003
0000
0000
0000
;

//---------------dance-single - ----------------
#NOTES:
     dance-single:
     :
     Easy:
     3:
     0.191,0.334,0.164,0.051,0.000:
0000
0000
0000
0000
,
0000
0000
0000
0000
,
0000
1000
0000
0000
,
0000
0000
0000
0000
,
0001
0000
0000
0000
,
0000
0100
0000
0000
,
0000
0000
0000
0010
,
0000
0000
0000
0000
,
0000
0000
0000
0100
,
0000
0010
0000
0000
,
0000
0000
0000
1000
,
0000
0000
0000
0000
,
0000
0000
0001
0000
,
1000
0000
0010
0000
,
0100
0000
0000
0010
,
0000
0000
0000
0000
,
0100
0000
0000
0000
,
0000
0010
0000
0000
,
0000
0000
0000
0000
,
1000
0000
0001
0000
,
0100
0000
0001
0000
,
0000
0100
0000
0000
,
0110
0000
0000
0000
,
0000
0000
0000
1001
,
0000
0000
0000
0000
,
0000
0110
0000
0000
,
0000
0000
0000
1001
,
0000
0000
0000
0000
,
0001
0000
0100
0000
,
0000
0000
0010
0000
,
0100
0000
0000
0000
,
0010
0000
0000
1000
,
0000
0000
0001
0000
,
0000
1000
0000
0000
,
0001
0000
0000
1000
,
0000
0000
0010
0000
,
0000
0100
0000
0000
,
0001
0000
0000
0001
,
0000
0000
1000
0000
,
0000
1000
0000
0000
,
0001
0000
0000
0100
,
0000
0000
0000
0010
,
0000
0010
0000
0000
,
0100
0000
0000
0010
,
0000
0000
0100
0000
,
0000
0001
0000
0000
,
1000
0000
0000
0100
,
0000
0000
1000
0000
,
0000
0010
0000
0000
,
0100
0000
0000
0000
,
0000
0000
0010
0000
,
0000
0000
0000
0000
,
1000
0000
0000
0000
,
0000
0000
0000
1001
,
0000
0000
0000
0000
,
0000
0000
0010
0000
,
0110
0000
0000
0000
,
0000
0000
0010
1000
,
0010
0000
0000
0000
,
0000
0100
0001
0100
,
0001
0100
0001
0000
,
0000
0000
0001
1000
,
0000
0000
1001
0000
,
0000
0000
0000
0000
,
0010
0100
0010
0000
,
0000
0000
0000
0100
,
0001
0100
0001
0100
,
0001
0000
0000
0100
,
0000
0000
0000
0010
,
0000
0000
0000
0000
,
0000
0000
0010
0000
,
0000
0000
0000
0000
,
0010
0000
0000
0000
,
0000
0000
0000
0010
,
0000
0000
0000
0000
,
0000
0000
1001
0000
,
0000
0000
0000
0000
,
0101
0000
0000
0000
,
0000
0000
0000
1010
,
0000
0000
0000
0000
,
0000
0000
0110
0000
,
0000
0000
0000
0000
,
2002
0000
0000
0000
,
0000
0000
0000
0000
,
0000
0000
0000
0000
,
0000
0000
0000
0000
,
3003
0000
0000
0000
,
0000
0220
0000
0000
,
0330
0000
0000
0000
;

//---------------dance-single - ----------------
#NOTES:
     dance-single:
     :
     Beginner:
     1:
     0.101,0.165,0.025,0.000,0.000: // measure 1
0000
0000
0000
0000
,  // measure 2
0000
0000
0000
0000
,  // measure 3
1000
0000
0000
0000
,  // measure 4
0000
0000
0000
0001
,  // measure 5
0000
0000
0000
0000
,  // measure 6
0000
1000
0000
0000
,  // measure 7
0000
0000
0000
0010
,  // measure 8
0000
0000
0000
0000
,  // measure 9
0000
0000
0000
0000
,  // measure 10
0000
0100
0000
0000
,  // measure 11
0000
0000
0000
0010
,  // measure 12
0000
0000
0000
0000
,  // measure 13
0000
0000
1000
0000
,  // measure 14
0000
0000
0000
0000
,  // measure 15
0001
0000
0000
0000
,  // measure 16
0000
0000
0000
0000
,  // measure 17
1000
0000
0000
0000
,  // measure 18
0000
0000
0001
0000
,  // measure 19
0000
0000
0000
0000
,  // measure 20
0000
0100
0000
0000
,  // measure 21
0000
0000
0010
0000
,  // measure 22
0000
0010
0000
0000
,  // measure 23
0010
0000
0000
0000
,  // measure 24
0000
0000
0000
0100
,  // measure 25
0000
0000
0000
0000
,  // measure 26
0000
0001
0000
0000
,  // measure 27
0000
0000
0000
1000
,  // measure 28
0000
0000
0000
0000
,  // measure 29
0100
0000
0000
0000
,  // measure 30
0000
1000
0000
0000
,  // measure 31
0000
0000
0000
0001
,  // measure 32
0000
0000
0000
0000
,  // measure 33
0000
0100
0000
0000
,  // measure 34
0000
0000
0000
0001
,  // measure 35
0000
0000
0000
0000
,  // measure 36
0000
1000
0000
0000
,  // measure 37
0000
0000
0000
0000
,  // measure 38
0100
0000
0000
0000
,  // measure 39
0000
0000
0000
1000
,  // measure 40
0000
0000
0000
0000
,  // measure 41
0000
0000
0010
0000
,  // measure 42
0000
0000
0000
0000
,  // measure 43
0100
0000
0000
0000
,  // measure 44
0000
0000
0000
0001
,  // measure 45
0000
0000
0000
0000
,  // measure 46
0000
0000
1000
0000
,  // measure 47
0000
0000
0000
0000
,  // measure 48
0001
0000
0000
0000
,  // measure 49
0000
0000
0000
1000
,  // measure 50
0000
0000
0000
0000
,  // measure 51
0000
0000
0001
0000
,  // measure 52
0000
0000
0000
0000
,  // measure 53
0100
0000
0000
0000
,  // measure 54
0000
0000
0000
0010
,  // measure 55
0000
0000
0000
0000
,  // measure 56
0000
0000
0000
0000
,  // measure 57
0100
0000
0000
0000
,  // measure 58
0000
0000
0010
0000
,  // measure 59
0000
0000
0000
0000
,  // measure 60
0000
1000
0000
0000
,  // measure 61
0000
0000
0001
0000
,  // measure 62
0000
0000
1000
0000
,  // measure 63
0000
0000
0100
0000
,  // measure 64
0000
0000
0000
0000
,  // measure 65
0010
0000
0000
0000
,  // measure 66
0000
0000
0000
0000
,  // measure 67
0001
0000
0000
0000
,  // measure 68
0000
1000
0000
0000
,  // measure 69
0001
0000
0000
0100
,  // measure 70
0000
0000
0000
0000
,  // measure 71
0000
0000
0100
0000
,  // measure 72
0000
0000
0000
0000
,  // measure 73
0100
0000
0000
0000
,  // measure 74
0000
0000
0000
0110
,  // measure 75
0000
0000
0000
0000
,  // measure 76
0000
0000
0010
0000
,  // measure 77
0000
0000
0000
0000
,  // measure 78
1000
0000
0000
0000
,  // measure 79
0000
0000
0000
0001
,  // measure 80
0000
0000
0000
0000
,  // measure 81
0000
0000
0010
0000
,  // measure 82
0000
0000
0000
0000
,  // measure 83
0100
0000
0000
0000
,  // measure 84
0000
0000
0000
0000
,  // measure 85
0000
0000
0000
0000
,  // measure 86
0000
0000
0000
0000
,  // measure 87
0000
0000
0000
0000
,  // measure 88
0000
1001
0000
0000
;
