#TITLE:Lady;
#SUBTITLE:(Hear me Tonight);
#ARTIST:Modjo;
#TITLETRANSLIT:;
#SUBTITLETRANSLIT:;
#ARTISTTRANSLIT:;
#CREDIT:;
#BANNER:bn.png;
#BACKGROUND:bg.png;
#LYRICSPATH:;
#CDTITLE:;
#MUSIC:Lady (Hear me Tonight).mp3;
#OFFSET:-0.018;
#SAMPLESTART:30.480;
#SAMPLELENGTH:12.000;
#SELECTABLE:YES;
#BPMS:0.000=126.000;
#STOPS:;
#BGCHANGES:;

//---------------dance-single - ----------------
#NOTES:
     dance-single:
     :
     Hard:
     7:
     0.317,0.347,0.174,0.023,0.351: // measure 1
0000
0000
0000
0000
,  // measure 2
0000
0000
0000
0000
,  // measure 3
0000
0000
0000
0000
,  // measure 4
0000
0000
0000
0000
,  // measure 5
0000
0000
0000
0000
,  // measure 6
0000
0000
0000
0000
,  // measure 7
0000
0000
0000
0000
,  // measure 8
0000
0000
0000
0000
,  // measure 9
1000
0000
0001
0000
0000
0000
0010
0000
0000
0010
0000
0000
0000
0000
0000
0000
,  // measure 10
0100
0000
0010
0000
0000
0000
0100
0000
0000
0100
0000
0000
0000
0000
0000
0000
,  // measure 11
1000
0000
0010
0000
0000
0000
0100
0000
0000
0100
0000
0000
0000
0000
0000
0000
,  // measure 12
0010
0000
0100
0000
0000
0000
0010
0000
0000
0010
0000
0000
0000
0000
0000
0000
,  // measure 13
1000
0000
0001
0000
0000
0000
0100
0000
0000
0100
0000
0000
0000
0000
0000
0000
,  // measure 14
0010
0000
1000
0000
0000
0000
0100
0000
0000
0100
0000
0000
0000
0000
0000
0000
,  // measure 15
0010
0000
0001
0000
0000
0000
0100
0000
0000
0100
0000
0000
0000
0000
0000
0000
,  // measure 16
0010
0000
1000
0000
0000
0000
0001
0000
0000
0001
0000
0000
1000
0000
0000
0000
,  // measure 17
1000
0000
0000
1010
0000
0000
0000
0000
0000
0000
0100
0000
0000
0010
0000
0000
,  // measure 18
1000
0000
0000
0100
0000
0000
0000
0000
0000
0000
0100
0000
0000
0010
0000
0000
,  // measure 19
0011
0000
0000
1001
0000
0000
0000
0000
0000
0000
0100
0000
0000
0010
0000
0000
,  // measure 20
1000
0000
0000
0011
0000
0000
0000
0000
0000
0000
0001
0000
0000
0100
0000
0000
,  // measure 21
2000
0000
0000
0000
3000
0000
0000
0000
0000
0000
1000
0000
0000
0100
0000
0000
,  // measure 22
0010
0000
0000
1000
0000
0000
0000
0000
0000
0000
1000
0000
0000
0001
0000
0000
,  // measure 23
0011
0000
0000
0000
0000
0000
0000
0000
0000
0000
0011
0000
0000
1100
0000
0000
,  // measure 24
0101
0000
0000
1001
0000
0000
0000
0000
0000
0000
0000
0000
0000
0000
0000
0000
,  // measure 25
0110
0000
0000
0110
0000
0000
0000
0000
0000
0000
0010
0000
0000
1000
0000
0000
,  // measure 26
0001
0000
0000
0010
0000
0000
0000
0000
0000
0000
0100
0000
0000
0010
0000
0000
,  // measure 27
0001
0000
0000
0100
0000
0000
0000
0000
0000
0000
0100
0000
0000
0010
0000
0000
,  // measure 28
1000
0000
0000
0001
0000
0000
0000
0000
0000
0000
0001
0000
0000
0100
0000
0000
,  // measure 29
0110
0000
0000
0000
0000
0000
0000
0000
0000
0000
0100
0000
0000
0010
0000
0000
,  // measure 30
1000
0000
0000
1000
0000
0000
0000
0000
0000
0000
1000
0000
0000
0001
0000
0000
,  // measure 31
1000
0000
0001
0000
0010
0000
1000
0000
0010
0000
0001
0000
,  // measure 32
0100
0000
0010
0000
1000
0000
0001
0000
0010
0000
0001
0000
,  // measure 33
1000
0000
0100
0000
0000
0000
0010
0000
0000
0010
0000
0000
0010
0100
0000
0000
,  // measure 34
0100
0000
1000
0000
0000
0000
0010
0000
0000
0010
0000
0000
0010
0100
0000
0000
,  // measure 35
0100
0000
0001
0000
0000
0000
0010
0000
0000
0010
0000
0000
0010
0100
0000
0000
,  // measure 36
0100
0000
1000
0000
0000
0000
0100
0000
0000
0100
0000
0000
0100
0010
0000
0000
,  // measure 37
0010
0000
0001
0000
0000
0000
0001
0000
0000
0001
0000
0000
0001
0100
0000
0000
,  // measure 38
0100
0000
0010
0000
0000
0000
1000
0000
0000
0010
0000
0000
1000
0010
0000
0000
,  // measure 39
0100
0000
0010
0000
0000
0000
1000
0000
0000
0010
0000
0000
0100
0010
0000
0000
,  // measure 40
0100
0000
0010
0000
0000
0000
1000
0000
0000
0001
0000
0000
1000
0001
0000
0000
,  // measure 41
0001
0000
1000
0000
0000
0000
0001
0000
0000
0001
0000
0000
0001
0100
0000
0000
,  // measure 42
0010
0000
0100
0000
0000
0000
0010
0000
0000
1000
0000
0000
0100
1000
0000
0000
,  // measure 43
0100
0000
0010
0000
0000
0000
0001
0000
0000
0010
0000
0000
0001
0010
0000
0000
,  // measure 44
0001
0000
0100
0000
0000
0000
0010
0000
0000
0010
0000
0000
0010
0100
0000
0000
,  // measure 45
0010
0000
1000
0000
0000
0000
0001
0000
0000
0100
0000
0000
0010
0100
0000
0000
,  // measure 46
0010
0000
1000
0000
0000
0000
0100
0000
0000
0010
0000
0000
0001
0010
0000
0000
,  // measure 47
0001
0000
0010
0000
0000
0000
0100
0000
0000
1000
0000
0000
0100
1000
0000
0000
,  // measure 48
1000
0100
0010
0001
0010
0000
1000
0000
,  // measure 49
0001
0100
1000
0100
,  // measure 50
0010
1000
0010
0100
,  // measure 51
0001
0010
1000
0010
,  // measure 52
0001
0001
1000
0010
,  // measure 53
1001
0001
0100
0100
,  // measure 54
0010
1000
0100
1000
,  // measure 55
0010
0100
0001
0010
,  // measure 56
0100
0100
0010
0001
,  // measure 57
1001
0000
0000
1100
0000
0000
0000
0000
0000
0000
1000
0000
0000
0100
0000
0000
,  // measure 58
0001
0000
0000
0100
0000
0000
0000
0000
0000
0000
0010
0000
0000
0100
0000
0000
,  // measure 59
1000
0000
0000
0010
0000
0000
0000
0000
0000
0000
0100
0000
0000
0001
0000
0000
,  // measure 60
1000
0000
0000
1001
0000
0000
0000
0000
0000
0000
0001
0000
0000
0100
0000
0000
,  // measure 61
0220
0000
0000
0000
0330
0000
0000
0000
0000
0000
0010
0000
0000
1000
0000
0000
,  // measure 62
0010
0000
0000
0110
0000
0000
0000
0000
0000
0000
1000
0000
0000
0001
0000
0000
,  // measure 63
0010
0000
0001
0000
0100
0000
0010
0000
1000
0000
0001
0000
,  // measure 64
0010
0000
0100
0000
1000
0000
0001
0000
0100
0000
0001
0000
,  // measure 65
0011
0000
0000
1100
0000
0000
0000
0000
0000
0000
0101
0000
0000
1010
0000
0000
,  // measure 66
0110
0000
0010
0000
0000
1000
0000
0000
0100
0000
0000
0010
0000
0000
0000
0000
;

//---------------dance-single - ----------------
#NOTES:
     dance-single:
     :
     Medium:
     5:
     0.199,0.294,0.128,0.038,0.068:
0000
0000
0000
0000
,
0000
0000
0000
0000
,
0000
0000
0000
0000
,
0000
0000
0000
0000
,
0000
0000
0000
0000
,
0000
0000
0000
0000
,
0000
0000
0000
0000
,
0000
0000
0000
0000
,
1000
0000
0000
0101
0000
0000
0000
0000
,
0001
0000
0000
0110
0000
0000
0000
0000
,
1000
0000
0000
0101
0000
0000
0000
0000
,
0010
0000
0000
1010
0000
0000
0000
0000
,
0100
0000
0000
1001
0000
0000
0000
0000
,
0010
0000
0000
1100
0000
0000
0000
0000
,
0100
0000
0000
0011
0000
0000
0000
0000
,
0001
0000
0000
1010
0000
0000
0000
0000
,
0100
0000
0000
0100
0000
0000
0000
0000
0000
0000
0000
0000
0000
0000
0000
0000
,
0010
0000
0000
1000
0000
0000
0000
0000
0000
0000
0000
0000
0000
0000
0000
0000
,
1000
0000
0000
1000
0000
0000
0000
0000
0000
0000
0000
0000
0000
0000
0000
0000
,
0001
0000
0000
0100
0000
0000
0000
0000
0000
0000
0000
0000
0000
0000
0000
0000
,
0020
0000
0030
0000
0000
0100
0000
0000
,
0010
0000
0000
1000
0000
0000
0000
0000
0000
0000
1000
0000
0000
0000
0000
0000
,
1000
0000
0000
0000
0000
0001
0000
0000
,
0100
0000
0000
0010
0000
0000
0000
0000
0000
0000
0000
0000
0000
0000
0000
0000
,
1000
0000
0000
1000
0000
0000
0000
0000
0000
0000
1000
0000
0000
0000
0000
0000
,
0001
0000
0000
0100
0000
0000
0000
0000
0000
0000
0010
0000
0000
0000
0000
0000
,
0100
0000
0000
0100
0000
0000
0000
0000
0000
0000
0010
0000
0000
0000
0000
0000
,
1000
0000
0000
1000
0000
0000
0000
0000
0000
0000
0010
0000
0000
0000
0000
0000
,
0110
0000
0000
0000
0000
0010
0000
0000
,
1000
0000
0000
0001
0000
0000
0000
0000
0000
0000
0000
0000
0000
0000
0000
0000
,
0010
0001
0100
1000
,
0100
0010
1000
0001
,
0020
0000
0000
0030
,
0001
1000
0100
1000
,
0001
0100
0001
1000
,
0100
0000
0010
0001
0010
0000
0001
0000
,
0100
0010
1000
1000
,
0010
0100
0010
0010
,
1000
0001
0010
0001
,
0100
0010
1000
0001
,
1000
0000
0001
0000
0000
0000
0100
0000
0000
0100
0000
0000
0100
0000
0000
0000
,
0010
0000
1000
0000
0000
0000
0010
0000
0000
0010
0000
0000
0010
0000
0000
0000
,
0100
0000
0001
0000
0000
0000
0010
0000
0000
0010
0000
0000
0010
0000
0000
0000
,
0100
0000
1000
0000
0000
0000
0100
0000
0000
0100
0000
0000
0100
0000
0000
0000
,
0100
0000
0010
0000
0000
0000
0001
0000
0000
0001
0000
0000
0001
0000
0000
0000
,
1000
0000
0010
0000
0000
0000
0100
0000
0000
0100
0000
0000
0100
0000
0000
0000
,
0010
0000
1000
0000
0000
0000
0001
0000
0000
0001
0000
0000
0001
0000
0000
0000
,
1000
0001
1000
0001
1000
0000
0000
0000
,
0101
0000
0000
0001
,
0100
0000
0000
0100
,
0010
0000
0000
0010
,
1000
0000
0000
1000
,
0200
0300
0000
0100
,
0010
0000
0000
0010
,
0001
0000
0000
0001
,
1000
0000
0000
0000
,
1001
0000
0000
0001
,
0101
0000
0000
0100
,
0110
0000
0000
0010
,
1010
0000
0000
1000
,
1100
0000
0000
0100
,
0110
0000
0000
0010
,
0001
0100
1000
0100
,
0001
0010
1000
0010
,
0220
0000
0000
0000
,
0330
0000
0000
0000
;

//---------------dance-single - ----------------
#NOTES:
     dance-single:
     :
     Easy:
     1:
     0.091,0.145,0.023,0.068,0.000:
0000
0000
0000
0000
,
0000
0000
0000
0000
,
0000
0000
0000
0000
,
0000
0000
0000
0000
,
0000
0000
0000
0000
,
0000
0000
0000
0000
,
0000
0000
0000
0000
,
0000
0000
0000
0000
,
0001
0000
0000
0000
,
1000
0000
0000
0000
,
0010
0000
0000
0000
,
0100
0000
0000
0000
,
0010
0000
0000
0000
,
1000
0000
0000
0000
,
0001
0000
0000
0000
,
1000
0000
0000
0000
,
0010
0010
0000
0000
,
0100
0000
0000
0000
,
0001
0001
0000
0000
,
1000
0000
0000
0000
,
0020
0030
0000
0000
,
0100
0000
0000
0000
,
0001
0000
0000
0000
,
1000
1000
0000
0000
,
0110
0000
0000
0000
,
0010
0010
0000
0000
,
1000
1000
0000
0000
,
0001
0001
0000
0000
,
0200
0300
0000
0000
,
0010
0010
0000
0000
,
1000
0000
0001
0000
,
0010
0000
0100
0000
,
2000
0000
0000
0000
,
3000
0000
0000
0000
,
0001
0000
0000
0000
,
1000
0000
0001
1000
,
0100
0000
0000
0000
,
0010
0000
0000
0000
,
0001
0000
0000
0000
,
1000
0000
0000
0000
,
0010
0000
0000
0000
,
0100
0000
0000
0000
,
0001
0000
0000
0000
,
1000
0000
0010
0000
,
0100
0000
0000
0000
,
0001
0000
0000
0000
,
1000
0000
0000
0000
,
0010
0010
0010
0000
,
0200
0300
0000
0000
,
0010
0000
0000
0000
,
1000
0000
0000
0000
,
0001
0000
0000
0000
,
0020
0030
0000
0000
,
0100
0000
0000
0000
,
1000
0000
0000
0000
,
1001
0000
0000
0000
,
0200
0300
0000
0000
,
0010
0000
0000
0000
,
1000
0000
0000
0000
,
0001
0000
0000
0000
,
0020
0030
0000
0000
,
0100
0000
0000
0000
,
1000
0000
0010
0000
,
0100
0000
0001
0000
,
2002
3003
0000
0000
;

//---------------dance-single - ----------------
#NOTES:
     dance-single:
     :
     Beginner:
     1:
     0.068,0.121,0.000,0.015,0.000:
0000
0000
0000
0000
,
0000
0000
0000
0000
,
0000
0000
0000
0000
,
0000
0000
0000
0000
,
0000
0000
0000
0000
,
0000
0000
0000
0000
,
0000
0000
0000
0000
,
0000
0000
0000
0000
,
1000
0000
0000
0000
,
1000
0000
0000
0000
,
1000
0000
0000
0000
,
1000
0000
0000
0000
,
0001
0000
0000
0000
,
0001
0000
0000
0000
,
0001
0000
0000
0000
,
0001
0000
0000
0000
,
0100
0000
0000
0000
,
0100
0000
0000
0000
,
0010
0000
0000
0000
,
0010
0000
0000
0000
,
1000
0000
0000
0000
,
0001
0000
0000
0000
,
1000
0000
0000
0000
,
0010
0000
0000
0000
,
0100
0000
0000
0000
,
0001
0000
0000
0000
,
1000
0000
0000
0000
,
0100
0000
0000
0000
,
0010
0000
0000
0000
,
0001
0000
0000
0000
,
1000
0000
0000
0000
,
0001
0000
0000
0000
,
0200
0000
0000
0300
,
0010
0000
0000
0000
,
0010
0000
0000
0000
,
0010
0000
0000
0000
,
0100
0000
0000
0000
,
0100
0000
0000
0000
,
0010
0000
0000
0000
,
0010
0000
0000
0000
,
0010
0000
0000
0000
,
0010
0000
0000
0000
,
1000
0000
0000
0000
,
1000
0000
0000
0000
,
1000
0000
0000
0000
,
0001
0000
0000
0000
,
0100
0000
0000
0000
,
0010
0010
0010
0000
,
0100
0000
0000
0000
,
0100
0000
0000
0000
,
0010
0000
0000
0000
,
1000
0000
0000
0000
,
0001
0000
0000
0000
,
0010
0000
0000
0000
,
0100
0000
0000
0000
,
1000
0000
0000
0000
,
0001
0000
0000
0000
,
1000
0000
0000
0000
,
0010
0000
0000
0000
,
0100
0000
0000
0000
,
0010
0000
0000
0000
,
1000
0000
0000
0000
,
0001
0000
0001
0000
,
1000
0000
1000
0000
,
0020
0030
0000
0000
;

//---------------dance-single - ----------------
#NOTES:
     dance-single:
     :
     Challenge:
     8:
     0.347,0.446,0.317,0.038,0.370: // measure 1
0000
0000
0000
0000
,  // measure 2
0000
0000
0000
0000
,  // measure 3
0000
0000
0000
0000
,  // measure 4
0000
0000
0000
0000
,  // measure 5
0100
0010
0000
1000
0000
0000
0000
0000
,  // measure 6
1000
0001
0000
0010
0000
0000
0000
0000
,  // measure 7
0001
0100
0000
1000
0000
0000
0000
0000
,  // measure 8
1000
0010
0000
0100
0000
0000
0000
0000
,  // measure 9
0010
0000
1000
0000
0000
0000
1000
0000
0001
0100
0000
0000
0000
0000
0000
0000
,  // measure 10
0100
0000
0010
0000
0000
0000
1000
0000
0100
0010
0000
0000
0000
0000
0000
0000
,  // measure 11
0100
0000
1000
0000
0000
0000
0010
0000
0100
0001
0000
0000
0000
0000
0000
0000
,  // measure 12
0001
0000
0010
0000
0000
0000
0001
0000
0100
0010
0000
0000
0000
0000
0000
0000
,  // measure 13
0010
0000
0100
0000
0000
0000
0010
0000
1000
0100
0000
0000
0000
0000
0000
0000
,  // measure 14
0100
0000
0010
0000
0000
0000
0001
0000
1000
0010
0000
0000
0000
0000
0000
0000
,  // measure 15
0100
0000
0010
0000
0000
0000
0010
0000
0100
0001
0000
0000
0000
0000
0000
0000
,  // measure 16
0001
0000
1000
0000
0000
0000
1000
0000
1000
0100
0000
0000
0000
0000
0000
0000
,  // measure 17
0110
0000
0000
0011
0000
0000
0000
0000
0000
0000
0001
0000
0000
0100
0000
0000
,  // measure 18
0110
0000
0000
0101
0000
0000
0000
0000
0000
0000
0001
0000
0000
1000
0000
0000
,  // measure 19
1100
0000
0000
1001
0000
0000
0000
0000
0000
0000
0101
0000
0000
1100
0000
0000
,  // measure 20
1010
0000
0000
0011
0000
0000
0000
0000
0000
0000
0011
0000
0000
0110
0000
0000
,  // measure 21
2100
0000
0000
0000
0000
0000
3000
0000
0000
0000
1100
0000
0000
0100
0000
0000
,  // measure 22
0010
0000
0000
0011
0000
0000
0000
0000
0000
0000
0101
0000
0000
0010
0000
0000
,  // measure 23
0110
0000
0000
0000
0000
0000
0000
0000
0000
0000
0110
0000
0000
0101
0000
0000
,  // measure 24
1100
0000
0000
0101
0000
0000
0000
0000
0000
0000
0000
0000
0000
0000
0000
0000
,  // measure 25
1001
0000
0000
0101
0000
0000
0000
0000
0000
0000
0010
0000
0000
0100
0000
0000
,  // measure 26
0101
0000
0000
1100
0000
0000
0000
0000
0000
0000
1000
0000
0000
0100
0000
0000
,  // measure 27
0110
0000
0000
1100
0000
0000
0000
0000
0000
0000
1000
0000
0000
0100
0000
0000
,  // measure 28
0110
0000
0000
1001
0000
0000
0000
0000
0000
0000
0001
0000
0000
0100
0000
0000
,  // measure 29
0220
0000
0000
0000
0330
0000
0000
0000
0000
0000
0110
0000
0000
0010
0000
0000
,  // measure 30
1001
0000
0000
0101
0000
0000
0000
0000
0000
0000
0001
0000
0000
0100
0000
0000
,  // measure 31
0010
0000
1000
0000
0100
0000
0001
0000
0100
0000
1000
0000
,  // measure 32
0010
0000
0001
0000
0010
0000
1000
0000
0001
0000
0010
0000
,  // measure 33
0001
0000
0000
0100
0000
0000
0010
0000
0000
0000
1000
0000
0000
0000
0100
0000
,  // measure 34
1000
0000
0000
0010
0000
0000
0100
0000
0000
0000
0010
0000
0000
0000
1000
0000
,  // measure 35
0001
0000
0000
0010
0000
0000
0001
0000
0000
0000
0010
0000
0000
0000
0001
0000
,  // measure 36
0100
0000
0000
0010
0000
0000
1000
0000
0001
0000
0000
0000
0010
0000
0000
0000
,  // measure 37
0110
0000
0000
0100
0000
0000
1000
0000
0000
0000
0100
0000
0000
0000
1000
0000
,  // measure 38
0100
0000
0000
1000
0000
0000
0010
0000
0000
0000
0001
0000
0000
0000
0001
0000
,  // measure 39
0010
0000
0000
0100
0000
0000
0010
0000
0000
0000
1000
0000
0000
0000
0010
0000
,  // measure 40
0100
0000
0000
0001
0000
0000
0010
0000
0000
0000
0100
0000
0000
0000
0100
0000
,  // measure 41
1000
0000
0100
0000
0000
0000
0010
0000
0000
0010
0000
0000
0010
0001
0000
0000
,  // measure 42
0001
0000
0100
0000
0000
0000
0010
0000
0000
0100
0000
0000
0010
0100
0000
0000
,  // measure 43
0010
0000
1000
0000
0000
0000
0001
0000
0000
0010
0000
0000
0100
1000
0000
0000
,  // measure 44
0100
0000
1000
0000
0000
0000
0010
0000
0000
0100
0000
0000
0001
0100
0000
0000
,  // measure 45
0010
0000
1000
0000
0000
0000
0100
0000
0000
0100
0000
0000
0010
1000
0000
0000
,  // measure 46
0010
0000
0001
0000
0000
0000
0100
0000
0000
0100
0000
0000
0010
1000
0000
0000
,  // measure 47
0001
0000
0100
0000
0000
0000
1000
0000
0000
0100
0000
0000
0010
1000
0000
0000
,  // measure 48
0001
0001
0001
0001
0001
0000
1000
0000
,  // measure 49
0001
0000
0000
0100
0000
0000
0000
0000
0000
0000
0100
0000
0000
0010
0000
0000
,  // measure 50
1000
0000
0000
0100
0000
0000
0000
0000
0000
0000
0100
0000
0000
0001
0000
0000
,  // measure 51
0100
0000
0000
1000
0000
0000
0000
0000
0000
0000
0100
0000
0000
1000
0000
0000
,  // measure 52
0010
0000
0000
0001
0000
0000
0000
0000
0000
0000
0001
0000
0000
0010
0000
0000
,  // measure 53
0200
0000
0000
0000
0300
0000
0000
0000
0000
0000
0100
0000
0000
0010
0000
0000
,  // measure 54
0001
0000
0000
0010
0000
0000
0000
0000
0000
0000
0010
0000
0000
1000
0000
0000
,  // measure 55
0100
0000
0000
0000
0000
0000
0000
0000
0000
0000
0100
0000
0000
0010
0000
0000
,  // measure 56
0001
0000
0000
1000
0000
0000
0000
0000
0000
0000
0000
0000
0000
0000
0000
0000
,  // measure 57
1001
0000
0000
0101
0000
0000
0000
0000
0000
0000
0001
0000
0000
0100
0000
0000
,  // measure 58
1000
0000
0000
0100
0000
0000
0000
0000
0000
0000
0100
0000
0000
0010
0000
0000
,  // measure 59
1000
0000
0000
0001
0000
0000
0000
0000
0000
0000
0001
0000
0000
0010
0000
0000
,  // measure 60
0110
0000
0000
1100
0000
0000
0000
0000
0000
0000
1000
0000
0000
0100
0000
0000
,  // measure 61
0020
0000
0000
0000
0030
0000
0000
0000
0000
0000
0010
0000
0000
0100
0000
0000
,  // measure 62
1000
0000
0000
0001
0000
0000
0000
0000
0000
0000
0001
0000
0000
0100
0000
0000
,  // measure 63
0010
0000
0010
0000
0100
0000
0100
0000
0010
0000
1000
0000
,  // measure 64
0001
0000
0010
0000
0100
0000
1000
0000
0001
0000
0100
0000
,  // measure 65
0101
0000
0000
1010
0000
0000
0000
0000
0000
0000
1100
0000
0000
0100
0000
0000
,  // measure 66
0110
0000
0010
0000
0000
0001
0000
0000
0010
0000
0000
0100
0000
0000
0000
0000
;
