#TITLE:Kung-Fu Rider;
#SUBTITLE:;
#ARTIST:AstroKid;
#TITLETRANSLIT:;
#SUBTITLETRANSLIT:;
#ARTISTTRANSLIT:;
#CREDIT:;
#BANNER:bn.png;
#BACKGROUND:bg.png;
#LYRICSPATH:;
#CDTITLE:;
#MUSIC:16 AstroKid - Kung-Fu Rider.mp3;
#OFFSET:-0.225;
#SAMPLESTART:14.620;
#SAMPLELENGTH:11.980;
#SELECTABLE:YES;
#BPMS:0.000=133.000;
#STOPS:92.000=0.451
;
#BGCHANGES:;

//---------------dance-single - ----------------
#NOTES:
     dance-single:
     :
     Hard:
     7:
     0.390,0.422,0.104,0.114,0.128: // measure 1
0000
0000
0000
0000
,  // measure 2
0000
0000
0000
0000
,  // measure 3
0000
0000
0000
0000
,  // measure 4
0000
0000
0000
0000
,  // measure 5
1000
0001
1000
0001
,  // measure 6
0100
0010
0100
0010
,  // measure 7
1000
0010
0100
0001
,  // measure 8
1000
1000
0010
0100
0001
0001
0020
0030
,  // measure 9
0001
0100
1000
0100
,  // measure 10
0110
0010
1001
0001
,  // measure 11
1100
1000
0100
0001
,  // measure 12
0100
0000
0010
0001
0001
0000
1000
0000
,  // measure 13
0010
0100
0001
1000
,  // measure 14
0100
0001
1000
0010
,  // measure 15
0100
0001
1000
0010
,  // measure 16
0000
0100
0100
0100
0000
0000
0000
0000
,  // measure 17
0001
1000
0100
1000
0001
0010
0000
0001
,  // measure 18
0000
0100
0010
1000
0001
0100
1000
0100
,  // measure 19
0001
0010
0001
1000
0100
0020
0000
0002
,  // measure 20
0000
0000
0033
0000
,  // measure 21
0001
1000
0001
0010
0001
1000
0000
1000
,  // measure 22
0001
0010
0100
0010
0001
0100
1000
0100
,  // measure 23
0010
1000
0001
0010
0001
2000
0000
0002
,  // measure 24
3003
0220
0330
0010
,  // measure 25
1000
0000
0000
0000
0010
0000
0000
0000
0100
0000
0000
0000
0001
1000
0000
0001
,  // measure 26
1000
0000
0001
0000
1000
0001
0000
0001
1000
0000
0000
0000
0001
0000
0000
0000
,  // measure 27
1000
0000
0000
0000
0001
0000
0000
0000
0010
0000
0000
0000
0001
0000
0001
1000
,  // measure 28
0000
0000
0000
0000
1000
0000
0000
0000
0000
0000
0000
0000
0001
0000
0000
0000
0000
0000
1000
0000
0000
0001
0000
0000
0000
0000
0000
0000
0000
0000
1000
0000
0000
0000
0000
0000
0010
0000
0000
0000
0000
0000
0000
0000
0000
0000
0000
0000
,  // measure 29
1000
0000
0010
0100
0001
0000
0010
0000
,  // measure 30
0100
0000
0000
0000
1000
0000
0001
0000
0010
0000
0000
0000
0001
0100
0000
0001
,  // measure 31
0100
0000
0001
0000
0100
0001
0000
0001
0100
0000
0000
0000
0000
0000
0010
0000
,  // measure 32
1000
0000
0010
0000
0200
0000
0000
0000
0001
0000
0000
0000
0310
0000
0000
0010
,  // measure 33
0000
0000
0100
0000
0001
0000
0000
0001
0000
0000
1000
0000
0100
0000
0000
0100
,  // measure 34
0000
0000
1000
0000
0010
0000
0000
0010
0000
0000
0100
0000
0001
0000
0000
0001
,  // measure 35
0000
0000
0010
0000
0100
0000
0000
0100
0000
0000
0010
0000
0001
0000
0000
0001
,  // measure 36
0000
0000
1000
0000
0010
0000
0000
0010
0000
0000
0100
0000
0010
0000
0000
1000
,  // measure 37
0000
0000
0010
0000
0001
0000
0000
0010
0000
0000
0100
0000
0001
0000
0000
1000
,  // measure 38
0000
0000
0100
0000
1000
0000
0000
0010
0000
0000
0100
0000
0001
0000
0000
0010
,  // measure 39
0000
0000
0001
0000
1000
0000
0000
0010
0000
0000
0100
0000
0001
0000
0000
1000
,  // measure 40
0000
0000
0010
0000
1000
0000
0000
0001
0000
0000
0010
0000
0100
0000
1000
0000
,  // measure 41
0100
0001
0100
0010
0000
0001
0000
0010
,  // measure 42
0000
0100
0000
1000
0001
0100
0001
0100
,  // measure 43
1000
0100
0010
2000
0000
0002
0000
0000
,  // measure 44
0000
0000
3003
0000
0000
0000
0001
0100
,  // measure 45
0010
1000
0010
0100
0000
0100
0000
0001
,  // measure 46
0000
1000
0000
1000
0001
1000
0100
0010
,  // measure 47
0100
1000
0001
0200
0000
0020
0000
0000
,  // measure 48
0000
0330
0000
0001
,  // measure 49
1000
0100
1000
1010
,  // measure 50
1000
1100
0100
0110
,  // measure 51
0010
0001
1000
0001
,  // measure 52
1000
0000
0001
0000
0001
1000
0001
0000
,  // measure 53
0100
1000
0100
0110
,  // measure 54
0010
0110
0100
0110
,  // measure 55
0010
1000
0001
0011
,  // measure 56
0000
0000
0010
0100
1000
0001
1000
0000
;

//---------------dance-single - ----------------
#NOTES:
     dance-single:
     :
     Medium:
     5:
     0.303,0.343,0.085,0.256,0.000:
0000
0000
0000
0000
,
0000
0000
0000
0000
,
0000
0000
0000
0000
,
0000
0000
0000
0000
,
0001
1000
0001
1000
,
0010
0100
0010
0100
,
0001
1000
0001
1000
,
0001
0100
0010
1000
,
0001
0001
1000
0001
,
0100
1000
0100
1000
,
0100
0010
1000
0001
,
0010
0000
0001
0000
0100
0000
0010
1000
,
0010
1000
0001
0010
,
0001
0100
1000
0100
,
0001
0010
0001
0100
,
0010
0100
2002
3003
,
0001
0001
1000
0001
,
0100
0000
0100
0000
0010
0100
0010
0000
,
0100
0001
1000
0200
,
0020
0000
0330
0000
,
0010
1000
0010
0001
,
0100
0000
1000
0000
0100
0010
0100
0010
,
0100
0001
1000
0010
,
0202
0303
0000
0001
,
1000
0001
0100
0102
,
0013
2001
3100
0100
,
0010
0001
1000
2100
,
3010
0102
0013
0001
,
0100
0000
1000
0100
0010
0000
0100
0000
,
0010
0000
0100
0001
1000
0000
0102
0000
,
0013
2001
3100
0010
,
0100
1000
0001
2000
,
0000
0000
0000
0000
0000
3001
2000
0000
,
0000
0000
0000
0000
0000
3100
2000
0000
,
0000
0000
0000
0000
0000
3010
2000
0000
,
0000
3020
0000
0000
2030
0000
3002
0000
,
0000
0000
0000
0000
0000
0103
0002
0000
,
0000
0000
0000
0000
0000
1003
0002
0000
,
0000
0000
0000
0000
0000
0013
0002
0000
,
0000
0023
0000
0000
0230
0000
0310
0000
,
0001
1000
0010
0001
,
0010
0100
0010
1000
,
1000
0000
0001
0100
0000
0020
0000
0000
,
0000
0030
0000
0100
,
0010
1000
0001
0010
,
0001
0100
1000
0100
,
0010
0000
1000
0002
0000
2000
0000
0000
,
0000
3003
0000
0001
,
1000
0100
1000
0010
,
0001
0010
1000
0010
,
0100
0001
1000
0100
,
1000
0000
0010
0000
0100
0001
0010
0000
,
0001
1000
0100
1000
,
0010
0100
0010
1000
,
0001
0010
0001
0100
,
0000
0010
0100
1001
;

//---------------dance-single - ----------------
#NOTES:
     dance-single:
     :
     Easy:
     2:
     0.158,0.264,0.076,0.161,0.000:
0000
0000
0000
0000
,
0000
0000
0000
0000
,
0000
0000
0000
0000
,
0000
0000
0000
0000
,
0002
0000
0000
0003
,
2000
0000
0000
3000
,
0002
0000
0000
0003
,
2000
0000
0000
3000
,
0010
0000
0000
0000
,
0100
0000
0010
0000
,
1000
0000
0000
0000
,
0001
0000
1000
0010
,
0100
0000
0000
0000
,
0010
0000
1000
0000
,
0100
0000
0000
0000
,
0010
0001
0010
0001
,
1000
0000
0001
0000
,
0100
0000
0010
1000
,
0010
0000
0100
0000
,
0002
0000
1003
0000
,
0001
0000
1000
0000
,
0010
0100
0010
0100
,
0010
0000
1000
0000
,
1001
0000
0000
0001
,
0000
1000
0000
0110
,
0110
0110
0110
0010
,
0000
1000
0000
0202
,
0000
0000
0303
0001
,
0000
1000
0000
0010
,
0000
0100
0000
0101
,
0000
1010
0000
0010
,
0000
0100
0000
0002
,
0000
0000
0003
2000
,
0000
0000
3000
0020
,
0000
0000
0030
2000
,
0000
0000
3000
0020
,
0000
0000
0000
0230
,
0000
0000
0000
0320
,
0000
0000
0000
0230
,
0000
0000
0000
0310
,
0000
1000
0000
0001
,
0000
1000
0000
0100
,
0000
1000
0000
0010
,
0000
0100
0010
1000
,
0000
1000
0000
0001
,
0000
0010
0000
0001
,
0000
0100
0000
0010
,
0000
0200
0000
0310
,
0000
0000
0000
1000
,
0000
0100
0000
0010
,
0000
0000
0000
0010
,
0000
0001
0001
0100
,
0000
0000
0000
0010
,
0000
0100
0000
0001
,
0000
0000
0000
1000
,
0000
0002
0000
0003
;

//---------------dance-single - ----------------
#NOTES:
     dance-single:
     :
     Beginner:
     1:
     0.093,0.132,0.009,0.000,0.000:
0000
0000
0000
0000
,
0000
0000
0000
0000
,
0000
0000
0000
0000
,
0000
0000
0000
0000
,
0010
0000
0000
0000
,
0010
0000
0000
0000
,
0010
0000
0000
0000
,
0010
0000
0000
0000
,
1001
0000
0000
0000
,
0001
0000
0001
0000
,
0001
0000
0000
0000
,
1000
0000
1000
0000
,
0010
0000
0000
0000
,
0100
0000
0100
0000
,
0100
0000
0000
0000
,
0010
0000
1000
0000
,
0001
0000
0000
0000
,
1000
0000
0010
0000
,
1000
0000
0000
0000
,
0001
0000
0000
0000
,
0100
0000
0000
0000
,
0010
0000
0010
0000
,
0010
0000
0000
0000
,
1000
0000
0000
0001
,
0000
0000
0000
1000
,
0000
0000
0000
0010
,
0000
0000
0000
0100
,
0000
0000
0000
0001
,
0000
0000
0000
0001
,
0000
0000
0000
0100
,
0000
0100
0000
0100
,
0000
0000
0000
0010
,
0000
0000
0000
1000
,
0000
0000
0000
0001
,
0000
0000
0000
0100
,
0000
0000
0000
1000
,
0000
0000
0000
0001
,
0000
0000
0000
0010
,
0000
0000
0000
0001
,
0000
0000
0000
1000
,
0000
0000
0000
0010
,
0000
0100
0000
0010
,
0000
0000
0000
1000
,
0000
0001
0001
0001
,
0000
0000
0000
1000
,
0000
1000
0000
0100
,
0000
0000
0000
0010
,
0000
0000
0000
0001
,
0000
0000
0000
1000
,
0000
1000
0000
0001
,
0000
0000
0000
0010
,
0000
0100
0100
0100
,
0000
0000
0000
0010
,
0000
0001
0000
0010
,
0000
0000
0000
0100
,
0000
0000
0000
1000
;

//---------------dance-single - ----------------
#NOTES:
     dance-single:
     :
     Challenge:
     8:
     0.448,0.501,0.322,0.294,0.147: // measure 1
0000
0000
0000
0000
,  // measure 2
0000
0000
0000
0000
,  // measure 3
0000
0000
0000
0000
,  // measure 4
0000
0000
0000
0000
,  // measure 5
2200
0000
0000
3300
,  // measure 6
0202
0000
0000
0303
,  // measure 7
2002
0000
0000
3003
,  // measure 8
0002
0000
0203
0000
0320
0000
2030
0000
3100
0010
0100
0010
0000
0000
0000
0000
,  // measure 9
0010
0001
0010
0001
,  // measure 10
0101
0100
0110
0010
,  // measure 11
1010
1000
0010
0100
,  // measure 12
0110
0010
1001
1001
,  // measure 13
0110
0010
1000
0100
,  // measure 14
0110
0100
1100
0100
,  // measure 15
0110
0010
0001
0010
,  // measure 16
0110
0010
0001
0010
1000
0000
0010
0000
,  // measure 17
0001
0100
0010
1000
0001
0100
0000
0010
,  // measure 18
0000
0100
0010
1000
0010
0100
0100
0100
,  // measure 19
0010
1000
0001
0010
0100
2000
0000
0200
,  // measure 20
0000
0000
3300
0000
,  // measure 21
1000
0100
0001
0100
1000
0010
0000
0010
,  // measure 22
0001
0010
1000
0010
0100
0010
1000
0001
,  // measure 23
0010
0100
1000
0100
0010
0200
0000
2000
,  // measure 24
3300
0000
0000
0000
0202
0000
0000
0000
0303
0000
0000
0000
0001
0000
0000
1000
,  // measure 25
0010
0000
0100
0000
0001
0000
0010
0000
0100
0000
0010
0000
0001
0100
0000
0010
,  // measure 26
1000
0000
0100
0000
0010
0001
0000
0001
0200
0000
0000
0000
0310
0000
0000
0100
,  // measure 27
0001
0000
1000
0000
0100
0000
0010
0000
0001
0000
0010
0000
0001
0000
0001
1000
,  // measure 28
0000
0000
0000
0000
1010
0000
0000
0000
0000
0000
0000
0000
0011
0000
0000
0000
0000
0000
0010
0000
0000
0100
0000
0000
0000
0000
0000
0000
0000
0000
1000
0000
0000
0000
0000
0000
0010
0000
0000
0000
0000
0000
0000
0000
0000
0100
0000
0000
,  // measure 29
0010
0000
1000
0000
0001
0000
0010
0000
0001
0000
1000
0000
0010
0000
0000
0100
,  // measure 30
0001
0000
0010
0000
0100
0000
0010
0000
0001
0000
1000
0000
0010
0100
0000
0001
,  // measure 31
1000
0000
0100
0000
0010
0001
0000
0001
0100
0000
0000
0000
0000
0000
0001
0100
,  // measure 32
0010
0100
0001
1000
0200
0000
0000
0000
1300
0000
0000
0000
0200
0000
0000
0000
,  // measure 33
0000
0000
0000
0000
0000
0000
0000
0000
0000
0000
0310
0001
2000
0000
0000
0000
,  // measure 34
0000
0000
0000
0000
0000
0000
0000
0000
0000
0000
3010
0100
0002
0000
0000
0000
,  // measure 35
0000
0000
0000
0000
0000
0000
0000
0000
0000
0000
1003
0010
0200
0000
0000
0000
,  // measure 36
0000
0000
1000
0000
0000
0000
0000
0000
0320
0000
0000
0000
1030
0000
0000
0001
,  // measure 37
0000
0000
0010
0000
0100
0000
0000
0010
0000
0000
0001
0000
0010
0000
0000
0100
,  // measure 38
0000
0000
1000
0000
1100
0000
0000
0110
0000
0000
0011
0000
0010
0000
0000
0001
,  // measure 39
0000
0000
0100
0000
1000
0000
0000
0100
0000
0000
0010
0000
2000
0000
0000
0000
,  // measure 40
0000
0000
0002
3000
0000
0000
0000
0000
0023
0000
0000
0000
0031
0000
0100
0000
,  // measure 41
1000
0100
0010
1000
0000
0010
0000
1000
,  // measure 42
0000
0010
0000
0100
0010
1000
0010
0001
,  // measure 43
0010
1000
0100
0020
0000
0200
0000
0000
,  // measure 44
0330
0000
0110
0000
1001
0000
0110
0010
,  // measure 45
0001
0010
1000
0010
0000
0001
0000
0100
,  // measure 46
0000
1000
0000
0100
0010
1000
0010
1000
,  // measure 47
0001
0010
0100
2000
0000
0200
0000
0000
,  // measure 48
3300
0000
0000
1000
0001
1000
0002
0000
0000
0000
0000
0000
0000
0000
0000
0000
0000
0000
1003
0000
0000
0000
0000
0000
,  // measure 49
0100
1000
0100
0110
,  // measure 50
0010
1001
0010
0011
,  // measure 51
0010
0100
0010
0011
,  // measure 52
0001
0101
1100
1001
,  // measure 53
0001
1000
0010
0110
,  // measure 54
0010
1001
0010
0101
,  // measure 55
0001
0100
0010
1001
,  // measure 56
0000
0000
0001
0100
1000
0010
0001
0000
;
