#TITLE:K.O.A. Alice in Wonderworld;
#SUBTITLE:;
#ARTIST:Banya Production;
#TITLETRANSLIT:;
#SUBTITLETRANSLIT:;
#ARTISTTRANSLIT:;
#CREDIT:;
#BANNER:KOA Alice in Wonderworld-banner.png;
#BACKGROUND:KOA Alice in Wonderworld-bg.png;
#LYRICSPATH:;
#CDTITLE:;
#MUSIC:KOA Alice in Wonderworld.ogg;
#OFFSET:-0.104;
#SAMPLESTART:3.180;
#SAMPLELENGTH:12.000;
#SELECTABLE:YES;
#BPMS:0.000=156.000,188.000=78.000,192.000=156.000;
#STOPS:;
#BGCHANGES:0.000=movie 2.avi=1.000=0=0=1,
99999=-nosongbg-=1.000=0=0=0 // don't automatically add -songbackground-
;

//---------------dance-single - ----------------
#NOTES:
     dance-single:
     :
     Hard:
     7:
     0.459,0.555,0.229,0.398,0.000:
0000
0000
0000
0000
,
0000
0000
0000
0000
,
1000
0000
0010
0100
0001
0000
0001
0000
,
1000
0000
0001
0010
0100
0000
0100
0000
,
0010
0001
0100
1000
,
0100
0010
1000
0001
0010
0000
0010
0000
,
0100
0000
1000
0001
0000
1000
0000
0001
,
0000
1000
0000
0001
0000
1000
0000
0001
,
0010
0100
0010
0001
0100
1000
0100
0010
,
1000
0001
0010
0001
2000
0000
3100
0000
,
2000
0000
0100
3100
0000
0000
0000
0000
,
0000
0100
0000
0010
0001
0000
0100
0000
,
0020
0000
1000
1030
0000
0000
0000
0000
,
0100
0010
1000
0001
,
0020
0000
0100
0130
0000
0000
0000
0000
,
0000
0100
0000
0100
0010
0000
0001
0000
,
2000
0000
0010
3010
0000
0000
0000
0000
,
0100
0000
0010
0000
0100
0001
1000
0001
,
2000
0000
3200
0000
0310
0100
1000
0000
,
0020
0000
0230
0000
0301
1000
0100
0000
,
2100
3010
0102
0013
,
2001
0000
3001
0000
1002
1000
1003
0000
,
2000
3020
2030
3100
,
2000
3002
0023
0130
,
0010
0001
0100
0000
0100
1000
0100
0000
,
0100
0010
1000
0001
0010
0010
0001
0000
,
0101
0000
0110
0000
0010
1000
0001
0000
,
0010
0000
1001
0000
0001
0100
1000
0000
,
0100
0010
1000
0001
,
0001
0010
0100
1000
0100
0100
1000
0000
,
1100
0100
0110
0010
,
0011
0100
0110
0100
,
0110
0011
1010
1001
,
0001
0100
1000
0100
0020
0000
0000
0000
,
0030
0000
0000
0000
,
0100
0000
0010
0000
0000
1000
0000
0001
,
0000
0010
0000
0001
0010
0000
0100
0000
,
2000
0000
0000
0000
,
0200
0000
0000
3300
,
1000
0000
0010
0000
0100
1000
0100
0001
,
0000
0001
0010
0000
0100
0000
1000
0000
,
0100
0010
0001
1000
,
0220
0000
0000
0330
,
0010
0000
1000
0010
0200
0000
0320
0000
,
1030
0000
0010
0100
0002
0000
0023
0000
,
0130
1000
0100
0010
,
0001
0010
0100
1000
0200
0000
0000
0000
,
1300
0000
0000
0000
,
1001
0110
1001
0110
,
0101
1010
0202
0303
,
0001
0000
0100
0000
0010
0010
0100
0000
,
0010
0000
1000
0000
0001
0001
0001
0000
,
1000
0001
0100
1000
,
0100
0000
0010
0000
1000
0010
1000
0000
,
1000
0001
0010
0001
,
0100
1000
0100
0010
,
0200
0320
2030
3002
,
0023
0230
0020
0330
,
0010
0000
0001
0100
0000
1000
0000
0100
,
0000
0001
0000
0100
0000
1000
0000
0100
,
0010
1000
0010
0001
0010
1000
0100
0001
,
0100
1000
0100
1000
0020
0000
0200
0000
,
0330
0000
0000
0000
;

//---------------dance-single - ----------------
#NOTES:
     dance-single:
     :
     Challenge:
     9:
     0.628,0.802,0.388,0.448,0.219:
0000
0000
0000
0000
,
0000
0000
0000
0000
,
1001
0000
0000
0000
0000
0000
0010
0000
0100
0000
0000
0000
0001
0000
0000
0000
1000
0001
0000
0000
0000
0000
0000
0000
1000
0001
0000
0000
0000
0000
0000
0000
,
0001
0000
0000
0000
0000
0000
0001
0000
0100
0000
0000
0000
0010
0000
0000
0000
1000
0010
0000
0000
0000
0000
0000
0000
1000
0010
0000
0000
0000
0000
0000
0000
,
0200
0320
2030
3200
,
1300
0100
0001
0100
0020
0000
0032
0000
,
1003
0000
0001
0200
0000
2300
0000
3200
,
0000
0320
0000
2030
0000
3002
0000
0013
,
0001
0100
1000
0100
1000
0100
0010
0100
,
1000
0001
0010
0100
0020
0000
0130
0000
,
0110
0010
1001
0101
0000
0000
0000
0000
,
0000
0001
0000
0001
0100
0001
0010
0000
,
0110
0100
1100
1001
0000
0000
0000
0000
,
0010
0000
0100
0000
0010
0010
1000
0000
,
1010
0010
0110
1001
0000
0000
0000
0000
,
0001
0100
1000
0100
,
0110
0010
1010
0011
0000
0000
0000
0000
,
1001
0000
0000
0000
0110
0000
0000
0000
0001
0000
0100
0000
0010
1000
0001
1000
,
0100
0000
0000
0000
0000
0000
0000
0100
0010
0000
0000
0000
0000
0000
0000
0000
0010
0000
0000
0000
0001
0000
0100
0000
0001
0000
0000
0000
0100
0000
0010
0000
,
0100
0000
0000
0000
0000
0000
0000
0000
0010
0100
0000
0000
0000
0000
0000
0000
0010
0000
0000
0000
1000
0000
0001
0000
0100
0000
0000
0000
0010
0000
0000
0000
,
1000
0010
0001
0010
0100
1000
0100
0010
,
1000
0000
1000
0000
1000
0001
1000
0001
2000
0000
0000
0000
3200
0000
0000
0000
,
1300
0110
0021
0130
,
0011
0000
0000
0000
0101
0000
0010
0200
0000
0000
0310
0000
0100
0000
0001
0000
,
1000
0100
0001
0100
0010
0001
0010
0100
,
0010
0000
0010
0000
0100
1000
0001
0100
0020
0000
0000
0000
0000
0000
0030
0000
,
0110
0000
0101
0000
0001
1000
1001
0000
,
1100
0000
0110
0000
0010
0001
0011
0000
,
0001
0000
0100
0010
1000
0001
1000
0001
,
0010
0010
0001
0100
0010
0100
0010
0000
,
0110
0000
0011
0000
0001
0100
0101
0000
,
0110
0000
1010
0000
0100
1000
1100
0000
,
1001
0000
0101
0000
0001
0100
1000
0100
,
0010
0000
0010
0000
1000
0010
1000
0010
0200
0000
0000
0000
0000
0000
0000
0000
,
0300
0000
0000
0000
0000
0000
0000
0000
0010
0000
0000
0010
0000
0000
0010
0000
,
0100
0000
0010
0000
0010
1000
0001
1000
,
0000
0001
1000
0000
0001
0000
0100
0000
,
0010
0000
1000
0000
0000
0010
0000
0000
0100
0000
0000
0010
0000
0000
1000
0000
,
0001
0000
0000
1000
0000
0000
0100
0000
1000
0000
0000
0000
0110
0000
0000
0000
,
0010
0000
1000
0000
0010
0001
0010
0100
,
0000
0010
1000
0000
0001
0000
1000
0000
,
0001
1000
0000
1000
0001
0000
0001
0010
0000
0010
0100
0000
1000
0100
0010
0002
,
2000
0000
0000
0000
0000
0000
0000
3003
,
0001
0000
0000
0000
0000
0000
0001
0000
0010
0000
0000
0000
0100
0000
0000
0000
1000
0100
0000
0000
0000
0000
0000
0000
0100
1000
0000
0000
0000
0000
0000
0000
,
1000
0000
0000
0000
0000
0000
0010
0000
0100
0000
0000
0000
0001
0000
0000
0000
1000
0001
0000
0000
0000
0000
0000
0000
0001
1000
0000
0000
0000
0000
0000
0000
,
2000
3010
0200
0310
,
0100
0001
0010
0100
2000
0000
3002
0000
,
0103
0000
0000
0000
0000
0000
0001
0000
0100
0000
0000
0000
0010
0000
0000
0000
1000
0010
0000
0000
0000
0000
0000
0000
1000
0010
0000
0000
0000
0000
0000
0000
0100
0000
0000
0000
0000
0000
0010
0000
0100
0000
0000
0000
0001
0000
0000
0000
1000
0001
0000
0000
0000
0000
0000
0000
0001
1000
0000
0000
0000
0000
0000
0000
,
1020
0130
0102
0013
,
0011
0000
1100
0000
2002
0000
0000
3003
,
0001
0100
0010
0100
0001
0010
0100
0000
,
1000
0100
0010
0100
0010
0100
1000
0000
,
1000
0000
0001
0000
0001
0100
1000
0100
,
0010
1000
0001
0010
0100
0010
0100
0000
,
1000
1000
0100
0000
0010
0100
0010
0000
,
0100
0100
0010
0000
0010
0001
1000
0000
,
0002
0203
2300
3200
,
0320
2030
0200
3300
,
1000
0000
0100
0020
0000
0032
0000
0023
,
0000
0032
0000
0023
0000
2030
0000
3020
,
0031
0100
1000
0100
0010
1000
0001
0010
,
0001
1000
0010
1000
0200
0000
0020
0000
,
0330
0000
0000
0000
;

//---------------dance-single - ----------------
#NOTES:
     dance-single:
     :
     Medium:
     6:
     0.386,0.462,0.159,0.169,0.000:
0000
0000
0000
0000
,
0000
0000
0000
0000
,
0001
1000
0010
0010
,
1000
0001
0010
0010
,
0011
1100
0011
1100
,
0001
0010
0100
1000
0200
0000
0000
0000
,
1300
0000
0010
0100
0000
0100
0000
0100
,
0000
0100
0000
0100
0000
0100
0000
0100
,
0010
1000
0010
1000
,
1000
0100
0010
0001
0010
0000
0011
0000
,
0101
0000
0000
0010
0000
0000
0000
0000
,
0000
0100
0000
0100
0010
0000
1000
0000
,
1001
0000
0000
0010
0000
0000
0000
0000
,
0000
0100
0000
0100
0100
0000
0010
0000
,
1010
0000
0000
0100
0000
0000
0000
0000
,
0000
0100
0000
0010
1000
0000
0001
0000
,
0010
0000
0000
0011
0000
0000
0000
0000
,
0001
0000
0001
0000
0001
1000
0001
1000
,
0001
0000
0100
0000
0010
0100
0010
0000
,
0100
0000
0010
0000
1000
0001
0100
0000
,
0001
0000
0010
0000
0100
1000
0100
0000
,
1000
0000
0010
0100
0002
0000
0000
0000
,
1003
0001
0101
0001
,
1000
0010
0100
0110
,
0010
1000
0010
0000
0100
0010
0100
0000
,
0010
1000
0001
0010
0200
0000
0000
0000
,
1300
0000
0100
0000
0010
0001
0010
0000
,
0001
0000
0100
0000
1000
0100
0010
0000
,
0100
0010
0100
0010
,
1000
0000
0001
0000
1000
0001
1000
0000
,
0001
0000
0001
0000
1000
0001
1000
0000
,
0010
0000
0010
0000
0100
0010
0100
0000
,
0100
0001
0010
0100
,
0100
1000
0010
0100
0020
0000
0000
0000
,
0030
0000
0000
0000
,
0100
0010
1000
0010
,
0100
0001
0010
0100
,
2200
0000
0000
0000
,
0000
0000
0000
3300
,
1000
0010
0010
0100
,
0010
1000
0001
0010
,
0220
0000
0000
0000
,
0300
0000
0030
0000
,
0100
0000
0010
0001
0020
0000
0031
0000
,
0001
0000
0100
0010
0200
0000
0310
0000
,
0100
0010
1000
0001
,
1000
0001
1000
0001
2000
0000
0001
0000
,
3001
0000
0000
0000
,
0001
0100
1000
0100
,
0010
2000
0200
3300
,
1000
0000
0001
0000
0100
0001
0100
0000
,
0010
0000
1000
0000
0010
0100
0010
0000
,
0100
0010
1000
0001
,
0001
0010
0100
1000
0100
0010
0100
0000
,
0100
1000
0010
0100
,
0010
1000
0001
0010
,
0001
0001
1000
1000
,
1001
0110
2002
3003
,
0001
0000
0001
0100
0000
0010
0000
0100
,
0000
0010
0000
0100
0000
0010
0000
0100
,
0010
1000
0001
0010
,
0100
1000
0010
0100
0002
0000
0020
0000
,
0033
0000
0000
0000
;

//---------------dance-single - ----------------
#NOTES:
     dance-single:
     :
     Easy:
     3:
     0.263,0.308,0.020,0.090,0.000:
0000
0000
0000
0000
,
0000
0000
0000
0000
,
0001
1000
0010
0010
,
1000
0001
0010
0010
,
0001
0100
0010
1000
,
0010
0010
0200
0000
,
0310
0000
1000
0000
,
0001
0000
1000
0000
,
0001
1000
0010
0010
,
1000
0100
0010
0100
,
1100
0000
0000
0000
,
0010
0000
0001
0000
,
0100
0010
0100
0000
,
0010
0000
1000
0000
,
0001
0001
0001
0000
,
1000
0000
0010
0000
,
0100
0100
0100
0000
,
0010
1000
0020
0000
,
0130
0010
1000
1000
,
0010
0100
0010
0010
,
0100
0001
0010
0100
,
0010
0001
1000
0000
,
0001
1000
0010
0000
,
0100
0010
1000
0000
,
0100
0000
0010
0000
,
1000
0001
1000
0000
,
0001
0001
1000
0000
,
1000
1000
0010
0000
,
0100
0000
0010
0000
,
0100
0010
1000
1000
,
0001
0000
1000
0000
,
0100
0000
1000
0000
,
0010
0100
0010
1000
,
0001
0010
0200
0000
,
0300
0000
0000
0000
,
0100
0000
0010
0000
,
0001
0000
1000
0000
,
1001
0000
0000
0000
,
0010
0000
0000
0000
,
0100
0000
0010
0000
,
1000
1000
1000
0000
,
0001
0000
1000
0000
,
0200
0000
0000
0300
,
0010
0001
0010
0010
,
0001
0010
0100
0100
,
1000
0010
0100
0001
,
1000
0001
0020
0000
,
0030
0000
0000
0000
,
0001
1000
0010
1000
,
0100
0100
0200
0000
,
1300
0100
0010
0010
,
0100
1000
0010
0010
,
0100
0010
1000
0001
,
0010
0100
0010
0010
,
0001
0000
1000
0000
,
0010
0000
0100
0000
,
0010
1000
0010
0100
,
0001
0010
0200
0000
,
1300
0010
0100
0010
,
1000
0001
0010
0100
,
1000
1000
0001
0001
,
1000
0001
2000
0020
,
3030
0000
0000
0000
;

//---------------dance-single - ----------------
#NOTES:
     dance-single:
     :
     Beginner:
     1:
     0.122,0.215,0.020,0.000,0.000: // measure 1
0000
0000
0000
0000
,  // measure 2
0000
0000
0000
0000
,  // measure 3
1000
0000
0000
0000
,  // measure 4
0100
0000
0000
0000
,  // measure 5
1000
0000
0010
0000
,  // measure 6
0100
0100
0100
0000
,  // measure 7
0001
0000
0000
0000
,  // measure 8
0000
0000
0000
0000
,  // measure 9
1000
0000
1000
0000
,  // measure 10
0010
0010
0010
0000
,  // measure 11
0110
0000
0000
0000
,  // measure 12
0000
0000
0000
0000
,  // measure 13
0100
0000
0000
0000
,  // measure 14
1000
0000
1000
0000
,  // measure 15
1001
0000
0000
0000
,  // measure 16
0100
0000
0100
0000
,  // measure 17
0010
0000
0000
0000
,  // measure 18
1000
0000
0000
0000
,  // measure 19
0001
0000
0000
0000
,  // measure 20
0001
0000
0000
0000
,  // measure 21
0100
0000
0000
0000
,  // measure 22
0010
0100
0010
0000
,  // measure 23
1000
0000
0000
0000
,  // measure 24
1000
0000
0000
0000
,  // measure 25
1000
0000
0000
0000
,  // measure 26
0001
0001
0001
0000
,  // measure 27
0100
0000
0000
0000
,  // measure 28
0010
0000
0000
0000
,  // measure 29
0100
0000
0001
0000
,  // measure 30
1000
0000
0010
0010
,  // measure 31
0010
0100
0000
0000
,  // measure 32
0100
0100
0000
0000
,  // measure 33
0001
0000
1000
0000
,  // measure 34
0010
0010
0010
0000
,  // measure 35
0000
0000
0000
0000
,  // measure 36
0100
0000
0000
0000
,  // measure 37
0001
0000
0000
0000
,  // measure 38
1000
0000
0000
0000
,  // measure 39
0000
0000
0000
0000
,  // measure 40
0010
0000
0000
0000
,  // measure 41
0100
0000
0000
0000
,  // measure 42
0001
0000
0000
0000
,  // measure 43
0000
0000
0000
0000
,  // measure 44
1000
0000
0000
0000
,  // measure 45
0001
0000
0000
0000
,  // measure 46
0100
0000
0100
0000
,  // measure 47
0010
0010
0010
0000
,  // measure 48
0000
0000
0000
0000
,  // measure 49
1000
0000
1000
0000
,  // measure 50
0001
0001
0001
0000
,  // measure 51
0100
0000
0000
0000
,  // measure 52
0010
0000
0000
0000
,  // measure 53
1000
0000
0000
0000
,  // measure 54
0001
0000
0001
0000
,  // measure 55
0100
0000
0000
0000
,  // measure 56
0000
0000
0000
0000
,  // measure 57
0010
0000
0000
0000
,  // measure 58
0100
0000
0000
0000
,  // measure 59
0001
0000
0000
0000
,  // measure 60
1000
0000
0000
0000
,  // measure 61
0010
0000
1000
0000
,  // measure 62
0001
0001
0001
0010
;
