#TITLE:I'm Gonna Get You;
#SUBTITLE:;
#ARTIST:Bizarre Inc. Feat Angie Brown;
#TITLETRANSLIT:;
#SUBTITLETRANSLIT:;
#ARTISTTRANSLIT:;
#CREDIT:;
#BANNER:bn.png;
#BACKGROUND:bg.png;
#LYRICSPATH:;
#CDTITLE:;
#MUSIC:I'm Gonna Get You.mp3;
#OFFSET:-0.000;
#SAMPLESTART:75.600;
#SAMPLELENGTH:12.000;
#SELECTABLE:YES;
#BPMS:0.000=126.960;
#STOPS:;
#BGCHANGES:;

//---------------dance-single - ----------------
#NOTES:
     dance-single:
     :
     Hard:
     7:
     0.383,0.377,0.179,0.195,0.109: // measure 1
0000
0000
0000
0000
,  // measure 2
0000
0000
0000
0000
,  // measure 3
0000
0000
0000
0000
,  // measure 4
0000
0000
0000
0000
,  // measure 5
0001
1000
0100
1000
,  // measure 6
0001
1000
0001
0010
,  // measure 7
0001
1000
0001
0010
,  // measure 8
0100
0010
0001
0010
0100
0001
1000
0010
,  // measure 9
0100
0000
0000
0100
0000
0000
0010
0000
0000
1000
0000
0000
0100
0000
0000
0000
,  // measure 10
1000
0000
0000
0001
0000
0000
0100
0000
0000
0001
0000
0000
0010
0000
0000
0000
,  // measure 11
0010
0000
0000
0100
0000
0000
1000
0000
0000
0100
0000
0000
0010
0000
0000
0000
,  // measure 12
0100
0000
0000
1000
0000
0000
0010
0000
0000
1000
0000
0000
0001
0000
0000
0000
,  // measure 13
0100
0000
0000
0001
0000
0000
0010
0000
0000
0100
0000
0000
1000
0000
0000
0000
,  // measure 14
0001
0000
0000
0100
0000
0000
0010
0000
0000
0100
0000
0000
0001
0000
0000
0000
,  // measure 15
0010
0000
0000
0100
0000
0000
1000
0000
0000
0100
0000
0000
0010
0000
0000
0000
,  // measure 16
0100
0010
0001
1000
0010
1000
0001
0010
,  // measure 17
0100
0010
0000
0001
,  // measure 18
0000
1000
0000
0010
,  // measure 19
0000
0100
0000
0010
,  // measure 20
0000
1000
0000
0001
,  // measure 21
0010
0001
0010
0001
,  // measure 22
1000
0001
1000
0001
,  // measure 23
1000
0100
1000
0100
,  // measure 24
1000
0100
0010
0100
1000
0010
0100
0001
,  // measure 25
0101
0000
0001
0100
0010
0000
0110
0000
,  // measure 26
0200
1000
0301
1001
,  // measure 27
0020
0001
1030
1001
,  // measure 28
0200
1000
0301
1001
,  // measure 29
0100
0000
0010
0010
0010
0000
0000
0000
,  // measure 30
2000
0001
3100
1001
,  // measure 31
0002
0100
1003
1001
,  // measure 32
2000
0001
3100
1001
,  // measure 33
2001
0000
0010
0010
3010
0000
0000
1000
,  // measure 34
0001
0000
0000
0001
0000
0000
1000
0000
1010
0000
0000
0000
0000
0000
1000
0000
,  // measure 35
0010
0000
0000
0100
0000
0000
0001
0000
0011
0000
0000
0000
0000
0000
0010
0000
,  // measure 36
0100
0000
0000
1000
0000
0000
0010
0000
0101
0000
0000
0000
0000
0000
0000
0000
,  // measure 37
0021
0000
0100
0100
0130
0000
0000
0100
,  // measure 38
0010
0000
0000
0001
0000
0000
0100
0000
0110
0000
0000
0000
0000
0000
0100
0000
,  // measure 39
0010
0000
0000
1000
0000
0000
0100
0000
0110
0000
0000
0000
0000
0000
0100
0000
,  // measure 40
1000
0000
0000
0001
0000
0000
1000
0000
0001
0000
0000
0000
0000
0000
0000
0000
,  // measure 41
2000
3200
0310
0110
,  // measure 42
0010
0001
0010
1000
0010
0001
0100
0000
,  // measure 43
0002
0203
0310
0110
,  // measure 44
0010
1000
0010
0001
0010
0100
0010
0000
,  // measure 45
0200
0320
1030
1100
,  // measure 46
1000
0100
0010
0001
1000
0100
0010
0000
,  // measure 47
0020
0230
1300
1001
,  // measure 48
0001
0010
0100
0010
0001
1000
0100
0000
,  // measure 49
2000
3002
0103
0101
,  // measure 50
0001
0100
0010
1000
0100
0010
0001
0000
,  // measure 51
0002
2003
3100
0011
,  // measure 52
0010
0100
0010
0001
1000
0001
0010
0000
,  // measure 53
0020
0032
0103
0101
,  // measure 54
0001
0100
0001
0010
0100
0010
0001
0000
,  // measure 55
0002
2003
3010
0110
,  // measure 56
0010
1000
0100
1000
0001
0010
0100
0000
,  // measure 57
0010
0000
0000
0010
0000
0000
0010
0000
0001
0000
0010
0000
0000
0000
0000
0000
,  // measure 58
0100
0000
0000
0100
0000
0000
0100
0000
1000
0000
0010
0000
0100
0000
0000
0000
,  // measure 59
0010
0000
0000
0010
0000
0000
0010
0000
1000
0000
0010
0000
0000
0000
0000
0000
,  // measure 60
0100
0000
0000
0100
0000
0000
0100
0000
0010
0000
1000
0000
0100
0000
0000
0000
,  // measure 61
1000
0000
0000
0010
0000
0000
0100
0000
0001
0000
0100
0000
0000
0000
0000
0000
,  // measure 62
0010
0000
0000
1000
0000
0000
0001
0000
0100
0000
0001
0000
0010
0000
0000
0000
,  // measure 63
0100
0000
0000
0100
0000
0000
0100
0000
0010
0000
0001
0000
0000
0000
0000
0000
,  // measure 64
0001
0000
0000
0100
0000
0000
0010
0000
1000
0000
0001
0000
1000
0000
0000
0000
,  // measure 65
0200
0000
0300
0000
;

//---------------dance-single - ----------------
#NOTES:
     dance-single:
     :
     Medium:
     5:
     0.316,0.349,0.468,0.000,0.000: // measure 1
0000
0000
0000
0000
,  // measure 2
0000
0000
0000
0000
,  // measure 3
0000
0000
0000
0000
,  // measure 4
0000
0000
0000
0000
,  // measure 5
0001
1000
0001
1000
,  // measure 6
0010
0100
0010
0100
,  // measure 7
0001
1000
0100
1000
,  // measure 8
0100
0100
0010
0010
,  // measure 9
0011
0001
0100
1000
,  // measure 10
1100
0100
0010
1000
,  // measure 11
1001
0001
0010
0100
,  // measure 12
0110
0010
0001
1000
,  // measure 13
0110
0010
0001
0100
,  // measure 14
0101
0001
0100
1000
,  // measure 15
1100
0100
0010
1000
,  // measure 16
1001
0001
1001
1000
,  // measure 17
0001
0000
0000
0000
,  // measure 18
0100
0000
0000
0000
,  // measure 19
0010
0000
0000
0000
,  // measure 20
1000
0000
0000
0000
,  // measure 21
1000
0001
1000
0001
,  // measure 22
0100
0010
0100
0010
,  // measure 23
1000
0001
1000
0001
,  // measure 24
0100
0000
0000
0000
,  // measure 25
0110
1001
0110
0000
,  // measure 26
1001
0110
1001
0000
,  // measure 27
1001
0110
1001
0000
,  // measure 28
1001
0110
1001
0000
,  // measure 29
0011
1100
0011
0000
,  // measure 30
0011
1100
0011
0000
,  // measure 31
1100
0011
1100
0000
,  // measure 32
0011
1100
0011
0000
,  // measure 33
0101
1010
0101
0000
,  // measure 34
0101
1010
1010
0000
,  // measure 35
1010
0101
0101
0000
,  // measure 36
0101
1010
1010
0000
,  // measure 37
0110
1001
0110
0000
,  // measure 38
0110
1001
1001
0000
,  // measure 39
0110
1001
1001
0000
,  // measure 40
0110
0000
0000
0000
,  // measure 41
0010
0001
0100
0010
,  // measure 42
1000
0010
1000
0000
0010
1000
0010
0000
,  // measure 43
0100
0010
1000
0001
,  // measure 44
0010
0100
0010
0000
0100
0010
0100
0000
,  // measure 45
0010
0001
1000
0100
,  // measure 46
0010
0100
0010
0000
0100
0010
0100
0000
,  // measure 47
0010
0001
0100
1000
,  // measure 48
0100
0010
0100
0000
0010
0100
0010
0000
,  // measure 49
0100
0001
1000
0100
,  // measure 50
0010
0001
0010
0000
0001
0100
0010
0000
,  // measure 51
0100
0010
1000
0001
,  // measure 52
1000
0001
0100
0000
0001
0100
0010
0000
,  // measure 53
0100
0010
1000
0001
,  // measure 54
0010
0100
1000
0000
0100
1000
0010
0000
,  // measure 55
0100
0010
1000
0001
,  // measure 56
0010
0010
0010
0000
0100
0100
0100
0000
,  // measure 57
0110
0010
0110
0000
,  // measure 58
1001
0000
0001
0000
1000
1000
1000
0000
,  // measure 59
1001
0001
0100
0000
,  // measure 60
1001
0000
0010
0000
0100
0100
0100
0000
,  // measure 61
0010
0010
0001
0000
,  // measure 62
0001
0000
0100
0000
0010
0010
0010
0000
,  // measure 63
0100
0010
1000
0000
,  // measure 64
1000
0000
0001
0000
0010
0010
0010
0000
,  // measure 65
0100
0000
0000
0000
;

//---------------dance-single - ----------------
#NOTES:
     dance-single:
     :
     Easy:
     3:
     0.176,0.224,0.008,0.000,0.000: // measure 1
0000
0000
0000
0000
,  // measure 2
0000
0000
0000
0000
,  // measure 3
0000
0000
0000
0000
,  // measure 4
0000
0000
0000
0000
,  // measure 5
1000
0001
1000
0001
,  // measure 6
0100
0010
0100
0010
,  // measure 7
1000
0010
1000
0010
,  // measure 8
1010
0000
0000
0000
,  // measure 9
1000
0000
0000
0001
,  // measure 10
0001
0000
0000
0010
,  // measure 11
0100
0000
0000
0010
,  // measure 12
0001
0000
0000
1000
,  // measure 13
0010
0000
0000
0100
,  // measure 14
0010
0000
0000
0100
,  // measure 15
0001
0000
0000
1000
,  // measure 16
0100
0000
0000
0000
,  // measure 17
1000
0000
0000
0000
,  // measure 18
1000
0000
0000
0000
,  // measure 19
1000
0000
0000
0000
,  // measure 20
1000
0000
0000
0000
,  // measure 21
0001
0000
0000
0000
,  // measure 22
0001
0000
0000
0000
,  // measure 23
0001
0000
0000
0000
,  // measure 24
0000
0000
0000
0000
,  // measure 25
0010
0010
0010
0000
,  // measure 26
0100
0100
0100
0000
,  // measure 27
0100
0100
0100
0000
,  // measure 28
0100
0100
0100
0000
,  // measure 29
0001
0001
0001
0000
,  // measure 30
1000
1000
1000
0000
,  // measure 31
1000
1000
1000
0000
,  // measure 32
1000
1000
1000
0000
,  // measure 33
0010
0010
0010
0000
,  // measure 34
0100
0001
0010
0000
,  // measure 35
0010
0001
0100
0000
,  // measure 36
0100
0001
0010
0000
,  // measure 37
0100
0100
0100
0000
,  // measure 38
0100
1000
0010
0000
,  // measure 39
0010
1000
0100
0000
,  // measure 40
0010
0000
0000
0000
,  // measure 41
0001
0000
1000
0000
,  // measure 42
0001
1000
0001
1000
,  // measure 43
0010
0000
0100
0000
,  // measure 44
0010
0100
0010
0100
,  // measure 45
0001
0000
0100
0000
,  // measure 46
0001
0100
0001
0100
,  // measure 47
0010
0000
1000
0000
,  // measure 48
0010
1000
0010
1000
,  // measure 49
0100
0000
0010
0000
,  // measure 50
0100
0010
0100
0010
,  // measure 51
0001
0000
0100
0000
,  // measure 52
0001
0100
0001
0100
,  // measure 53
0010
0000
1000
0000
,  // measure 54
0010
1000
0010
1000
,  // measure 55
0100
0000
1000
0000
,  // measure 56
0100
0100
0100
0100
,  // measure 57
0010
0010
0010
0000
,  // measure 58
0001
0001
0001
0001
,  // measure 59
1000
1000
1000
0000
,  // measure 60
0010
0010
0100
0100
,  // measure 61
0010
0010
1000
0000
,  // measure 62
1000
1000
0001
0001
,  // measure 63
0100
0010
1000
0000
,  // measure 64
1000
0001
0010
0010
;

//---------------dance-single - ----------------
#NOTES:
     dance-single:
     :
     Beginner:
     1:
     0.081,0.100,0.031,0.000,0.000: // measure 1
0000
0000
0000
0000
,  // measure 2
0000
0000
0000
0000
,  // measure 3
0000
0000
0000
0000
,  // measure 4
0000
0000
0000
0000
,  // measure 5
1000
0000
0000
0000
,  // measure 6
1000
0000
0000
0000
,  // measure 7
0001
0000
0000
0000
,  // measure 8
0001
0000
0000
0000
,  // measure 9
0100
0000
0000
0000
,  // measure 10
0100
0000
0000
0000
,  // measure 11
0100
0000
0000
0000
,  // measure 12
0100
0000
0000
0000
,  // measure 13
0010
0000
0000
0000
,  // measure 14
0010
0000
0000
0000
,  // measure 15
0010
0000
0000
0000
,  // measure 16
0010
0000
0000
0000
,  // measure 17
0000
1000
0000
0000
,  // measure 18
0000
0001
0000
0000
,  // measure 19
0000
0100
0000
0000
,  // measure 20
0000
0010
0000
0000
,  // measure 21
0100
0000
0000
0000
,  // measure 22
0010
0000
0000
0000
,  // measure 23
1000
0000
0000
0000
,  // measure 24
0001
0000
0000
0000
,  // measure 25
1001
0000
0000
0000
,  // measure 26
0100
0000
0000
0000
,  // measure 27
0100
0000
0000
0000
,  // measure 28
0100
0000
0000
0000
,  // measure 29
1001
0000
0000
0000
,  // measure 30
0010
0000
0000
0000
,  // measure 31
0010
0000
0000
0000
,  // measure 32
0010
0000
0000
0000
,  // measure 33
0110
0000
0000
0000
,  // measure 34
0001
0000
0000
0000
,  // measure 35
0001
0000
0000
0000
,  // measure 36
0001
0000
0000
0000
,  // measure 37
0110
0000
0000
0000
,  // measure 38
1000
0000
0000
0000
,  // measure 39
1000
0000
0000
0000
,  // measure 40
1000
0000
0000
0000
,  // measure 41
0001
0000
0000
0000
,  // measure 42
1000
0000
1000
0000
,  // measure 43
1000
0000
0000
0000
,  // measure 44
0010
0000
0010
0000
,  // measure 45
0010
0000
0000
0000
,  // measure 46
0100
0000
0100
0000
,  // measure 47
0100
0000
0000
0000
,  // measure 48
0001
0000
0001
0000
,  // measure 49
0001
0000
0000
0000
,  // measure 50
1000
0000
1000
0000
,  // measure 51
1000
0000
0000
0000
,  // measure 52
0010
0000
0010
0000
,  // measure 53
0010
0000
0000
0000
,  // measure 54
0100
0000
0100
0000
,  // measure 55
0100
0000
0000
0000
,  // measure 56
0001
0000
0001
0000
,  // measure 57
0001
0000
0000
0000
,  // measure 58
1000
0000
0000
0000
,  // measure 59
0010
0000
0000
0000
,  // measure 60
0100
0000
0000
0000
,  // measure 61
0001
0000
0000
0000
,  // measure 62
1000
0000
0000
0000
,  // measure 63
0100
0000
0000
0000
,  // measure 64
1000
0000
0000
0000
,  // measure 65
0001
0000
0000
0000
;
