#TITLE:Heart of Asia;
#SUBTITLE:;
#ARTIST:WATERGATE;
#TITLETRANSLIT:;
#SUBTITLETRANSLIT:;
#ARTISTTRANSLIT:;
#GENRE:J TRANCE;
#CREDIT:;
#BANNER:bn.png;
#BACKGROUND:bg.png;
#LYRICSPATH:;
#CDTITLE:;
#MUSIC:Heart of Asia.mp3;
#OFFSET:0.125;
#SAMPLESTART:64.660;
#SAMPLELENGTH:12.000;
#SELECTABLE:YES;
#BPMS:0.000=136.960
;
#STOPS:;
#BGCHANGES:;
#KEYSOUNDS:;
#ATTACKS:;

//---------------dance-single - ----------------
#NOTES:
     dance-single:
     :
     Hard:
     6:
     0.299,0.334,0.018,0.072,0.000,224.000,2.000,8.000,0.000,0.000,0.000,0.299,0.334,0.018,0.072,0.000,224.000,2.000,8.000,0.000,0.000,0.000:
0000
0000
0000
0000
,
0000
0000
0000
0000
,
0000
0000
0000
0000
,
0000
0000
0000
0000
,
0000
0000
0000
0000
,
1000
0001
0100
0100
,
0010
1000
0100
0100
,
0010
0001
0100
0100
,
0010
1000
0001
0001
,
1000
0100
0001
0100
,
1000
0010
0001
0010
,
0100
0001
0010
0100
,
1000
0000
0000
0000
,
0001
0000
1000
0000
0100
1000
0100
0000
,
1000
0000
0010
0000
0100
0010
0100
0000
,
0010
0000
1000
0000
0001
0010
0001
0000
,
0100
0000
0010
0000
1000
0100
1000
0000
,
0010
0000
0010
0000
0100
0010
1000
0000
,
0001
0000
0001
0000
1000
0010
0100
0000
,
0010
0000
0010
0000
0100
0001
0010
0000
,
0100
0000
0100
0000
0100
1000
0020
0000
,
0200
0000
0000
0000
,
0000
0000
0000
0000
,
0000
0000
0000
0000
,
0330
0000
0000
2000
,
3002
0000
0000
0000
,
1000
0000
0000
0000
,
0010
0000
0000
0000
,
1003
0000
0000
0001
0020
0000
1000
0000
,
0031
0001
0001
0000
,
0000
1000
0010
0100
,
0001
0001
0001
0000
,
0000
1000
0001
0100
,
0001
0001
0001
0000
,
0000
0001
1000
0100
,
1000
1000
1000
0000
,
1000
0100
0010
0001
,
0001
0100
1000
0100
0010
0000
0000
0000
,
0000
0000
0100
0010
1000
0001
0010
0000
,
0010
0001
0100
0001
1000
0000
0000
0000
,
0000
0000
0001
0000
1000
0010
0100
0000
,
0010
1000
0010
0100
0001
0000
0000
0000
,
0000
0000
0001
0100
1000
0100
0010
0000
,
0010
1000
0100
0010
0001
0000
0000
0000
,
0000
0000
1000
0000
0001
0010
0100
0000
,
1000
0100
0001
0100
1000
0000
0000
0000
,
0000
0000
1000
0010
0001
0010
0100
0000
,
0100
0001
0100
1000
0100
0000
0000
0000
,
0000
0000
0010
0000
0100
0001
1000
0000
,
1000
0010
0001
0010
0001
0000
0000
0000
,
0000
0000
0001
0100
1000
0100
0010
0000
,
0100
0010
1000
0001
0100
0000
0000
0000
,
0000
0000
0001
0000
1000
0010
0200
0000
,
0310
1000
0001
0010
0100
0000
0010
0000
,
0001
0000
0100
1000
0100
0010
1000
0000
,
1000
0001
0010
1000
0010
0000
0001
0000
,
0100
0000
0110
0000
0010
0010
1000
0000
,
1000
0100
0001
0100
0010
0000
0100
0000
,
1000
0000
1000
0010
0001
0010
0100
0000
,
0010
1000
0100
0010
0001
0000
0000
0000
,
0001
0100
0010
1000
,
2002
0000
0000
0000
,
3000
0003
0000
0000
;

//---------------dance-single - ----------------
#NOTES:
     dance-single:
     :
     Medium:
     4:
     0.235,0.251,0.027,0.116,0.000,168.000,3.000,13.000,0.000,0.000,0.000,0.235,0.251,0.027,0.116,0.000,168.000,3.000,13.000,0.000,0.000,0.000:
0000
0000
0000
0000
,
0000
0000
0000
0000
,
0000
0000
0000
0000
,
0000
0000
0000
0000
,
0000
0000
0000
0000
,
1000
0000
0001
0000
,
1000
0001
0100
0010
,
1000
0000
0010
0000
,
0100
0001
0010
0100
,
0000
1000
0000
1000
0000
1000
0000
1000
,
0000
0001
0000
0001
0000
0001
0000
0001
,
0000
0100
0000
0100
0000
0100
0000
0000
,
0220
0000
0000
0330
,
0010
1000
0001
0010
,
0001
0100
0010
1000
,
0001
0010
0001
0100
,
0010
0000
1000
0000
0100
0000
0010
0001
,
0100
0001
0100
0010
,
1000
0001
1000
0100
,
1000
0010
0100
0001
,
0010
0100
1000
0010
,
0202
0000
0000
0000
,
0000
0000
0000
0000
,
0303
0000
0000
0000
,
0000
0000
0000
0020
,
2000
0000
0000
0000
,
0000
0000
0000
0000
,
3030
0000
0000
0000
,
1000
0000
0000
0010
0200
0000
0301
0000
,
1000
1000
1000
0000
,
0000
0001
0100
0010
,
1000
1000
1000
0000
,
0000
1000
0100
0010
,
0100
0100
0100
0000
,
0000
1000
0010
0100
,
0001
0001
0001
0000
,
0000
0000
0000
0000
,
0001
1000
0100
0000
,
0000
1000
0010
0100
,
0010
1000
0001
0000
,
0000
0000
1000
0000
0001
0100
0001
0000
,
0100
0010
1000
0000
,
0000
0010
0100
0001
,
1000
0100
0010
0000
,
0000
0000
0100
0000
1000
0100
1000
0000
,
0100
0010
0002
0000
,
0003
0001
0100
0010
,
1000
0100
2000
0000
,
3000
0000
0100
0000
0100
1000
0010
0000
,
0100
0010
2000
0000
,
3000
0001
1000
0010
,
0100
0001
0020
0000
,
0030
0000
0001
0000
1000
0001
0010
0000
,
0100
0000
0010
0001
0010
0000
0000
0000
,
0000
0000
0100
0010
0100
0000
0010
0000
,
0001
0000
1000
0001
1000
0000
0000
0000
,
0000
0000
0001
0000
1000
0001
0100
0000
,
0010
0000
1000
0010
1000
0000
0000
0000
,
0000
0010
0100
0001
,
1000
0001
0010
0000
,
0100
1000
0010
0100
,
0202
0000
0000
0000
,
0300
0003
0000
0000
;

//---------------dance-single - ----------------
#NOTES:
     dance-single:
     :
     Easy:
     3:
     0.171,0.167,0.009,0.072,0.000,125.000,1.000,8.000,0.000,0.000,0.000,0.171,0.167,0.009,0.072,0.000,125.000,1.000,8.000,0.000,0.000,0.000:
0000
0000
0000
0000
,
0000
0000
0000
0000
,
0000
0000
0000
0000
,
0000
0000
0000
0000
,
0000
0000
0000
0000
,
1000
0000
0001
0000
,
1000
0000
0001
0000
,
1000
0000
0001
0000
,
1000
0000
0001
0000
,
0100
0000
0010
0000
,
0100
0000
0010
0000
,
0100
0000
0010
0000
,
0100
0000
0000
0000
,
0001
0000
1000
1000
,
0100
0000
0010
0100
,
0010
0000
0100
1000
,
0100
0000
1000
0001
,
1000
0000
0001
0100
,
0001
0000
0100
0010
,
0100
0000
0010
1000
,
0010
0000
1000
0010
,
0200
0000
0000
0000
,
0000
0000
0000
0000
,
0300
0000
0000
0000
,
0000
0000
0000
1000
,
0002
0000
0000
0000
,
0000
0000
0000
0000
,
0000
0000
0000
0000
,
0003
0000
0000
0000
,
1000
1000
1000
0000
,
0000
0001
0001
0001
,
1000
1000
1000
0000
,
0000
0001
0100
0010
,
0100
0100
0100
0000
,
0000
0010
0010
0010
,
0100
0100
0100
0000
,
0110
0000
0000
0000
,
1000
0001
0100
0000
,
0000
0001
1000
0100
,
0010
0100
1000
0000
,
0000
1000
0010
0100
,
0001
0001
1000
0000
,
0000
0010
0010
0100
,
0010
1000
0001
0000
,
0000
0001
1000
0100
,
0010
0010
0100
0000
,
0000
0010
0001
0100
,
1000
0100
0010
0000
,
0000
0100
0010
1000
,
0001
0001
0001
0000
,
0000
1000
1000
1000
,
0010
0100
0001
0000
,
0000
1000
0001
0010
,
0200
0000
0000
0000
,
0000
0000
0000
0000
,
2300
0000
0000
0000
,
0000
3100
1000
0010
,
0200
0000
0000
0000
,
0000
0000
0000
0000
,
0320
0000
2030
0000
,
3001
1000
0001
0100
,
0020
0000
0000
0000
,
0000
0030
0000
0000
;

//---------------dance-single - ----------------
#NOTES:
     dance-single:
     :
     Beginner:
     1:
     0.073,0.137,0.018,0.036,0.000,51.000,2.000,4.000,0.000,0.000,0.000,0.073,0.137,0.018,0.036,0.000,51.000,2.000,4.000,0.000,0.000,0.000: // measure 0
0000
0000
0000
0000
,  // measure 1
0000
0000
0000
0000
,  // measure 2
0000
0000
0000
0000
,  // measure 3
0000
0000
0000
0000
,  // measure 4
0000
0000
0000
0000
,  // measure 5
1000
0000
0000
0000
,  // measure 6
0000
0000
0000
0000
,  // measure 7
0000
0000
0000
0000
,  // measure 8
0000
0000
0000
0000
,  // measure 9
0001
0000
0000
0000
,  // measure 10
1000
0000
0000
0000
,  // measure 11
0010
0000
0000
0000
,  // measure 12
0100
0000
0000
0000
,  // measure 13
0010
0000
0000
0000
,  // measure 14
1000
0000
0000
0000
,  // measure 15
0100
0000
0000
0000
,  // measure 16
1000
0000
0000
0000
,  // measure 17
0001
0000
0000
0000
,  // measure 18
0001
0000
0000
0000
,  // measure 19
1000
0000
0000
0000
,  // measure 20
0010
0000
0000
0100
,  // measure 21
0200
0000
0000
0000
,  // measure 22
0000
0000
0000
0000
,  // measure 23
0000
0000
0000
0000
,  // measure 24
0300
0000
0000
0010
,  // measure 25
0020
0000
0000
0000
,  // measure 26
0000
0000
0000
0000
,  // measure 27
0000
0000
0000
0030
,  // measure 28
0000
0000
0000
0000
,  // measure 29
0100
0000
0000
0000
,  // measure 30
0000
0000
0000
0000
,  // measure 31
0010
0000
0000
0000
,  // measure 32
0000
0000
0000
0000
,  // measure 33
1000
0000
0000
0000
,  // measure 34
0000
0000
0000
0000
,  // measure 35
0001
0000
0000
0000
,  // measure 36
1000
0000
0001
0000
,  // measure 37
0110
0000
0000
0000
,  // measure 38
0000
0000
0010
0000
,  // measure 39
1000
0000
0000
0000
,  // measure 40
0000
0001
0001
0001
,  // measure 41
1000
0000
0000
0000
,  // measure 42
0000
0000
0100
0000
,  // measure 43
0010
0000
0000
0000
,  // measure 44
0000
0000
0000
0000
,  // measure 45
1000
0000
0000
0000
,  // measure 46
0000
0000
0001
0000
,  // measure 47
0100
0000
0000
0000
,  // measure 48
0000
0010
0010
0010
,  // measure 49
0100
0000
0000
0000
,  // measure 50
0000
0000
0010
0000
,  // measure 51
1000
1000
1000
0000
,  // measure 52
0000
0001
0000
1000
,  // measure 53
2000
0000
0000
0000
,  // measure 54
0000
0000
0000
0000
,  // measure 55
0000
0000
0000
3000
,  // measure 56
0000
1000
0001
0100
,  // measure 57
0020
0000
0000
0000
,  // measure 58
0000
0000
0000
0000
,  // measure 59
0000
0000
0000
0030
,  // measure 60
0000
0000
0000
0000
,  // measure 61
1001
0000
0000
0000
;
