#TITLE:Heart Of Asia;
#SUBTITLE:(Orbit1 Remix);
#ARTIST:WATERGATE;
#TITLETRANSLIT:;
#SUBTITLETRANSLIT:;
#ARTISTTRANSLIT:;
#GENRE:;
#CREDIT:;
#BANNER:bn.png;
#BACKGROUND:bg.png;
#LYRICSPATH:;
#CDTITLE:;
#MUSIC:Heart Of Asia (Orbit1 Remix).mp3;
#OFFSET:-0.034;
#SAMPLESTART:64.700;
#SAMPLELENGTH:12.000;
#SELECTABLE:YES;
#BPMS:0.000=177.080
,64.000=88.540
,96.000=177.080
;
#STOPS:156.000=0.169,
156.500=0.169,
157.000=0.169,
157.500=0.169,
282.000=0.169,
282.500=0.169,
283.000=0.169,
283.500=0.169
;
#BGCHANGES:;
#KEYSOUNDS:;
#ATTACKS:;

//---------------dance-single - ----------------
#NOTES:
     dance-single:
     :
     Challenge:
     9:
     0.502,0.687,0.037,0.102,0.166,366.000,4.000,11.000,0.000,0.000,0.000,0.502,0.687,0.037,0.102,0.166,366.000,4.000,11.000,0.000,0.000,0.000: // measure 0
0000
0000
0000
0000
,  // measure 1
0000
0000
0000
0000
,  // measure 2
0000
0000
0000
0000
,  // measure 3
0000
0000
0000
0000
,  // measure 4
0000
0000
0000
0000
,  // measure 5
0000
0000
0000
0000
,  // measure 6
0000
0000
0000
0000
,  // measure 7
0000
0000
0000
0000
,  // measure 8
0001
0100
0000
0010
0000
1000
0000
0100
,  // measure 9
0000
1000
0000
0001
0000
0100
0000
0010
,  // measure 10
0000
1000
0000
1000
0000
0001
0000
0001
,  // measure 11
0000
0001
0000
0100
0000
1000
0000
0100
,  // measure 12
0000
0010
0000
0100
0000
0001
1000
0100
,  // measure 13
0000
1000
0000
0010
0000
0100
0010
1000
,  // measure 14
0000
0001
0000
1000
0000
0001
0000
0010
,  // measure 15
0200
0000
0300
1000
0020
0000
0100
0000
,  // measure 16
1030
0010
0100
0001
0010
0000
0000
0000
0000
0000
0010
0100
1000
0100
0010
0000
,  // measure 17
1000
0001
0100
0001
0010
0000
0000
0000
0000
0000
0001
0000
0001
0100
0010
0000
,  // measure 18
0100
0010
1000
0001
0010
0000
0000
0000
0000
0000
0001
0010
0100
1000
0100
0000
,  // measure 19
1000
0010
1000
0010
0100
0000
0000
0000
0000
0000
0010
0000
0010
0100
0001
0000
,  // measure 20
1000
0100
1000
0010
0100
0000
0000
0000
0000
0000
0100
0001
1000
0001
1000
0000
,  // measure 21
0001
0010
0100
0010
0001
0000
0000
0000
0000
0000
0001
0000
0001
0100
0010
0000
,  // measure 22
0100
0010
0100
0010
1000
0000
0000
0000
0000
0000
1000
0010
0100
0010
1000
0000
,  // measure 23
1000
0100
0010
0100
1000
0000
0000
0000
1000
0000
0000
0001
0200
0000
0320
0000
,  // measure 24
0230
1000
0000
0010
,  // measure 25
0000
0001
0000
0010
,  // measure 26
0000
1000
0000
0010
,  // measure 27
0000
1300
0000
0100
,  // measure 28
0100
0010
0000
0100
0000
0010
0000
1000
,  // measure 29
0000
0001
0000
0010
0000
0100
0000
0100
,  // measure 30
0000
0010
0000
0001
0000
0100
0000
0010
,  // measure 31
0000
1000
0000
0001
0000
0100
0010
0000
,  // measure 32
1000
0001
0100
0001
0100
0000
0001
0000
,  // measure 33
0001
0001
0001
0001
,  // measure 34
0001
0100
0010
1000
0100
0000
0100
0000
,  // measure 35
0100
0000
1100
0000
0100
1000
0010
0000
,  // measure 36
0100
0010
0100
0010
2000
0000
0000
0000
,  // measure 37
3000
0000
0001
0100
0010
0100
0010
0000
,  // measure 38
0100
0010
1000
0001
0020
0000
0000
0000
,  // measure 39
0031
0010
0001
0100
0010
0100
0001
1000
,  // measure 40
0100
0000
0000
0100
0000
0000
0100
0000
0000
0000
0010
0000
0100
0000
1000
0000
,  // measure 41
0001
0100
0010
0000
0100
0001
1000
0100
,  // measure 42
1000
0000
0000
1000
0000
0000
1000
0000
0000
0000
0000
0000
1001
0000
0000
0000
,  // measure 43
0001
0100
1000
0000
1000
0100
0010
1000
,  // measure 44
0001
0000
0000
0001
0000
0000
0001
0000
0000
0000
0001
0000
0100
0000
0001
0000
,  // measure 45
0100
0010
1000
0000
1000
0001
0010
0100
,  // measure 46
1000
0000
0000
1000
0000
0000
0100
0000
0000
0000
0100
0000
0000
0000
0100
0000
,  // measure 47
0001
0100
1000
0010
0100
0001
0100
0010
,  // measure 48
1000
0000
0000
0010
0000
0000
0100
0000
0000
0000
0010
0000
1000
0000
0001
0000
,  // measure 49
0010
0100
1000
0000
0001
0100
0001
0010
,  // measure 50
0100
0000
0000
0100
0000
0000
0100
0000
0000
0000
0000
0000
0110
0000
0000
0000
,  // measure 51
0100
0010
0001
0000
0001
1000
0100
1000
,  // measure 52
0010
0000
0000
0010
0000
0000
0100
0000
0000
0000
0010
0000
1000
0000
0001
0000
,  // measure 53
0010
0100
1000
0000
1000
0001
0100
0001
,  // measure 54
0010
0000
0000
0010
0000
0000
0010
0000
0100
0000
0000
0000
1000
0000
0000
0000
,  // measure 55
0010
0100
0000
0100
0001
0000
1000
0001
,  // measure 56
0010
0000
0010
0100
0000
0100
1000
0000
,  // measure 57
0000
1000
0000
0001
0010
0000
0100
1000
,  // measure 58
0010
0000
0100
0010
0000
1000
0001
0000
,  // measure 59
0000
0001
0000
0001
0010
0000
0100
0010
,  // measure 60
0001
0000
0001
0100
0000
0100
1000
0000
,  // measure 61
0000
1000
0000
1000
0100
0000
0100
0010
,  // measure 62
1000
0000
0010
1000
0000
1000
0100
0000
,  // measure 63
0000
0100
0000
0010
0001
0100
0010
1000
,  // measure 64
0100
0000
0100
0010
0000
0100
1000
0000
,  // measure 65
1000
0010
0000
0010
0100
0000
0010
1000
,  // measure 66
0001
0010
0100
1000
0100
0000
0100
1000
,  // measure 67
0010
0100
0010
1000
1001
0000
0001
1000
,  // measure 68
0100
0010
0100
1000
0000
1000
0100
0000
,  // measure 69
0100
0010
0000
0010
0001
0100
0010
1000
,  // measure 70
0100
0000
0000
0000
0000
0000
0000
0000
0000
0000
0000
0000
0000
0000
0000
0000
0000
0000
0000
0000
0000
0000
0000
0000
0010
0000
0000
0000
0000
0000
0000
0000
0000
0000
0000
0000
0000
0000
0000
0000
0000
0000
0000
0000
0000
0000
0000
0000
0001
0000
0000
0000
0000
0000
0000
0000
0000
0000
0000
0000
0000
0000
0000
0000
0000
0000
0000
0000
0000
0000
0000
0000
0100
0000
0000
0000
0000
0000
0000
0000
0000
0000
0000
0000
0000
0000
0000
0000
0000
0000
0000
0000
0000
0000
0000
0000
0002
0000
0000
0000
0000
0000
0000
0000
0000
0000
0000
0000
0000
0000
0000
0000
0000
0000
0000
0000
0000
0000
0000
0000
0023
0000
0000
0000
0000
0000
0000
0000
0000
0000
0000
0000
0000
0000
0000
0000
0000
0000
0000
0000
0000
0000
0000
0000
0230
0000
0000
0000
0000
0000
0000
0000
0000
0000
0000
0000
0000
0000
0000
0000
0000
0000
0000
0000
0000
0000
0000
0000
0020
0330
0000
0000
0000
0000
0000
0000
0000
0000
0000
0000
0000
0000
0000
0000
0000
0000
0000
0000
0000
0000
0000
0000
;
