#TITLE:Handsome Character That Pass;
#SUBTITLE:;
#ARTIST:May;
#TITLETRANSLIT:;
#SUBTITLETRANSLIT:;
#ARTISTTRANSLIT:;
#CREDIT:;
#BANNER:Handsome Character That Pass-banner.png;
#BACKGROUND:Handsome Character That Pass-bg.png;
#LYRICSPATH:;
#CDTITLE:;
#MUSIC:Handsome Character That Pass.ogg;
#OFFSET:-0.037;
#SAMPLESTART:30.740;
#SAMPLELENGTH:12.000;
#SELECTABLE:YES;
#BPMS:0.000=125.000;
#STOPS:;
#BGCHANGES:0.000=Handsome Character That Pass.avi=1.000=1=1=0,
196.000=Handsome Character That Pass-bg.png=1.000=0=0=0,
99999=-nosongbg-=1.000=0=0=0 // don't automatically add -songbackground-
;

//---------------dance-single - ----------------
#NOTES:
     dance-single:
     :
     Hard:
     6:
     0.358,0.561,0.135,0.219,0.000:
0000
0000
0000
0000
,
0000
0000
0000
0000
,
0000
0000
0000
0000
,
0000
0000
0000
0000
,
0000
0000
0000
0000
,
0000
0000
0000
0000
,
1000
0100
0010
0001
,
0101
1010
1001
1100
,
1000
0001
1000
0001
0020
0000
0130
0000
,
0000
0100
1000
0010
,
0100
0001
0100
0001
0020
0000
0130
0000
,
0000
1000
0000
1000
,
0010
0100
0010
0100
0002
0000
0013
0000
,
0000
0001
1000
0100
,
1000
0010
1000
0010
0200
0000
0310
0000
,
0100
0001
1000
0100
,
0010
0000
0100
1000
0100
0000
1000
0100
,
1000
0001
0100
0001
,
0010
0000
0100
0010
0100
0000
0010
0100
,
0010
0001
1000
0010
,
0100
0000
0001
0100
0001
0000
0100
0010
,
0100
0010
1000
0100
,
0010
0000
0001
0010
0001
0000
0001
1000
,
0001
0001
1000
0100
,
1000
0000
0000
0010
0000
0000
0001
0000
,
0000
0001
0100
0010
1000
0100
0010
0100
,
1000
0000
0000
0010
0000
0000
0001
0000
,
0000
0001
0000
0100
0010
1000
0001
0010
,
0100
0000
0000
0010
0000
0000
0001
0000
,
0000
1000
0001
0100
0001
0010
0100
0010
,
0001
0000
0000
0100
0000
0000
0010
0000
,
0000
0100
0010
1000
0001
0010
0100
1000
,
0010
0000
0202
0303
0010
0000
2200
3300
,
0010
0000
0002
2003
3002
0003
0202
0303
,
0001
0100
1000
0100
0000
0000
0010
1000
,
0010
0100
0000
0000
0010
1000
0001
0000
,
0100
0000
0022
0033
0100
0000
2020
3030
,
0100
0000
0022
0033
1010
0000
0022
0033
,
0001
0000
0100
0010
0000
0000
0100
0001
,
1000
1000
0000
0000
1000
0100
0010
0001
,
1000
0000
0000
0010
0000
0100
0010
1000
,
0001
0000
0000
0010
0000
0100
0010
0001
,
1000
0000
0000
0010
0000
0100
0010
1000
,
0001
0000
0000
1000
0000
1000
0001
1000
,
1001
0000
0000
0001
0000
0001
0100
0001
,
0100
0000
0000
0010
0000
0100
0010
1000
,
0100
0000
0000
1000
0000
0010
0100
0010
,
1000
0000
0000
0001
0000
0000
1000
0000
,
0001
0000
0001
0100
1000
0000
1000
0100
,
0010
0000
0000
0000
;

//---------------dance-single - ----------------
#NOTES:
     dance-single:
     :
     Medium:
     4:
     0.236,0.357,0.104,0.000,0.000:
0000
0000
0000
0000
,
0000
0000
0000
0000
,
0000
0000
0000
0000
,
0000
0000
0000
0000
,
0000
0000
0000
0000
,
0000
0000
0000
0000
,
1000
0001
1000
0001
,
0010
0010
0010
0010
,
0100
1000
0010
0010
,
0000
0100
0001
1000
,
0100
0100
1000
0010
,
0000
0100
0000
0100
,
0010
1000
0001
0001
,
0000
1000
0001
0000
,
0001
0010
0001
0100
,
0010
1000
0010
1000
,
0001
0000
1000
0001
1000
0000
0001
1000
,
0001
0000
0000
0000
,
0100
0000
0010
0100
0010
0000
0010
0100
,
0010
0000
0000
0000
,
0100
0000
0001
0100
0001
0000
0100
0001
,
0100
0000
0000
0000
,
0010
0000
1000
0010
1000
0000
0010
1000
,
0010
1000
0100
0010
,
0001
0000
0000
0001
0000
0000
1000
0000
,
0000
0001
0000
0000
0100
0000
0010
0000
,
0100
0000
0000
0100
0000
0000
0010
0000
,
0000
0100
0000
0000
0001
0000
1000
0000
,
0100
0000
0000
1000
0000
0000
1000
0000
,
0000
0010
0000
0000
0100
0000
0010
0000
,
1000
0000
0000
0001
0000
0000
0010
0000
,
0000
0001
0000
0000
0100
0000
0010
0000
,
1000
1001
1000
1001
,
0001
1001
0001
1001
,
0001
0100
1000
0100
,
0010
1000
0010
0001
,
0010
0110
0100
0110
,
0010
0110
1001
1001
,
0001
1000
0100
1000
,
1010
0000
0010
1000
,
0001
0000
0000
1000
0000
0000
0010
0000
,
0100
0000
0000
0001
0000
0000
0010
0000
,
0001
0000
0000
1000
0000
0000
1000
0000
,
0010
0000
0000
0010
0000
0000
1000
0000
,
0100
0000
0000
0100
0000
0000
1000
0000
,
0001
0000
0000
0001
0000
0000
0100
0000
,
0001
0000
0000
0010
0000
0000
0100
0000
,
1000
0000
0000
0001
0000
0000
0000
0000
,
1000
0001
0100
0001
,
0010
0000
0000
0000
;

//---------------dance-single - ----------------
#NOTES:
     dance-single:
     :
     Easy:
     1:
     0.126,0.230,0.000,0.000,0.000:
0000
0000
0000
0000
,
0000
0000
0000
0000
,
0000
0000
0000
0000
,
0000
0000
0000
0000
,
0000
0000
0000
0000
,
0000
0000
0000
0000
,
1000
0000
0001
0000
,
1000
0001
1000
0001
,
0100
0000
0100
0100
,
0000
0000
0000
0000
,
0010
1000
0010
0100
,
0000
0000
0000
0000
,
0100
0010
1000
1000
,
0000
0000
0000
0000
,
0001
1000
0010
1000
,
0100
0100
0010
0001
,
1000
0000
1000
0000
,
1000
0000
0000
0000
,
0010
0000
0100
0000
,
0001
0000
0000
0000
,
1000
0000
0100
0000
,
1000
0000
0000
0000
,
0010
0000
0100
0000
,
0001
0000
0000
0000
,
1000
0000
0000
0000
,
0001
0000
0100
0000
,
0001
0000
0000
0000
,
0010
0000
0100
0000
,
1000
0000
0000
0000
,
0100
0000
1000
0000
,
0010
0000
0000
0000
,
0100
0000
0100
0000
,
0001
0000
1000
0000
,
0001
0000
1000
0000
,
0010
0100
0010
0000
,
0100
0000
0010
0000
,
1000
0000
1000
0000
,
1000
0000
1000
0000
,
0001
0001
0001
0000
,
0100
0000
0010
0000
,
1000
0000
0000
0001
,
1000
0000
0000
0100
,
0010
0000
0000
0010
,
0001
0000
0000
0001
,
1000
0000
0000
1000
,
0010
0000
0000
0010
,
0100
0000
0000
0100
,
0001
0000
0000
0000
,
1000
0000
0001
0000
,
1000
0000
0000
0000
;

//---------------dance-single - ----------------
#NOTES:
     dance-single:
     :
     Beginner:
     1:
     0.059,0.125,0.000,0.000,0.000: // measure 1
0000
0000
0000
0000
,  // measure 2
0000
0000
0000
0000
,  // measure 3
0000
0000
0000
0000
,  // measure 4
0000
0000
0000
0000
,  // measure 5
0000
0000
0000
0000
,  // measure 6
0000
0000
0000
0000
,  // measure 7
0000
0000
0000
0000
,  // measure 8
0000
0000
0000
0000
,  // measure 9
1000
0000
0000
0000
,  // measure 10
0000
0001
0001
0001
,  // measure 11
0000
0000
0000
0000
,  // measure 12
0000
0000
0000
0000
,  // measure 13
0010
0000
0000
0000
,  // measure 14
0000
0100
0000
0000
,  // measure 15
0010
0000
0000
0000
,  // measure 16
1000
0000
1000
0000
,  // measure 17
1000
0000
0000
0000
,  // measure 18
0000
0000
0000
0000
,  // measure 19
0001
0000
0000
0000
,  // measure 20
0000
0000
0000
0000
,  // measure 21
0100
0000
0000
0000
,  // measure 22
0000
0000
0000
0000
,  // measure 23
0010
0000
0000
0000
,  // measure 24
0000
0000
0000
0000
,  // measure 25
1000
0000
0000
0000
,  // measure 26
0001
0000
0000
0000
,  // measure 27
0100
0000
0000
0000
,  // measure 28
0001
0000
0000
0000
,  // measure 29
1000
0000
0000
0000
,  // measure 30
0100
0000
0000
0000
,  // measure 31
1000
0000
0000
0000
,  // measure 32
0010
0000
0000
0000
,  // measure 33
0100
0000
0100
0000
,  // measure 34
0100
0000
0100
0000
,  // measure 35
0100
0000
0000
0000
,  // measure 36
0000
0000
0000
0000
,  // measure 37
0010
0000
0010
0000
,  // measure 38
0010
0000
0010
0000
,  // measure 39
0010
0000
0000
0000
,  // measure 40
0000
0000
0000
0000
,  // measure 41
1000
0000
0000
0000
,  // measure 42
0001
0000
0000
0000
,  // measure 43
0100
0000
0000
0000
,  // measure 44
0010
0000
0000
0000
,  // measure 45
0010
0000
0000
0000
,  // measure 46
0100
0000
0000
0000
,  // measure 47
0001
0000
0000
0000
,  // measure 48
1000
0000
0000
0000
,  // measure 49
0010
0000
0000
0000
;
