#TITLE:HELL SCAPER;
#SUBTITLE:;
#ARTIST:L.E.D. LIGHT-G;
#TITLETRANSLIT:;
#SUBTITLETRANSLIT:;
#ARTISTTRANSLIT:;
#CREDIT:;
#BANNER:bn.png;
#BACKGROUND:bg.png;
#LYRICSPATH:;
#CDTITLE:Beatmania IIDX.png;
#MUSIC:HELL SCAPER.mp3;
#OFFSET:-2.930;
#SAMPLESTART:14.280;
#SAMPLELENGTH:12.500;
#SELECTABLE:YES;
#BPMS:0.000=189.960,106.500=195.000,122.500=200.000,156.000=200.000;
#STOPS:24.000=2.200
,41.000=0.960
,210.000=4.500
;
#BGCHANGES:;

//---------------dance-single - ----------------
#NOTES:
     dance-single:
     :
     Hard:
     9:
     0.531,0.592,0.349,0.050,0.019:
0000
0000
0000
0000
,
0000
0000
0000
0000
,
1000
0000
0001
0000
0100
0000
0010
0100
,
0001
0000
0001
1000
0001
0000
1000
0100
,
1000
0000
0010
0000
0100
0000
0010
1000
,
0001
0000
0001
0010
0100
1000
0010
0100
,
1001
0000
0000
0000
,
0000
0000
0100
0000
0010
1000
0001
0000
,
0001
0001
0000
0000
,
0000
0000
0110
0000
0010
0100
0001
0000
,
1000
0100
1000
0010
,
0100
0000
0010
1000
0001
0000
0010
0000
,
0100
0010
0001
0100
1000
0000
0100
0000
,
0010
0000
0100
0010
1000
0000
0001
0000
,
0010
0001
0100
0001
1000
0000
0100
0000
,
1000
0000
0100
1000
0010
0000
0100
0000
,
0010
1000
0001
0010
0001
0000
0100
0000
,
0010
0000
1000
0001
0022
0000
0000
0000
,
0000
0000
0033
0000
0001
0100
0000
0010
,
0000
0100
0001
1000
0000
0100
0000
1000
,
0100
0001
0100
0010
0000
0010
0000
0001
,
0000
0100
1000
0100
0000
0010
0000
0100
,
0000
0010
1000
0001
0000
1000
0000
0001
,
0000
0010
0000
0100
0000
0010
0000
0001
,
0100
0000
0000
0100
0000
0000
0100
0000
0010
0000
1000
0000
0000
0000
0001
0000
,
0000
0010
0000
0100
0000
1000
0000
1000
,
0000
0001
0010
0100
1000
1001
0000
1100
,
0000
1100
0000
0110
0000
0011
0000
0100
,
0001
0000
0000
0001
0000
0000
0001
0000
1000
0000
1100
0000
0000
0000
0110
0000
,
0000
0011
0000
1001
0000
0101
0000
1010
,
0000
1001
0001
1000
0100
1100
0000
0011
,
0000
0101
0000
1010
0000
1001
0000
1001
,
1000
0000
0000
1000
0000
0000
1000
0000
1010
0000
0000
0000
0000
0000
0000
0000
,
0101
0000
0001
0100
,
1000
0000
0100
0000
0010
0010
1000
0000
,
1000
1000
0100
0000
0100
0100
0010
0001
,
0010
1000
0010
0001
0001
0100
1000
0100
,
0001
1000
0100
0010
0100
0000
0000
0000
,
0000
0000
0000
0000
0010
1000
0010
1000
,
0010
0000
0000
1000
0000
0001
0000
0010
,
0001
0010
0001
0010
0001
0100
0001
0100
,
0001
0000
0100
0010
0000
0010
0000
0010
,
0100
0001
0100
0001
0101
0000
0000
0000
,
1010
0000
2002
0000
,
3003
0000
0000
0000
1000
0100
0010
0100
,
1000
0001
0100
0010
1000
0001
0010
0100
,
0010
0001
1000
0000
0001
0100
0010
1000
,
0001
0010
0001
1000
0100
1000
0001
0100
,
0010
1000
0100
0000
1000
0001
0010
0100
,
0010
0100
0010
0001
0100
0010
0100
0010
,
1000
0001
1000
0000
0001
0010
0001
1000
,
0100
1000
0010
0100
0001
0010
0100
1000
,
0001
0010
0100
1000
1001
0000
0110
0000
;

//---------------dance-single - ----------------
#NOTES:
     dance-single:
     :
     Medium:
     7:
     0.447,0.461,0.112,0.112,0.000:
0000
0000
0000
0000
,
0000
0000
0000
0000
,
0001
0100
0010
1000
,
0001
0000
0010
0000
0100
0000
1000
0100
,
1000
0010
0100
0001
,
1000
0000
0001
0000
0010
1000
0001
1000
,
1001
0000
0000
0000
,
0000
0001
0100
0010
,
1000
1100
0000
0000
,
0000
1000
0001
0010
,
0100
0110
0001
0100
,
0010
0000
1000
0010
1000
0000
0010
0000
,
0100
0010
1000
0001
0010
0000
0001
0000
,
0100
0000
0010
1000
0001
0000
0010
0000
,
0100
1000
0010
0100
0001
0000
0010
0000
,
0001
0000
0100
1000
0010
0000
0100
0000
,
0010
1000
0001
0010
0100
0000
0010
0000
,
0001
0000
0100
0010
2002
0000
0000
0000
,
0000
0000
3003
0000
0000
0001
0000
1000
,
0000
0001
1000
0001
0000
0100
0000
0010
,
0100
0010
1000
0001
0010
0100
0000
0100
,
0000
1000
0000
0001
0000
1000
0000
0100
,
0000
0001
0010
0100
0010
0001
0000
0001
,
0000
1000
0100
0100
0000
1000
0000
0010
,
0200
0000
0000
0000
0310
1000
0000
0001
,
0000
0010
0000
0001
0000
0100
0000
0010
,
0000
1000
0001
0010
0001
0010
0000
0001
,
0000
0100
0000
0010
0000
1000
0000
0100
,
0020
0000
0000
0000
0031
1000
0000
0001
,
0000
0100
0000
0010
0000
1000
0000
0001
,
0000
0010
0001
0100
0010
1000
0000
0001
,
0000
0010
0000
0001
0000
0100
0000
0010
,
2000
0000
3001
0000
,
1000
0000
0010
0100
,
0001
0000
1000
0000
0100
0010
0001
0000
,
0001
1000
0010
0000
0100
0010
1000
0000
,
1000
0001
0010
0000
0100
1000
0010
0000
,
0100
0001
0010
0000
1001
0000
0000
0000
,
0000
0000
0000
0000
1000
0001
0100
0001
,
0100
0000
0000
0001
0000
0100
0000
0010
,
1000
0001
0010
0100
1000
0100
0010
0001
,
0100
0000
0001
0100
0000
0010
0000
0100
,
0010
1000
0001
0010
0110
0000
0000
0000
,
1001
0000
0220
0000
,
0000
0330
0010
0001
,
0100
0000
0010
1000
0001
0000
0010
0000
,
0010
0100
2000
0000
3100
0000
1000
0000
,
0010
0000
0100
0001
0010
0000
0001
0000
,
0001
0100
0010
1000
0001
0000
0010
0000
,
0001
0000
0100
0010
1000
0000
0001
0000
,
1000
0100
0020
0000
0130
0000
1000
0000
,
0010
0000
0100
0000
0100
0010
1000
0001
,
0010
0100
1000
0001
1000
0000
1001
0000
;

//---------------dance-single - ----------------
#NOTES:
     dance-single:
     :
     Easy:
     6:
     0.385,0.397,0.175,0.025,0.000:
0000
0000
0000
0000
,
0000
0000
0000
0000
,
0001
0100
0010
1000
,
0100
0001
0100
0010
,
0001
0100
1000
0100
,
0010
0000
1000
0000
0001
0000
0001
0100
,
0101
0000
0000
0000
,
0000
0100
0010
1000
,
0001
0010
0001
0000
0000
0000
0000
0000
,
0000
0001
0100
0010
,
1000
1000
0010
0100
,
0001
1000
0100
1000
,
0010
0000
0100
0001
0010
0000
0001
0000
,
0100
1000
0100
0010
,
1000
0010
0100
0001
0010
0000
0001
0000
,
0100
0010
1000
0001
,
0010
0001
0010
0000
0001
0000
0100
0000
,
0010
0000
1000
0010
0220
0000
0000
0000
,
0000
0330
0100
0010
,
1000
1000
0001
0010
,
0001
0001
0100
0010
,
1000
0001
0010
0001
,
0100
0010
1000
1000
,
0010
0010
0100
0001
,
1000
0000
0001
1000
,
0100
1000
0010
0000
,
0000
0000
0100
0010
,
1000
0001
0010
0001
,
0100
0100
0010
1000
,
0001
0010
0001
0100
,
0010
1000
0010
0100
,
0010
1000
0001
0010
,
0001
0100
0110
0000
,
1001
0000
0101
1010
,
1100
0011
0011
0000
,
1100
0000
0101
0010
,
0100
0010
1000
0001
,
0010
0100
1100
0000
,
0000
0000
1000
0100
,
0010
0000
0000
0001
0000
0001
0000
0001
,
0100
0010
1000
0010
,
0100
0000
0010
1000
0000
0001
0000
0001
,
0010
0100
1000
0100
1000
0000
0000
0000
,
0100
0000
0110
0000
,
0000
0000
0000
0000
0010
0001
0010
0000
,
0001
0000
0100
0000
0010
0100
0010
0000
,
0100
0010
0100
0000
0010
1000
0010
0000
,
0100
0000
0010
0000
1000
0010
1000
0000
,
0010
1000
0010
0000
1000
0000
0001
0000
,
0010
0000
0001
0010
0001
0000
0010
0000
,
0001
0010
0100
0000
0010
0000
0001
0000
,
0100
0000
0010
0000
0100
0010
0100
0010
,
0100
0010
0100
0010
0100
0000
0000
0000
,
1001
0000
0000
0000
;

//---------------dance-single - ----------------
#NOTES:
     dance-single:
     :
     Beginner:
     2:
     0.125,0.196,0.025,0.000,0.000: // measure 1
0000
0000
0000
0000
,  // measure 2
0000
0000
0000
0000
,  // measure 3
0010
0000
0000
0000
,  // measure 4
1000
0000
0000
0000
,  // measure 5
0001
0000
0000
0000
,  // measure 6
0100
0000
0010
0000
,  // measure 7
1001
0000
0000
0000
,  // measure 8
0000
0010
0000
0000
,  // measure 9
0000
0000
0000
0000
,  // measure 10
0000
1000
0000
0000
,  // measure 11
0000
0000
0001
0000
,  // measure 12
0000
0000
1000
0000
,  // measure 13
1000
0000
1000
0000
,  // measure 14
0000
0000
0010
0000
,  // measure 15
0010
0000
0010
0000
,  // measure 16
0000
0000
0100
0000
,  // measure 17
0100
0000
0100
0000
,  // measure 18
0000
0000
1001
0000
,  // measure 19
0000
0000
1000
0000
,  // measure 20
0000
0000
0001
0000
,  // measure 21
0000
0000
0010
0000
,  // measure 22
0000
0000
0001
0000
,  // measure 23
0000
0000
1000
0000
,  // measure 24
0000
0000
1000
0000
,  // measure 25
0000
0000
0010
0000
,  // measure 26
0000
0000
0100
0000
,  // measure 27
0000
0000
0010
0000
,  // measure 28
0000
0000
1000
0000
,  // measure 29
1000
0000
1000
0000
,  // measure 30
0000
0000
0001
0000
,  // measure 31
0001
0000
0001
0000
,  // measure 32
0000
0000
0000
0000
,  // measure 33
0100
0000
0010
0000
,  // measure 34
0010
0000
0010
0010
,  // measure 35
0010
0010
0100
0000
,  // measure 36
0010
0000
1000
0000
,  // measure 37
0001
0000
1000
0000
,  // measure 38
0001
0000
1000
0000
,  // measure 39
0000
0000
0100
0000
,  // measure 40
0000
0000
0010
0000
,  // measure 41
0000
0000
1000
0000
,  // measure 42
0000
0000
0001
0000
,  // measure 43
0000
0000
1000
0000
,  // measure 44
1000
0000
1000
0000
,  // measure 45
0000
0000
0100
0000
,  // measure 46
0000
0000
0010
0000
,  // measure 47
0010
0000
0010
0000
,  // measure 48
0000
0000
1000
0000
,  // measure 49
0001
0000
0100
0000
,  // measure 50
0000
0000
0010
0000
,  // measure 51
1000
0000
0100
0000
,  // measure 52
0000
0000
1000
0000
,  // measure 53
1000
0000
1000
0000
;
