#TITLE:Gun's & Roses;
#SUBTITLE:Baccano! Opening;
#ARTIST:Paradise Lanch;
#TITLETRANSLIT:;
#SUBTITLETRANSLIT:;
#ARTISTTRANSLIT:;
#CREDIT:;
#BANNER:bn.png;
#BACKGROUND:bg.png;
#LYRICSPATH:;
#CDTITLE:;
#MUSIC:Gun's & Roses.mp3;
#OFFSET:1.437;
#SAMPLESTART:9.340;
#SAMPLELENGTH:12.000;
#SELECTABLE:YES;
#BPMS:0.000=133.000;
#STOPS:;
#BGCHANGES:2.500=! BACCANO! OP.avi=1.000=1=0=0,
99999=-nosongbg-=1.000=0=0=0 // don't automatically add -songbackground-
;

//---------------dance-single - ----------------
#NOTES:
     dance-single:
     :
     Hard:
     8:
     0.529,0.575,0.380,0.492,0.397:
0000
0000
0000
0000
,
0000
0000
0000
0000
,
0001
0001
1000
1000
,
0010
0010
0100
0100
,
2002
0000
0000
3003
,
0001
0000
0100
0000
0010
1000
0100
0000
,
1000
0000
0001
0000
1000
0001
0000
0010
0000
0100
0000
0000
0100
0000
0000
0000
,
0010
0000
0001
0000
0100
0000
0010
2000
0000
0000
0000
0000
3000
0000
0000
0000
,
0010
0000
1000
0000
0001
0010
0000
0100
0000
0010
0000
0000
0001
0000
0000
0000
,
1000
0000
0001
0000
0100
0000
0010
2000
0000
0000
0000
0000
3000
0000
0000
0000
,
0100
0000
0010
0000
1000
0010
0000
0100
0000
0010
0000
0000
0001
0000
0000
0000
,
0001
0000
1000
0000
0100
0000
1000
0020
0000
0000
0000
0000
0030
0000
0000
0000
,
0100
0000
0010
0000
1000
0100
0000
0010
0000
1000
0000
0000
0100
0000
0000
0000
,
0010
0000
0001
0100
0000
0010
1000
0000
0001
1000
0002
0000
0000
0203
0000
0000
,
0320
0000
0000
0000
1030
0000
0010
0000
1000
0000
0001
0000
0010
0001
0000
0020
,
0000
0000
0000
0030
0100
0000
1000
0000
0010
0000
1000
0000
0001
0100
0000
0002
,
0000
0000
0000
0003
1000
0000
0100
0000
0010
0000
0100
0000
1000
0100
0000
0020
,
0000
0000
0030
0000
,
0100
0000
0010
0000
0001
0000
1000
0000
0010
0000
0000
0010
0000
0000
0200
0000
,
0000
0000
0300
0010
1000
0000
0001
0000
1000
0000
1000
0100
0000
0000
1000
0000
,
0200
0000
0000
0310
0000
0000
0001
0000
0020
0000
0000
0130
0000
0000
0000
0000
,
0000
0000
0000
0000
0000
0000
1000
0100
1000
0100
1000
0100
,
0010
0000
0100
0000
1000
0000
1000
0000
0001
0000
0000
0100
0000
0000
0010
0000
,
1000
0000
0000
0000
0000
0000
1000
0000
1000
0000
0000
0010
0000
0000
0100
0000
,
0010
0000
1000
0000
0100
0000
0010
0000
0001
0000
0000
0100
0000
0000
0010
0000
,
0020
2030
0200
3300
,
1001
0000
0001
0000
0100
0000
0100
0000
0010
0000
0000
1000
0000
0000
0100
0000
,
0010
0000
0000
0000
0100
0000
0000
0000
1000
0000
0000
0001
0000
0000
0100
0000
,
0001
0000
0000
1000
0001
1000
0000
0001
0000
0000
0001
0010
0000
0000
0100
0000
,
2000
0000
0000
0000
3100
0000
0000
0000
1000
0100
0000
0011
0000
0011
0000
0000
,
1002
0000
0000
1003
0000
0000
2200
0000
3300
0000
1000
0000
0100
0000
0001
0000
,
0200
0000
0000
0010
0000
0000
2000
0000
0000
0000
0000
0000
3300
0000
0000
0000
,
2010
0000
0000
0010
0000
0000
0020
0000
3030
0000
0010
0000
0100
0000
0001
0000
,
0021
0000
0000
0100
0000
0000
0200
0000
0000
0000
0000
0000
0330
0000
0000
0000
,
1002
0000
0000
1000
0000
0000
0200
0000
0303
0000
0001
0000
0100
0000
1000
0000
,
0200
0000
0000
0010
0000
0000
0002
0000
0000
0000
0000
0000
0303
0000
0000
0000
,
0201
0000
0000
0001
0000
0000
0002
0000
0303
0000
0001
0000
0100
0000
0001
0000
,
0020
0000
0000
0100
0000
0000
0200
0000
0000
0000
0000
0000
0330
0000
0000
0000
,
0110
0000
0000
0011
0000
0000
1100
0000
0000
0000
1000
0000
0001
0000
0100
0000
,
0101
0000
0000
1001
0000
0000
0022
0000
0000
0000
0000
0000
0033
0000
0000
0000
,
0011
0000
0000
1100
0000
0000
0101
0000
0000
0000
0001
0000
0100
0000
1000
0000
,
1100
0000
0000
0110
0000
0000
2001
0000
0001
0001
0000
0001
3000
0000
0000
0000
,
0110
0000
0000
0100
0000
0000
1001
0000
0000
0000
0001
0000
0100
0000
0010
0000
,
0110
0000
0000
0101
0000
0000
0022
0000
0000
0000
0000
0000
0033
0000
0000
0000
,
0011
0000
0000
0100
0000
0000
1010
0000
0000
0000
1000
0000
0100
0000
0001
0000
,
0101
0000
0000
1100
0000
0000
2020
0000
0000
0000
0000
0000
3030
0000
0000
0000
,
1000
0000
0001
0000
0010
0100
0000
0010
0000
0001
0000
0000
1000
0000
0000
0000
,
0010
0000
1000
0010
0000
0100
0001
0000
0001
1000
0100
0000
0000
0110
0000
0000
,
2002
0000
0000
0000
0000
0000
0000
0000
0000
0000
0000
0000
0000
0000
0000
3000
,
0003
0000
0000
0000
;

//---------------dance-single - ----------------
#NOTES:
     dance-single:
     :
     Medium:
     6:
     0.355,0.411,0.067,0.089,0.145:
0000
0000
0000
0000
,
0000
0000
0000
0000
,
1000
1000
0001
0001
,
1000
1000
0001
0001
,
0220
0000
0000
0000
,
0000
0000
0000
0330
,
0010
1000
0010
0000
1000
0000
0001
0000
,
0010
0000
0100
0000
1000
0000
0100
1000
0000
0000
0000
0000
0000
0000
0000
0000
,
0100
0010
0001
0000
1000
0000
0001
0000
,
0100
0000
0010
0000
1000
0000
0010
0100
0000
0000
0000
0000
0000
0000
0000
0000
,
0010
0100
0010
0000
1000
0000
0001
0000
,
0010
0000
0100
0000
1000
0000
0100
1000
0000
0000
0000
0000
0000
0000
0000
0000
,
0100
0000
0010
0000
0001
0010
0100
0000
,
0010
0000
0000
0100
0000
0000
1000
0000
0000
0000
0001
0000
0000
1000
0000
0000
,
0010
0000
0100
0000
0100
0000
0010
1000
,
0001
0000
1000
0000
0100
0000
1000
0010
,
0100
0000
0001
0000
1000
0000
0001
0010
,
0200
0000
0000
0300
,
0000
0000
0010
0000
0001
0000
0010
0000
0001
0000
0000
0001
0000
0000
0001
0000
,
0000
0000
0000
0000
0001
0000
0100
0000
0010
0000
0000
0100
0000
0000
0010
0000
,
1000
0000
0000
1000
0000
0000
1000
0000
0001
0000
0000
0001
0000
0000
0000
0000
,
0000
0000
0001
0100
,
0010
1000
0010
0000
0100
0010
0100
0000
,
0010
0000
1000
0000
0100
0001
0010
0000
,
0001
0100
1000
0000
0100
0010
0001
0000
,
0002
2003
0020
3030
,
0000
0010
0100
0010
1000
0000
0010
0000
,
1000
0001
0010
0100
,
1000
0100
0100
0000
1000
0000
0010
0000
,
0100
1000
0100
0001
0010
0001
0100
0000
,
0001
0000
0000
0001
0000
0000
0001
0000
0000
0000
0001
0000
0100
0000
0010
0000
,
0100
0000
0000
0100
0000
0000
0100
0000
0000
0000
0000
0000
0000
0000
0000
0000
,
0010
0000
0000
1000
0000
0000
0100
0000
0000
0000
1000
0000
0100
0000
0010
0000
,
0001
0000
0000
1000
0000
0000
0001
0000
0000
0000
0000
0000
0000
0000
0000
0000
,
0001
0000
0000
0100
0000
0000
0010
0000
0000
0000
0100
0000
0010
0000
0100
0000
,
0010
0000
0000
1000
0000
0000
0001
0000
0000
0000
0000
0000
0000
0000
0000
0000
,
0001
0000
0000
0010
0000
0000
0100
0000
0000
0000
0100
0000
0010
0000
0001
0000
,
1000
0000
0000
1000
0000
0000
0010
0000
0000
0000
0000
0000
0000
0000
0000
0000
,
0100
0000
0000
0010
0000
0000
1000
0000
0000
0000
1000
0000
0010
0000
0001
0000
,
0010
0000
0000
0100
0000
0000
0010
0000
0000
0000
0000
0000
0000
0000
0000
0000
,
0100
0000
0000
0001
0000
0000
1000
0000
0000
0000
1000
0000
0100
0000
0010
0000
,
0010
0000
0000
0100
0000
0000
1000
0000
0000
0000
0000
0000
0000
0000
0000
0000
,
0001
0000
0000
1000
0000
0000
0001
0000
0000
0000
0001
0000
0100
0000
0010
0000
,
0100
0000
0000
0100
0000
0000
0100
0000
0000
0000
0000
0000
0000
0000
0000
0000
,
0010
0000
0000
1000
0000
0000
0001
0000
0000
0000
0001
0000
0010
0000
0100
0000
,
1100
0000
0000
1100
0000
0000
1100
0000
0000
0000
0000
0000
1001
0000
0000
0000
,
0001
0100
0010
0000
0100
0000
0010
0000
,
1000
0000
0100
0000
0010
0000
0000
0000
0000
0000
0100
0000
0000
1000
0000
0000
,
2002
0000
0000
0000
,
3003
0000
0000
0000
;

//---------------dance-single - ----------------
#NOTES:
     dance-single:
     :
     Easy:
     3:
     0.272,0.301,0.056,0.212,0.000:
0000
0000
0000
0000
,
0000
0000
0000
0000
,
1000
0000
0001
0000
,
0100
0000
0001
0000
,
0020
0000
0000
0000
,
0000
0000
0000
0030
,
0100
0010
0001
0000
,
1000
0001
0100
0000
,
0001
0001
0010
0000
,
0001
1000
0010
0000
,
1000
1000
0100
0000
,
1000
0001
0100
0000
,
0001
0001
0010
0000
,
0001
0100
0010
0010
,
0110
0010
1000
0010
,
0010
1000
0001
1000
,
1000
0001
0100
0001
,
0002
0000
0000
0000
0000
0003
0000
0000
,
0000
0001
0020
0000
,
0030
0100
2000
0000
,
3100
0000
1000
0000
,
0010
0000
0110
1001
,
0110
0010
1000
0001
,
0010
0000
0100
0100
,
0010
0001
1000
0100
,
0001
0100
0100
0000
,
1000
0010
0001
0010
,
0100
0010
0000
1000
,
0001
1000
1000
0001
,
0100
1000
0100
0010
,
1000
0001
0010
0001
,
1000
1000
2000
3000
,
0001
1000
1000
0010
,
1000
0100
0200
0300
,
1000
0100
1000
0010
,
0100
0100
0200
0300
,
0010
0100
0001
1000
,
0001
0001
0002
0003
,
1000
0100
0010
0001
,
0010
0200
2000
3300
,
1000
0100
0010
0100
,
1000
0002
0200
0303
,
0001
0100
0010
1000
,
0010
0002
0020
0033
,
0001
0010
0100
0010
,
2000
3002
0200
0303
,
0001
0001
1000
1000
,
0001
0100
0010
1000
,
0202
0000
0000
0000
,
0303
0000
0000
0000
;

//---------------dance-single - ----------------
#NOTES:
     dance-single:
     :
     Beginner:
     1:
     0.093,0.161,0.034,0.000,0.000: // measure 1
0000
0000
0000
0000
,  // measure 2
0000
0000
0000
0000
,  // measure 3
0000
0000
0000
0000
,  // measure 4
0000
0000
0000
0000
,  // measure 5
0010
0000
0000
0000
,  // measure 6
0000
0000
0000
0000
,  // measure 7
0100
0000
0000
0000
,  // measure 8
0001
0000
1000
0000
,  // measure 9
0001
0000
0000
0000
,  // measure 10
0100
0000
0100
0000
,  // measure 11
0100
0000
0000
0000
,  // measure 12
0001
0000
0001
0000
,  // measure 13
0100
0000
0000
0000
,  // measure 14
0010
0000
0000
0000
,  // measure 15
1001
0000
0000
0000
,  // measure 16
1000
0000
0000
0000
,  // measure 17
0001
0000
0000
0000
,  // measure 18
0100
0000
0000
0000
,  // measure 19
0000
0010
0000
0000
,  // measure 20
0000
1000
0000
0000
,  // measure 21
0001
0000
1000
0000
,  // measure 22
0100
0000
1000
1000
,  // measure 23
1000
0000
0000
0000
,  // measure 24
0001
0000
0000
0000
,  // measure 25
0100
0000
0000
0000
,  // measure 26
0001
0001
0100
0000
,  // measure 27
0010
0000
0000
0000
,  // measure 28
0000
0000
0000
0000
,  // measure 29
1000
0000
0000
0000
,  // measure 30
0001
0000
0100
0000
,  // measure 31
0010
0000
0000
0000
,  // measure 32
0100
0000
0000
0000
,  // measure 33
0001
0000
0000
0000
,  // measure 34
0001
0000
0000
0000
,  // measure 35
1000
0000
0000
0000
,  // measure 36
1000
0000
0000
0000
,  // measure 37
0001
0000
0000
0000
,  // measure 38
0100
0000
0000
0000
,  // measure 39
0001
0000
0000
0000
,  // measure 40
1000
0000
0000
0000
,  // measure 41
0001
0000
0000
0000
,  // measure 42
0100
0000
0001
0000
,  // measure 43
1000
0000
0000
0000
,  // measure 44
0100
0000
0000
0000
,  // measure 45
1000
0000
0000
0000
,  // measure 46
0110
0000
0000
0010
,  // measure 47
1001
0000
0000
0000
,  // measure 48
0001
0000
1000
0000
,  // measure 49
0010
0000
0000
0000
;
