#TITLE:Go;
#SUBTITLE:;
#ARTIST:Andy Hunter;
#TITLETRANSLIT:;
#SUBTITLETRANSLIT:;
#ARTISTTRANSLIT:;
#CREDIT:;
#BANNER:bn.png;
#BACKGROUND:bg.png;
#LYRICSPATH:;
#CDTITLE:;
#MUSIC:Go.mp3;
#OFFSET:-0.053;
#SAMPLESTART:55.100;
#SAMPLELENGTH:12.000;
#SELECTABLE:YES;
#BPMS:0.000=67.600,30.000=135.140,86.000=33.800,88.000=135.160,152.000=67.600,184.000=135.140;
#STOPS:;
#BGCHANGES:;

//---------------dance-single - ----------------
#NOTES:
     dance-single:
     :
     Hard:
     7:
     0.295,0.412,0.176,0.029,0.055:
0000
0000
0000
0000
,
0000
0000
0000
0000
,
0000
0000
0000
0000
,
0000
0000
0000
0000
,
0001
0100
1010
0000
0010
1000
1100
0000
,
1000
0100
0011
0000
0001
0100
0110
0000
,
0010
0000
1000
0000
1001
0000
0000
0000
0100
0001
0100
0001
0100
0001
0100
0001
,
0100
0000
0010
1000
0001
0010
0100
0000
1001
0000
0000
0000
0010
0000
0001
0000
,
0010
0000
0001
0100
0001
0000
0001
1000
,
0001
0000
0001
0010
0001
0000
0001
1000
,
0001
0000
0001
0100
0001
0000
0001
1000
,
0001
0000
1000
0001
1000
0000
1000
0100
,
1000
0000
1000
0010
1000
0000
1000
0100
,
1000
0000
1000
0010
1000
0000
1000
0001
,
1000
0000
1000
0100
1000
0000
1000
0010
,
1000
0000
1010
0000
0010
0000
0100
0010
,
1000
0000
0010
0100
0001
0000
0001
0100
,
0010
0000
0100
0010
1000
0000
0001
0010
,
0100
0000
0010
0001
0010
0000
0001
0100
,
0010
0000
0100
0010
1000
0000
0001
1000
,
0100
0000
1000
0010
0100
0000
0010
1000
,
0001
0000
0000
0000
0010
0000
0100
0000
1000
0000
0011
0000
0001
0100
1000
0000
,
1001
0000
0000
0000
0001
0000
0000
0010
0000
0000
0000
0000
0100
0000
1000
0000
,
0010
0000
0000
0000
0100
0000
0000
0100
0000
0000
0000
0000
0010
0000
0100
0000
,
0001
0000
0000
0000
1000
0000
0000
1000
0000
0000
0000
0000
0010
0000
0100
0000
,
0010
0000
0000
0000
1000
0000
0000
1000
0000
0000
0000
0000
1000
0000
0100
0000
,
0010
0000
0000
0000
0001
0000
0000
0001
0000
0000
0000
0000
0001
0000
1000
0000
,
0100
0000
0000
0000
0010
0000
0000
0010
0000
0000
0000
0000
0010
0000
0100
0000
,
1000
0000
0000
0000
0001
0000
0000
0001
0000
0000
0000
0000
0001
0000
0100
0000
,
0010
0000
0000
0000
0100
0000
0000
0100
0000
0000
0000
0000
0110
0000
0000
0000
,
1001
0001
0100
1000
0100
0000
0100
0010
,
1000
0000
1000
1000
0100
0000
0100
0010
,
0001
0000
0010
0010
0001
0000
0001
0100
,
1000
0000
1000
1000
0100
0000
0100
0010
,
1000
0000
1000
1000
0010
0000
0100
0001
,
0010
0000
0010
0010
0100
0000
0100
1000
,
0010
0000
0100
0100
0010
0000
0010
1000
,
0001
0010
1000
0010
0001
0100
1000
0100
,
0020
0000
0000
0000
,
0200
0000
0000
0000
0000
0000
0000
0330
,
0010
1000
1001
0000
0000
0000
0101
0000
,
0001
0001
1100
0000
1000
0000
0110
0000
,
0010
0010
1001
0000
0100
0100
1001
0000
,
0010
0010
1001
0000
0100
0100
1001
0000
,
0001
0001
0110
0000
1000
1000
0110
0000
,
0001
0001
0110
0000
1000
1000
0110
0000
,
0100
0100
0100
0100
,
0100
0000
0100
0010
0001
0010
1000
0100
,
0220
0000
0000
0000
,
0330
0000
0000
0000
;

//---------------dance-single - ----------------
#NOTES:
     dance-single:
     :
     Challenge:
     8:
     0.391,0.520,0.293,0.088,0.216:
0000
0000
0000
0000
,
0000
0000
0000
0000
,
0000
0000
0000
0000
,
0000
0000
0000
0000
,
0001
0000
1000
0100
0020
0000
1000
0000
0130
0000
0010
0001
0200
0000
1000
0000
,
0310
0000
0100
0001
0020
0000
1000
0000
0130
0000
0010
0001
0200
0000
1000
0000
,
0310
0000
0100
0001
1001
0000
0001
0000
0100
0100
0100
0100
0100
0100
0100
0100
,
0100
0000
0000
0000
0100
0001
0100
0010
0100
0001
1000
0100
0010
0000
0000
0000
0011
0000
0000
0000
0000
0000
0000
0000
0001
0000
0000
0000
0100
0000
0000
0000
,
1000
0000
1000
0100
0001
0000
0001
0100
,
1000
0000
1000
0100
0001
0000
0001
0100
,
1000
0000
1000
0100
0001
0000
0001
0100
,
1000
0000
0100
0010
0010
0000
1000
0010
,
0001
0000
0001
0010
1000
0000
1000
0010
,
0001
0000
0001
0010
1000
0000
1000
0010
,
0001
0000
0001
0010
1000
0000
1000
0010
,
0001
0000
0110
0000
1001
0000
1000
0010
,
0001
0000
0001
0010
1000
0000
1000
0010
,
0001
0000
0001
0010
1000
0000
1000
0010
,
0001
0000
0001
0010
1000
0000
1000
0010
,
0001
0000
0010
0100
0100
0000
0001
0100
,
1000
0000
1000
0100
0001
0000
0001
0100
,
1000
0000
0000
0000
0000
0000
0000
0000
0000
0000
0000
0000
0000
0000
0000
0000
0000
0000
0000
0000
0000
0000
0000
0000
0000
0000
0000
0000
0000
0000
0000
0000
0000
0000
0000
0000
0000
0000
0000
0000
0000
0000
0000
0000
0000
0000
0000
0000
1000
0000
0000
0000
0000
0000
0000
0000
0000
0000
0000
0000
0000
0000
0000
0000
0000
0000
0000
0000
0000
0000
0000
0000
0100
0000
0000
0000
0000
0000
0000
0000
0000
0000
0000
0000
0000
0000
0000
0000
0000
0000
0000
0000
0000
0000
0000
0000
0010
0000
0000
0000
0000
0000
0000
0000
0000
0000
0000
0000
0001
0000
0000
0000
0100
0000
0000
0000
0001
0000
0000
0000
0022
0000
0000
0000
0000
0000
0000
0000
0000
0000
0000
0000
0033
0000
0000
0000
0000
0000
0000
0000
0000
0001
0000
0000
0011
0000
0000
0000
0000
0000
0000
0000
0000
0000
0000
0000
1100
0000
0000
0000
0000
0000
0000
0000
0000
0000
0000
0000
0202
0000
0000
0000
0000
0000
0000
0000
0000
0000
0000
0000
0000
0000
0000
0000
0000
0000
0000
0000
0000
0303
0000
0000
,
0101
0000
0000
0001
0100
0000
0010
0000
1000
0000
0000
0000
1000
0000
0001
0000
,
0010
0000
0010
0100
1000
0000
1000
0010
,
0100
0000
0000
0100
0010
0000
1000
0000
0001
0000
0000
0000
0010
0000
0100
0000
,
1000
0000
0100
1000
0010
0000
0100
0001
,
1000
0000
0000
0001
0010
0000
0001
0000
0100
0000
0000
0000
0010
0000
1000
0000
,
0001
0000
0001
0010
0100
0000
1000
0010
,
0100
0000
0000
0010
1000
0000
0001
0000
0010
0000
0000
0000
0001
0000
0100
0000
,
0010
0000
1000
0001
0010
0000
0110
0000
,
1001
0000
0000
0001
0010
0000
0001
0000
0100
0000
0000
0100
0010
0000
1000
0000
,
0001
0000
0000
0001
0010
0000
0100
0000
1000
0000
0000
1000
0100
0000
1000
0000
,
0010
0000
0000
0100
0010
0000
0100
0000
0001
0000
0000
0001
1000
0000
0100
0000
,
1000
0000
0000
0001
0010
0000
0100
0000
0010
0000
0000
0000
0101
0000
0000
0000
,
1001
0000
0000
1000
0001
0000
0100
0000
0100
0000
0000
0001
0010
0000
0010
0000
,
0100
0000
0000
0100
0010
0000
0100
0000
0010
0000
0000
0001
0010
0000
0001
0000
,
1000
0000
0000
0001
0100
0000
0001
0000
0100
0000
0000
0010
1000
0000
1000
0000
,
0001
1000
0001
0000
1000
0000
1000
0010
0000
0100
0000
0000
0001
0000
0010
0000
,
0110
0010
1001
0000
0001
0100
1010
0000
,
1000
0000
0100
0000
0110
0000
0000
0000
0010
0001
0100
0020
0000
2000
3030
0000
,
0011
0000
0000
0000
0001
0000
0000
0000
1100
0000
0000
0000
0000
0000
0000
0000
0000
0000
0000
0000
0000
0000
0000
0000
0110
0000
0000
0000
0000
0000
0000
0010
,
0100
0000
0000
0000
0001
0000
0000
0000
1100
0000
0000
0000
0000
0000
0000
0000
0101
0000
0000
0000
0000
0000
0000
0000
1001
0000
0000
0000
0000
0000
0000
1000
,
0010
0000
0000
0000
0100
0000
0000
0000
0101
0000
0000
0000
0000
0000
0000
0000
0010
0000
0000
0000
0100
0000
0000
0000
1100
0000
0000
0000
0000
0000
0000
1000
,
0010
0000
0000
0000
0100
0000
0000
0000
0101
0000
0000
0000
0000
0000
0000
0000
0010
0000
0000
0000
0001
0000
0000
0000
0101
0000
0000
0000
0000
0000
0000
0100
,
0110
0000
0000
0000
1010
0000
0000
0000
1100
0000
0000
0000
0000
0000
0000
0000
1100
0000
0000
0000
0101
0000
0000
0000
1001
0000
0000
0000
0000
0000
0000
0001
,
0011
0000
0000
0000
0000
0000
1010
0000
0000
0000
0000
0000
1001
0000
0000
0000
0000
0000
0000
0000
0000
0000
0000
0000
0101
0000
0000
0000
0000
0000
1010
0000
0000
0000
0000
0000
1100
0000
0000
0000
0000
0000
0000
0000
0000
0000
0000
0100
,
0010
0000
0000
0000
0000
0100
0010
0000
0000
0000
0000
0100
0010
0000
0000
0000
0000
0100
0010
0000
0000
0000
0000
0100
,
0010
0000
0000
0000
0000
0000
0000
0000
0000
0000
0100
0000
0010
0000
0000
0000
0000
0000
0010
0000
0000
0001
0000
0000
0000
0000
0000
0100
0000
0000
0000
0000
0000
1000
0000
0000
0100
0000
0000
0010
0000
0000
1000
0000
0000
0001
0000
0000
,
2002
0000
0000
0000
,
3003
0000
0000
0000
;

//---------------dance-single - ----------------
#NOTES:
     dance-single:
     :
     Medium:
     5:
     0.225,0.251,0.080,0.073,0.000:
0000
0000
0000
0000
,
0000
0000
0000
0000
,
0000
0000
0000
0000
,
0000
0000
0000
0000
,
0000
0101
0000
1010
,
0000
0110
0000
1100
,
0000
0000
0101
0000
0100
0100
0100
0100
,
0100
0010
1000
0001
0011
0000
0001
0000
,
0100
0010
1000
0100
,
1000
0010
0010
0100
,
0010
1000
0001
0010
,
0001
0000
0100
0010
1000
0000
0010
0000
,
1000
0001
0010
0100
,
1000
0100
1000
0010
,
0100
0010
1000
0001
,
0010
0000
0101
0000
1010
0000
0010
1000
,
0010
0000
1000
0000
0100
0000
0010
0001
,
0010
0000
0001
0000
0100
0000
0010
1000
,
0001
0000
1000
0000
0100
0000
1000
0010
,
0100
0000
0010
0000
1000
0000
0001
0010
,
0001
0000
0100
0000
0010
0000
1000
0010
,
0100
0010
2000
0000
,
3100
0000
1000
0000
0100
0010
0001
0000
,
0100
0000
0010
0000
0100
0010
1000
0000
,
0001
0000
1000
0000
0100
1000
0010
0000
,
0100
0000
0010
0000
1000
0010
0100
0001
,
0010
0000
0100
0000
0010
1000
0001
0000
,
1000
0000
0001
0000
0001
0100
0010
0000
,
0100
0000
0010
0000
0100
0001
0010
0000
,
0100
0000
0010
0000
0100
1000
0010
0000
,
0100
0000
0010
0000
1000
0010
0100
0000
,
0010
0000
1000
0000
0001
0010
0100
0000
,
0010
0000
0001
0000
1000
0001
0100
0000
,
0010
0000
1000
0000
0100
1000
0010
0000
,
0100
0000
0010
0000
1000
0001
0100
0000
,
0010
0000
1000
0000
0100
0010
0001
0000
,
0001
0000
1000
0000
0010
0100
0010
0000
,
0200
0310
0020
1030
,
2002
0000
0000
0000
0000
0000
0000
0003
,
0002
0000
0000
0000
0000
0000
0000
3000
,
2000
0000
0000
0000
0000
0000
0000
0003
,
0002
0000
3000
0003
,
0001
0100
0010
0000
0100
0100
0010
0000
,
0010
1000
0100
0000
0100
0100
0010
0000
,
0001
1000
0100
0000
1000
0010
0100
0000
,
0100
0010
1000
0000
1000
0001
1000
0000
,
0100
0100
0100
0100
,
0100
0100
0010
1001
,
2020
0000
0000
0000
,
3030
0000
0000
0000
;

//---------------dance-single - ----------------
#NOTES:
     dance-single:
     :
     Easy:
     3:
     0.142,0.193,0.051,0.095,0.000:
0000
0000
0000
0000
,
0000
0000
0000
0000
,
0000
0000
0000
0000
,
0000
0000
0000
0000
,
0000
1000
0000
0001
,
0000
1000
0000
0010
,
0000
0100
0020
0000
,
0030
0000
0000
0100
0010
0000
1000
0000
,
1000
0001
0001
1000
,
1000
0001
0001
0100
,
0100
0010
0010
0100
,
0100
0010
0010
1000
,
0010
1000
0010
1000
,
0001
1000
0001
0100
,
0001
0100
0001
0010
,
0001
0011
1100
0100
,
0100
0000
0000
1000
,
0010
0000
0000
0100
,
0001
0000
0000
0001
,
1000
0000
0000
0100
,
0010
0000
0000
0010
,
0001
0000
0000
0000
2002
3003
0000
0000
,
0110
0010
0010
0000
,
1000
0100
1000
0000
,
0100
0010
0001
0000
,
0001
0100
1000
0000
,
1000
0100
0010
0000
,
0010
0001
0010
0000
,
0010
0100
0001
0000
,
1000
0001
0100
0101
,
0011
0001
0010
0000
,
0010
0100
1000
0000
,
1000
0100
0001
0000
,
0001
0100
1000
0000
,
1000
0010
0001
0000
,
0001
0010
0100
0000
,
0100
0001
1000
0000
,
0100
1000
0010
0100
,
0002
0000
0000
0003
,
2000
0000
0000
0000
0020
0000
0000
3030
,
0200
0000
0000
0300
,
0020
0000
0000
0000
0000
0000
0000
0030
,
2000
0000
0000
3000
,
0002
0000
0000
0003
,
0020
0000
0000
0030
,
0200
0000
0000
0300
,
2000
0000
0000
0000
,
0000
0000
3001
1000
,
0110
0000
0000
0000
;

//---------------dance-single - ----------------
#NOTES:
     dance-single:
     :
     Beginner:
     1:
     0.065,0.123,0.015,0.000,0.000: // measure 1
0000
0000
0000
0000
,  // measure 2
0000
0000
0000
0000
,  // measure 3
0000
0000
0000
0000
,  // measure 4
0000
0000
0000
0000
,  // measure 5
0000
0010
0000
1000
,  // measure 6
0000
0001
0000
0100
,  // measure 7
0000
0010
0100
0000
,  // measure 8
0000
0000
1000
0000
,  // measure 9
0000
0000
0001
0000
,  // measure 10
0000
0000
0100
0000
,  // measure 11
0000
0000
0010
0000
,  // measure 12
0000
0000
1000
0000
,  // measure 13
0000
0000
1000
0000
,  // measure 14
0000
0000
0001
0000
,  // measure 15
0000
0000
0010
0000
,  // measure 16
0000
0100
0100
0000
,  // measure 17
0000
0000
0010
0000
,  // measure 18
0000
0000
0001
0000
,  // measure 19
0000
0000
1000
0000
,  // measure 20
0000
0000
1000
0000
,  // measure 21
0000
0000
0010
0000
,  // measure 22
0000
0000
0100
0000
,  // measure 23
1001
0000
0000
0000
,  // measure 24
0001
0000
0000
0000
,  // measure 25
1000
0000
0000
0000
,  // measure 26
0010
0000
0000
0000
,  // measure 27
0100
0000
0000
0000
,  // measure 28
0010
0000
0000
0000
,  // measure 29
1000
0000
0000
0000
,  // measure 30
0100
0000
0000
0000
,  // measure 31
1000
0000
0000
0000
,  // measure 32
0000
0000
0000
0001
,  // measure 33
0001
0000
0000
0000
,  // measure 34
0000
0000
0000
0100
,  // measure 35
0100
0000
0000
0000
,  // measure 36
0000
0000
0000
0010
,  // measure 37
0010
0000
0000
0000
,  // measure 38
1000
0000
0001
0000
,  // measure 39
0100
0000
0000
0000
,  // measure 40
0010
0000
0000
0000
,  // measure 41
1000
0000
0000
1000
,  // measure 42
0001
0000
0001
0001
,  // measure 43
0001
0000
0100
0000
,  // measure 44
0010
0000
0100
0000
,  // measure 45
0001
0000
1000
0000
,  // measure 46
0100
0000
1000
0000
,  // measure 47
0010
0000
0010
0000
,  // measure 48
0010
0000
0100
0100
,  // measure 49
1001
0000
0000
0000
;
