#TITLE:Get Ready To Bounce Recall 08;
#SUBTITLE:;
#ARTIST:Brooklyn Bounce;
#TITLETRANSLIT:;
#SUBTITLETRANSLIT:;
#ARTISTTRANSLIT:;
#GENRE:HARD TECHNO;
#CREDIT:;
#BANNER:bn.png;
#BACKGROUND:bg.png;
#LYRICSPATH:;
#CDTITLE:;
#MUSIC:Get Ready To Bounce Recall 08.mp3;
#OFFSET:0.020;
#SAMPLESTART:69.804;
#SAMPLELENGTH:12.000;
#SELECTABLE:YES;
#BPMS:0.000=141.000
,41.000=70.500
,43.000=141.000
,155.000=70.500
,158.000=141.000
,188.000=70.500
,190.000=141.000
,218.000=70.500
,220.000=141.000
;
#STOPS:12.000=1.277
;
#BGCHANGES:0.333=GRTBBB.avi=1.000=1=0=0=StretchNoLoop==CrossFade==,
253.000=bg.png=1.000=0=0=1=Centered====,
99999=-nosongbg-=1.000=0=0=0 // don't automatically add -songbackground-
;
#KEYSOUNDS:;
#ATTACKS:;

//---------------dance-single - ----------------
#NOTES:
     dance-single:
     :
     Hard:
     9:
     0.553,0.721,0.421,0.079,0.456,384.000,48.000,9.000,0.000,0.000,0.000,0.553,0.721,0.421,0.079,0.456,384.000,48.000,9.000,0.000,0.000,0.000:
0000
0000
0000
0000
,
0000
0000
0000
0000
,
0000
0000
0000
0000
,
0000
0000
1000
0100
1000
0100
1000
0100
,
1000
0100
0001
0100
0001
0100
0001
0100
,
0001
0100
1000
0010
0100
0001
0010
1000
,
0010
0000
0001
0000
0100
0000
0000
0001
0100
0000
0000
1000
0100
0000
0000
0001
,
0100
0000
0000
1000
0100
0000
0010
0000
0100
0000
0010
0000
0100
0000
0010
0000
,
0100
0010
1000
0010
1000
0010
1000
0010
,
1000
0010
0100
0010
0001
0010
0001
0100
,
0010
1000
0200
0000
0000
0000
0310
0001
,
1100
0000
1000
0001
0011
0000
0001
0100
,
0110
0000
0010
1000
0100
0010
0001
0100
,
1001
0000
0000
0000
0010
0000
1000
0000
1100
0000
0000
1000
0010
0000
0000
0001
,
0010
0000
0000
1000
0010
0000
0000
0001
0010
0000
0000
1000
0010
0000
0000
0100
,
0000
0010
1000
0000
0100
0000
0000
0010
0000
1000
0001
0000
0100
0000
0000
0010
,
0000
0100
0001
0000
1000
0000
0000
0001
0000
1000
0100
0000
0010
0000
0001
0000
,
0010
0000
0100
0000
0010
0000
0001
0000
0100
0000
0010
0000
1000
0001
1000
0001
,
1000
0001
1000
0001
1000
0001
1000
0001
1000
0001
1000
0001
1000
0000
0000
0000
,
0000
0000
0000
0000
,
0000
0000
0000
0000
,
0000
0000
0000
0000
,
0000
0000
0000
0000
0001
0001
1010
0000
,
0100
0000
0000
0000
,
0010
0000
0000
0000
0000
1000
0000
0000
,
0100
0000
0000
0000
,
0010
0000
0000
0000
0000
0001
0000
0000
,
0100
0000
0000
0100
0000
0000
0000
0000
0000
0000
0000
0000
0000
0000
0000
0000
,
0010
0000
0000
1000
0000
0000
0000
0000
0000
0000
0001
0000
0000
0000
0000
0000
,
1000
0000
0000
0010
0000
0000
0000
0000
0000
0000
0000
0000
0000
0000
0000
0000
,
0100
0000
0000
0010
0000
0000
0000
0000
0000
0000
1000
0000
1001
0000
0001
0000
,
2000
0000
0000
3010
0000
0000
0000
0000
0000
0000
0000
0000
0000
0000
0000
0000
,
0200
0000
0000
0310
0000
0000
0000
0000
0000
0000
0010
0000
1001
0000
0001
0000
,
0020
0000
0000
0130
0000
0000
0000
0000
0000
0000
0000
0000
0000
0000
0000
0000
,
0200
0000
0000
1300
0000
0000
0000
0000
0001
0000
1000
0000
1100
0000
1000
0000
,
0001
0010
0001
0100
1000
0100
0001
0010
,
0001
0000
0100
0000
0010
0000
1000
0000
0100
0000
0010
0000
0001
0010
0001
0010
,
0001
0010
0001
0010
0001
0010
0001
0010
0001
0010
0001
0010
0100
1000
0100
1000
,
0100
1000
0100
1000
0100
1000
0100
1000
0100
1000
0100
1000
0200
0000
0300
0000
,
0000
0000
0000
0000
,
1000
0000
0001
0000
0010
0000
0000
0010
0000
0000
0010
0000
0001
0000
0000
0100
,
0000
0000
0010
0000
1000
0000
0000
0100
0000
0000
1000
0000
0001
0000
0100
0001
,
0000
0000
0100
0000
0010
0000
0000
1000
0000
0000
0001
0000
0010
0000
0000
0100
,
0000
0000
0010
0000
0001
0000
0000
1000
0000
0000
0001
0000
0100
0000
0010
1000
,
0000
0000
1000
0000
0100
0000
0000
0100
0000
0000
1000
0000
0010
0000
0000
0100
,
0000
0000
0001
0000
1000
0000
0000
0100
0000
0000
1000
0000
0010
0000
0100
0001
,
0000
0000
0100
0000
0010
0000
0000
1000
0000
0000
0001
0000
0010
0000
0000
0100
,
0000
0000
1000
0000
0100
0000
0000
1000
0000
0000
0010
0000
0010
0000
0100
0001
0000
0000
0000
0000
0101
0000
0000
0000
1010
0000
0000
0000
0000
0000
1001
0000
,
0000
0000
1100
0000
0011
0000
0000
1001
0000
0000
0101
0000
1010
0000
0000
1100
,
0000
0000
1100
0000
0011
0000
0001
0100
0000
0000
1001
0000
1100
0000
0000
1010
,
0000
0000
0101
0000
1010
0000
0000
1100
0000
0000
1100
0000
0110
0000
0000
0011
,
0000
0000
0101
0000
1010
0000
1000
0100
0000
0000
1100
0000
0011
0000
0000
0101
,
0000
0000
0101
0000
1010
0000
0000
1010
0000
0000
1010
0000
1001
0000
0000
1100
,
0000
0000
1100
0000
0011
0000
0001
0100
0000
0000
0110
0000
1001
0000
0000
0101
,
0000
0000
1010
0000
1100
0000
0000
2002
0000
0000
0000
0000
0000
0000
0000
3003
,
0001
0000
1000
0000
0100
0000
1000
0100
0000
0000
0010
0000
0001
0000
0100
0010
,
0000
0000
1000
0000
0001
0000
0010
0001
0000
0000
0010
0000
0100
0000
1000
0001
,
1000
0000
0010
0000
0100
0000
0001
1000
0000
0000
1000
0000
0001
0000
0010
0001
,
0000
0000
0100
0000
0010
0000
1000
0100
0000
0000
0100
0000
1000
0000
0010
1000
,
0001
0000
0010
0000
0100
0000
0100
0010
0000
0000
0010
0000
0001
0000
0100
0001
,
0000
0000
0100
0000
0010
0000
1000
0010
0000
0000
1000
0000
0001
0000
0010
0100
,
0010
0000
0010
0000
0001
0000
0100
0010
0000
0000
0100
0000
0010
0000
1000
0001
,
0100
0001
0100
0001
0100
0001
0100
0001
0100
0001
0100
0001
0100
0001
0100
0001
,
0200
0300
0000
0000
;

//---------------dance-single - ----------------
#NOTES:
     dance-single:
     :
     Medium:
     7:
     0.372,0.416,0.324,0.044,0.105,255.000,37.000,5.000,0.000,0.000,0.000,0.372,0.416,0.324,0.044,0.105,255.000,37.000,5.000,0.000,0.000,0.000:
0000
0000
0000
0000
,
0000
0000
0000
0000
,
0000
0000
0000
0000
,
0000
0000
1000
0001
0000
0100
0000
0010
,
0000
1000
0000
0100
0000
0010
0000
0100
,
0000
1000
0010
0100
0001
0010
0100
1000
,
0000
0001
0101
0000
1010
0000
1100
0000
,
0011
0000
0001
0000
1010
0000
0010
0100
,
0001
0000
0100
0000
1001
0000
0001
0100
,
1000
0000
1000
0000
1100
0000
1000
0010
,
0100
0020
0000
1030
,
0101
0000
0001
1000
0100
1000
0010
0000
,
0110
0000
0100
0010
1000
0100
0010
0000
,
0011
0000
0001
0100
0010
1000
1100
0000
,
0011
0000
0101
0000
1010
0000
1000
0001
,
0100
0000
0001
0100
0010
0000
0100
0010
,
1000
0000
0001
1000
0100
0000
1000
0000
,
1000
0000
0001
0000
0001
0000
0001
0100
,
0010
1000
0001
0100
0010
1000
1100
0000
,
0000
0000
0000
0000
,
0000
0000
0000
0000
,
0000
0000
0000
0000
,
0000
0000
0000
0010
,
1000
0000
0000
0000
,
0100
0000
0000
0000
0000
1000
0000
0000
,
0010
0000
0000
0000
,
0100
0000
0000
0000
0000
0001
0000
0000
,
1000
0000
0000
0000
,
0001
0000
0000
0000
0000
1000
0000
0000
,
0010
0000
0000
0000
,
0100
0000
0000
0000
0000
0010
0110
0000
,
0000
0000
0000
0000
,
0100
0000
0000
0000
0000
0001
0101
0000
,
0000
0000
0000
0000
,
1000
0000
0000
0000
0000
0010
1010
0000
,
1000
0001
0100
0001
,
1000
0100
1000
1010
,
1010
0000
0101
0000
0101
0000
0001
0100
,
0010
1000
0100
0010
0001
0010
0002
0000
,
0003
0000
0000
0000
,
0000
0000
1000
0000
0001
0000
0000
0100
0000
0000
0010
0000
0100
0000
0000
0010
,
0000
0000
1000
0000
0010
0000
0000
0100
0000
0000
0010
0000
1000
0000
0010
0000
,
0000
0000
0100
0000
0010
0000
0000
1000
0000
0000
0100
0000
0010
0000
0000
0001
,
0000
0000
0010
0000
0001
0000
0000
0100
0000
0000
0010
0000
1000
0000
0001
0000
,
0000
0000
1000
0000
1000
0000
0000
1000
0000
0000
0001
0000
0001
0000
0000
0100
,
0000
0000
0010
0000
1000
0000
0000
0010
0000
0000
0100
0000
0010
0000
0000
1000
,
0000
0000
0010
0000
0100
0000
0000
0001
0000
0000
0100
0000
0010
0000
0000
1000
,
0000
0000
0000
0000
0000
0000
0000
0000
0000
0000
0001
0000
1000
0000
0000
1000
,
0000
0000
0001
0000
0100
0000
0000
0100
0000
0000
0001
0000
1000
0000
0000
0100
,
0000
0000
1000
0000
0010
0000
0100
0000
0000
0000
0010
0000
0100
0000
0000
0100
,
0000
0000
0010
0000
1000
0000
0000
1000
0000
0000
0010
0000
0100
0000
0000
0001
,
0000
0000
0010
0000
0100
0000
1000
0000
0000
0000
0100
0000
1000
0000
0000
1000
,
0000
0000
0100
0000
1000
0000
0000
1000
0000
0000
0010
0000
0100
0000
0000
0100
,
0000
0000
0010
0000
1000
0000
0000
0010
0000
0000
1000
0000
0001
0000
0000
0100
,
0000
0000
0010
0000
1000
0000
0000
0200
0000
0000
0000
0000
0000
0000
0300
0000
,
0100
0010
0110
0000
0010
0001
0011
0000
,
0001
0100
0101
0000
0001
0000
1001
0000
,
1000
0010
1010
0000
0010
0100
0110
0000
,
0010
0100
0101
0000
0001
0000
1001
0000
,
0001
0100
0110
0000
0010
1000
1100
0000
,
1000
0010
0110
0000
0010
0000
1001
0000
,
0001
0100
1010
0000
0010
0100
0110
0000
,
0010
0100
0001
1000
0010
0100
0001
1000
,
2200
3300
0000
0000
;

//---------------dance-single - ----------------
#NOTES:
     dance-single:
     :
     Easy:
     5:
     0.299,0.388,0.333,0.070,0.000,193.000,38.000,8.000,0.000,0.000,0.000,0.299,0.388,0.333,0.070,0.000,193.000,38.000,8.000,0.000,0.000,0.000:
0000
0000
0000
0000
,
0000
0000
0000
0000
,
0000
0000
0000
0000
,
0000
0001
1000
0001
,
0100
0001
1000
0100
,
1000
0010
0100
0010
,
1000
1010
0101
0011
,
1100
0110
0010
0001
,
0010
1000
0010
0001
,
0010
0100
0010
0001
,
0010
0200
0000
1300
,
0010
0001
0010
1000
,
0100
0001
0100
0010
,
0001
0100
1000
1100
,
0110
1100
0110
0110
,
0010
0110
0010
0110
,
0010
0110
0010
0110
,
1001
0110
1001
0101
,
1010
1100
0011
0220
,
0330
0000
0000
0000
,
0000
0000
0000
0000
,
0000
0000
0000
0000
,
0000
0000
0000
0000
,
0100
0000
0000
0000
,
0010
0000
0000
0000
0000
1000
0000
0000
,
0001
0000
0000
0000
,
1000
0000
0000
0000
0000
0010
0000
0000
,
0100
0000
0000
0000
,
0010
0000
0000
0000
0000
1000
0000
0000
,
0001
0000
0000
0000
,
0010
0000
0000
0000
0000
0010
0100
0000
,
0000
0000
0000
0000
,
0000
0000
0000
0000
0000
1000
0100
0000
,
0000
0000
0000
0000
,
0000
0000
0000
0000
0000
0010
0001
0000
,
0000
0000
0000
0000
,
0000
0000
0000
0000
0000
0001
0100
0000
,
0000
0100
0000
0100
,
0010
1000
0001
2002
,
3003
0000
0000
0000
,
1000
0100
0010
0100
,
1000
0000
0010
0000
0100
0000
0010
0100
,
0010
1000
0001
0010
,
0100
0000
0010
0000
0001
0000
0100
0010
,
1000
1000
0001
0001
,
0100
0000
0100
0000
0010
0000
1000
1000
,
0010
0100
0001
0010
,
0100
0000
0100
0110
,
0010
0011
0001
0101
,
0100
0000
0110
0010
0100
0000
0110
0000
,
0010
1010
1000
1100
,
0100
0000
0110
0100
0010
0000
0011
0000
,
0001
0101
0100
0110
,
0010
0000
1010
1000
0010
0000
0110
0000
,
0010
0000
1010
0000
2002
0000
0000
3003
,
0001
0100
0001
0000
0100
0000
0010
0000
,
0100
0010
0100
0000
0010
0000
1000
0000
,
0100
1000
0100
0000
1000
0000
0010
0000
,
0100
0010
0100
0000
0010
0100
0010
0000
,
0100
0001
1000
0000
0001
0000
1000
0000
,
0001
0100
0010
0000
0100
0000
0010
0000
,
0010
1000
0100
0000
1000
0000
0100
0000
,
0010
0000
0010
0000
0010
0000
0010
0010
,
0200
0300
0000
0000
;

//---------------dance-single - ----------------
#NOTES:
     dance-single:
     :
     Beginner:
     2:
     0.142,0.166,0.061,0.009,0.000,105.000,7.000,1.000,0.000,0.000,0.000,0.142,0.166,0.061,0.009,0.000,105.000,7.000,1.000,0.000,0.000,0.000: // measure 0
0000
0000
0000
0000
,  // measure 1
0000
0000
0000
0000
,  // measure 2
0000
0000
0000
0000
,  // measure 3
0000
1001
0000
0000
,  // measure 4
0000
0001
0000
0000
,  // measure 5
0000
1000
0000
0000
,  // measure 6
0000
0010
0010
0010
,  // measure 7
0010
0010
0000
0000
,  // measure 8
0000
0100
0000
0000
,  // measure 9
0000
0010
0000
0000
,  // measure 10
0000
1000
0001
0100
,  // measure 11
0100
0000
0000
0010
,  // measure 12
1000
0000
0000
0001
,  // measure 13
1000
0000
0000
0001
,  // measure 14
0001
0001
0001
0100
,  // measure 15
0000
0100
0000
0010
,  // measure 16
0000
0010
0000
0100
,  // measure 17
0000
0010
0000
1000
,  // measure 18
1000
0001
0100
0110
,  // measure 19
0000
0000
0000
0000
,  // measure 20
0000
0000
0000
0000
,  // measure 21
0000
0000
0000
0000
,  // measure 22
0000
0000
0000
0000
,  // measure 23
0010
0000
0000
0000
,  // measure 24
0010
0000
0000
0000
,  // measure 25
0100
0000
0000
0000
,  // measure 26
0010
0000
0000
0000
,  // measure 27
1000
0000
0000
0000
,  // measure 28
0001
0000
0000
0000
,  // measure 29
1000
0000
0000
0000
,  // measure 30
0010
0000
0000
0110
,  // measure 31
0000
0000
0000
0000
,  // measure 32
0000
0000
0000
1001
,  // measure 33
0000
0000
0000
0000
,  // measure 34
0000
0000
0000
0110
,  // measure 35
0000
0000
0000
0000
,  // measure 36
0000
0000
0000
1001
,  // measure 37
0000
0010
0000
0100
,  // measure 38
0100
0100
0100
0200
,  // measure 39
0300
0000
0000
0000
,  // measure 40
1000
0000
1000
0000
,  // measure 41
0001
0000
0001
0000
,  // measure 42
0100
0000
0010
0000
,  // measure 43
0100
0000
0010
0000
,  // measure 44
1000
1000
1000
0000
,  // measure 45
0001
0001
0001
0000
,  // measure 46
0100
0100
0100
0000
,  // measure 47
0010
0000
0100
0000
,  // measure 48
0100
0000
0010
0000
,  // measure 49
0010
0000
1000
0000
,  // measure 50
1000
0000
0001
0000
,  // measure 51
0001
0000
1000
0000
,  // measure 52
0010
0000
0100
0000
,  // measure 53
0001
0000
1000
0000
,  // measure 54
1000
0000
1001
0000
,  // measure 55
0001
0001
0001
0000
,  // measure 56
1000
0000
0010
0000
,  // measure 57
0100
0100
0100
0000
,  // measure 58
0010
0000
1000
0000
,  // measure 59
0100
0100
0100
0000
,  // measure 60
0010
0000
0001
0000
,  // measure 61
1000
1000
1000
0000
,  // measure 62
0001
0000
1000
0000
,  // measure 63
0100
0000
0000
0000
;
