#TITLE:Get Better;
#SUBTITLE:;
#ARTIST:KMC feat. Sandy;
#TITLETRANSLIT:;
#SUBTITLETRANSLIT:;
#ARTISTTRANSLIT:;
#GENRE:HOUSE TRANCE;
#CREDIT:;
#BANNER:bn.png;
#BACKGROUND:bg.png;
#LYRICSPATH:;
#CDTITLE:;
#MUSIC:Get Better.mp3;
#OFFSET:-0.017;
#SAMPLESTART:57.200;
#SAMPLELENGTH:12.000;
#SELECTABLE:YES;
#BPMS:0.000=130.000
;
#STOPS:;
#BGCHANGES:;
#KEYSOUNDS:;
#ATTACKS:;

//---------------dance-single - ----------------
#NOTES:
     dance-single:
     :
     Hard:
     7:
     0.357,0.404,0.087,0.185,0.170,229.000,9.000,19.000,0.000,0.000,0.000,0.357,0.404,0.087,0.185,0.170,229.000,9.000,19.000,0.000,0.000,0.000:
0000
0000
0000
0000
,
0000
0000
0000
0000
,
0000
0000
0000
0000
,
0000
0000
0000
0000
,
0000
0000
0000
0000
,
0000
0000
0000
0000
,
0000
0000
0000
0000
,
0000
0000
0000
0000
,
1000
0000
0000
0001
0000
0000
0010
0000
0100
0000
0000
0010
0000
0000
0001
0000
,
0100
0000
0000
0100
0000
0000
0010
0000
0000
0000
0010
0000
0000
0000
0010
0000
,
1000
0000
0000
0001
0000
0000
0010
0000
0100
0000
0000
1000
0000
0000
1000
0000
,
0001
0000
0000
0001
0000
0000
0001
0000
0000
0000
0010
0000
0100
0000
0000
0000
,
0100
0000
0000
0010
0000
0000
0001
0000
1000
0000
0000
0100
0000
0000
1000
0000
,
0010
0000
0000
0010
0000
0000
0010
0000
0000
0000
0100
0000
0000
0000
0100
0000
,
0010
0000
0000
1000
0000
0000
0001
0000
0010
0000
0000
0001
0000
0000
0100
0000
,
0010
0000
0000
0010
0000
0000
1000
0000
0000
0000
0001
0000
0001
0000
0000
0000
,
0120
0001
2000
3030
,
0000
0000
0000
0000
,
0210
1000
0002
0303
,
0000
0000
0000
0101
,
0001
0000
0000
1000
0000
0000
0100
0000
0001
0000
0000
0100
0000
0000
1000
0000
,
0010
0000
0000
0010
0000
0000
0010
0000
0000
0000
0010
0000
0000
0000
0010
0000
,
0100
0000
0000
0001
0000
0000
1000
0000
0001
0000
0000
0001
0000
0000
0001
0000
,
0000
0000
0000
0000
0000
1000
0010
0100
,
0001
0000
0000
0100
0010
0000
0100
0000
0001
0000
0000
0100
0010
0000
0100
0000
,
0001
0000
0000
0001
0000
0000
0001
0000
0000
0000
1000
0000
0000
0000
0010
0000
,
1000
0000
0000
0001
0100
0000
0010
0000
1000
0000
0000
0001
0100
0000
0010
0000
,
1000
0000
0000
1000
0000
0000
1000
0000
0000
0000
1000
0000
0100
0000
0010
0000
,
0010
0000
0000
0001
1000
0000
0001
0000
0010
0000
0000
0001
1000
0000
0001
0000
,
0010
0000
0000
0010
0000
0000
0010
0000
0000
0000
0100
0000
0000
0000
1000
0000
,
0100
0000
0000
0010
0001
0000
1000
0000
0100
0000
0000
0010
0001
0000
1000
0000
,
0100
0000
0000
0100
0000
0000
0100
0000
0010
0000
0001
0000
1000
0000
0010
0000
,
1000
0000
0000
0000
0000
1000
0001
0010
,
0000
0100
1000
0010
0000
0100
0000
0000
,
0100
0001
1000
0100
0010
0000
0100
2000
,
0000
3000
0000
1000
0001
0100
0020
0000
,
1000
1030
0000
0000
0000
0100
0010
0001
,
0000
0001
0010
0200
0000
0310
0000
0000
,
0010
0100
1000
0100
0010
0000
1000
0100
,
0000
0000
0000
0100
0010
0001
0100
0000
,
1001
0000
0000
0000
0000
1000
0010
0001
,
0000
0001
0010
2000
0000
3100
0000
0000
,
1000
0100
0010
0100
1000
0001
0010
0200
,
0000
0300
0000
0010
0002
0000
0100
0000
,
0010
0013
0000
0001
2000
0000
0100
0000
,
0010
3010
0000
0000
0000
0000
0000
0000
,
0000
0000
1000
0001
0010
1000
0010
0000
,
0110
0220
0000
0330
0000
0000
0000
0000
,
1200
1000
0020
0330
,
0000
0000
0000
0000
,
0102
0010
0200
0303
,
0001
0000
0100
0000
1000
0100
0001
0000
,
0010
0000
0000
0001
0000
0000
0100
0000
0010
0000
0000
1000
0000
0000
0100
0000
,
0010
0000
0000
0010
0000
0000
0010
0000
0000
0000
0100
0000
0000
0000
0100
0000
,
1000
0000
0000
0001
0000
0000
0010
0000
0100
0000
0000
0010
0000
0000
0001
0000
,
0102
0000
0000
0100
0000
0000
0200
0000
0303
0000
0000
0000
0000
0000
0000
0000
;

//---------------dance-single - ----------------
#NOTES:
     dance-single:
     :
     Medium:
     4:
     0.198,0.294,0.049,0.068,0.058,131.000,5.000,7.000,0.000,0.000,0.000,0.198,0.294,0.049,0.068,0.058,131.000,5.000,7.000,0.000,0.000,0.000:
0000
0000
0000
0000
,
0000
0000
0000
0000
,
0000
0000
0000
0000
,
0000
0000
0000
0000
,
0000
0000
0000
0000
,
0000
0000
0000
0000
,
0000
0000
0000
0000
,
0000
0000
0000
0000
,
0100
0000
0010
0000
,
1000
0000
0000
0000
0000
1000
0000
0000
,
0001
0000
0100
0000
,
0010
0000
0000
0000
0000
0100
0100
0000
,
0010
0000
1000
0000
,
0001
0000
0000
0000
0000
0010
0000
0000
,
0010
0000
0001
0000
,
1000
0000
0000
0000
0000
0010
0010
0000
,
0200
0000
0000
0000
0000
0000
0000
0000
0000
0300
0000
0000
0000
0000
0000
0000
,
0000
0000
0000
0000
,
0020
0000
0000
0030
,
0000
0000
0000
0100
,
0001
1000
0000
0000
0000
0000
0000
1000
,
0000
0001
0100
0000
1000
0100
0010
0000
,
0100
0200
0000
0000
0000
0000
0000
0000
,
0300
0000
0000
0000
,
0010
0000
0000
0010
0000
0000
0000
0000
0010
0000
0000
0010
0000
0000
0000
0000
,
0010
0000
0000
0010
0000
0000
0010
0000
0000
0000
0000
0000
0000
0000
0000
0000
,
0100
0000
0000
0100
0000
0000
0000
0000
0100
0000
0000
0100
0000
0000
0000
0000
,
0100
0000
0000
0100
0000
0000
0100
0000
0000
0000
0100
0000
1000
0000
0000
0000
,
0001
0000
0000
0001
0000
0000
0000
0000
0001
0000
0000
0001
0000
0000
0000
0000
,
0001
0000
0000
0001
0000
0000
0001
0000
0000
0000
0001
0000
0000
0000
0000
0000
,
1000
0000
0000
1000
0000
0000
0000
0000
1000
0000
0000
1000
0000
0000
0000
0000
,
1000
0000
0000
1000
0000
0000
1000
0000
0000
0000
0000
0000
0000
0000
0000
0000
,
1010
0000
0000
0000
,
0010
0000
0100
0000
,
0001
1000
0100
1000
,
0010
0000
0100
0001
,
1000
1000
0000
0000
0000
0000
0000
0000
,
0010
0000
0100
0000
,
0001
1000
0001
0000
0100
0001
0100
0000
,
0010
1000
0100
0000
1000
0000
1000
0000
,
0011
0000
0000
0001
,
0100
1000
0100
0001
,
0010
0100
1000
0000
0010
0100
1000
0000
,
0010
0100
1000
0000
0010
0000
0100
0000
,
0010
0010
0000
0000
0100
0000
0010
0000
,
1000
1000
0000
0000
0000
0000
0000
0000
,
0000
1000
0100
0010
,
0001
0001
0000
0000
0000
0000
0000
0000
,
2002
0000
3003
0000
,
0100
0000
0010
0000
,
0202
0000
0303
0000
,
0100
0000
0010
0000
1000
0100
0010
0000
,
0100
0000
0010
0000
,
1000
0000
0010
0000
,
0001
0000
1000
0000
,
0110
0000
0000
0000
;

//---------------dance-single - ----------------
#NOTES:
     dance-single:
     :
     Easy:
     2:
     0.125,0.187,0.049,0.039,0.000,81.000,5.000,4.000,0.000,0.000,0.000,0.125,0.187,0.049,0.039,0.000,81.000,5.000,4.000,0.000,0.000,0.000:
0000
0000
0000
0000
,
0000
0000
0000
0000
,
0000
0000
0000
0000
,
0000
0000
0000
0000
,
0000
0000
0000
0000
,
0000
0000
0000
0000
,
0000
0000
0000
0000
,
0000
0000
0000
0000
,
0010
0000
1000
0000
,
0100
0000
0000
0000
,
1000
0000
0001
0000
,
0010
0000
0000
0100
,
0010
0000
0001
0000
,
1000
0000
0000
0000
,
1000
0000
0010
0000
,
0100
0000
0000
0100
,
0020
0000
0030
0000
,
0000
0000
0000
0000
,
0020
0000
0030
0000
,
0000
0000
0000
0100
,
0001
0000
0000
0000
,
1000
0000
0001
0000
,
0100
0000
0000
0000
,
0000
0000
0000
0000
,
0010
0000
1000
0000
,
0100
0000
0000
0000
,
1000
0000
0010
0000
,
0100
0000
0000
0000
,
0010
0000
0100
0000
,
0001
0000
0000
0000
,
0100
0000
0010
0000
,
1000
0000
0000
0000
,
1001
0000
0000
0000
,
0001
0000
1000
0000
,
0010
1000
0100
0010
,
0001
0000
0001
0000
,
1100
0000
0000
0000
,
0100
0000
0010
0000
,
0001
1000
0001
0001
,
0100
0000
0010
1000
,
1100
0000
0000
0000
,
0100
0000
0010
0000
,
0001
0001
0001
0001
,
0001
0000
0001
0100
,
0010
0000
0100
0010
,
1000
0000
0000
0000
,
0000
1000
0010
0100
,
0101
0000
0000
0000
,
0002
0000
0003
0000
,
0000
0000
0000
0000
,
0002
0000
0003
0000
,
0001
0100
0010
1000
,
1100
0000
0000
0000
,
0100
0000
0000
0000
,
1000
0000
0010
0000
,
0100
0000
0000
0000
;

//---------------dance-single - ----------------
#NOTES:
     dance-single:
     :
     Beginner:
     1:
     0.078,0.107,0.029,0.039,0.000,49.000,3.000,4.000,0.000,0.000,0.000,0.078,0.107,0.029,0.039,0.000,49.000,3.000,4.000,0.000,0.000,0.000: // measure 0
0000
0000
0000
0000
,  // measure 1
0000
0000
0000
0000
,  // measure 2
0000
0000
0000
0000
,  // measure 3
0000
0000
0000
0000
,  // measure 4
0000
0000
0000
0000
,  // measure 5
0000
0000
0000
0000
,  // measure 6
0000
0000
0000
0000
,  // measure 7
0000
0000
0000
0000
,  // measure 8
1000
0000
0000
0000
,  // measure 9
0001
0000
0000
0000
,  // measure 10
1000
0000
0000
0000
,  // measure 11
0001
0000
0000
0000
,  // measure 12
0100
0000
0000
0000
,  // measure 13
0010
0000
0000
0000
,  // measure 14
0100
0000
0000
0000
,  // measure 15
0010
0000
0000
0000
,  // measure 16
2000
0000
3000
0000
,  // measure 17
0000
0000
0000
0000
,  // measure 18
2000
0000
3000
0000
,  // measure 19
0000
0000
0000
1000
,  // measure 20
0001
0000
0000
0000
,  // measure 21
0000
0000
0000
0000
,  // measure 22
0100
0000
0000
0000
,  // measure 23
0000
0000
0000
0000
,  // measure 24
0100
0000
0000
0000
,  // measure 25
0010
0000
0000
0000
,  // measure 26
1000
0000
0000
0000
,  // measure 27
0001
0000
0000
0000
,  // measure 28
1000
0000
0000
0000
,  // measure 29
0100
0000
0000
0000
,  // measure 30
1000
0000
0000
0000
,  // measure 31
0010
0000
0000
0000
,  // measure 32
0110
0000
0000
0000
,  // measure 33
0100
0000
0100
0000
,  // measure 34
0100
0000
0000
0000
,  // measure 35
0000
0000
0001
0000
,  // measure 36
1000
0000
0000
0000
,  // measure 37
1000
0000
1000
0000
,  // measure 38
0010
0000
0000
0000
,  // measure 39
0000
0000
0100
0000
,  // measure 40
0110
0000
0000
0000
,  // measure 41
0010
0000
1000
0000
,  // measure 42
0001
0000
0000
0000
,  // measure 43
0000
0000
0001
0000
,  // measure 44
0001
0000
1000
0000
,  // measure 45
1000
0000
0000
0000
,  // measure 46
0000
0000
0010
0000
,  // measure 47
0100
0000
0000
0000
,  // measure 48
0200
0000
0000
0300
,  // measure 49
0000
0000
0000
0000
,  // measure 50
0200
0000
0000
0300
,  // measure 51
0010
0000
1000
0000
,  // measure 52
1001
0000
0000
0000
,  // measure 53
0000
0000
0000
0000
,  // measure 54
0001
0000
1000
0000
,  // measure 55
0010
0000
0000
0000
;
