#TITLE:Genie;
#SUBTITLE:(Michael Splint vs F & W Remix);
#ARTIST:Airbase;
#TITLETRANSLIT:;
#SUBTITLETRANSLIT:;
#ARTISTTRANSLIT:;
#CREDIT:;
#BANNER:bn.png;
#BACKGROUND:bg.png;
#LYRICSPATH:;
#CDTITLE:;
#MUSIC:Genie (Michael Splint vs F & W Remix).mp3;
#OFFSET:-0.024;
#SAMPLESTART:43.724;
#SAMPLELENGTH:12.000;
#SELECTABLE:YES;
#BPMS:0.000=70.000,16.000=140.000,79.000=70.000,82.000=140.000,145.000=70.000,147.000=140.000,147.500=140.000,176.000=70.000,178.000=140.000;
#STOPS:81.500=0.420
;
#BGCHANGES:;

//---------------dance-single - ----------------
#NOTES:
     dance-single:
     :
     Challenge:
     8:
     0.404,0.537,0.166,0.175,0.304:
0000
0000
0000
0000
,
0000
0000
0000
0000
,
0000
0000
0000
0000
,
0000
0000
0000
0000
,
1001
0000
0000
0100
0000
0000
0000
0000
0000
0000
0000
0000
0000
0000
0000
0000
,
0010
0000
0000
1000
0000
0000
0000
0000
0000
0000
0000
0000
0000
0000
0000
0000
,
0011
0000
0000
0100
0000
0000
0000
0000
0000
0000
0000
0000
0000
0000
0000
0000
,
0110
0000
0000
0100
0000
0000
0000
0000
0000
0000
0000
0000
0000
0000
0000
0000
,
1001
0000
0000
0001
0000
0000
0000
0000
0000
0000
0000
0000
0000
0000
0000
0000
,
0100
0000
0000
0010
0000
0000
0000
0000
0000
0000
0000
0000
0000
0000
0000
0000
,
1000
0000
0000
0100
0000
0000
1000
0000
0010
0000
0000
0100
0000
0000
0010
0000
,
1000
0000
0000
0001
0000
0000
0010
0000
0001
0000
0010
0000
0100
0000
0000
0000
,
1000
0000
0000
0001
0000
0000
0010
0000
0001
0000
0000
0100
0000
0000
0010
0000
,
1000
0000
0000
0001
0000
0000
0001
0000
0100
0000
0010
0000
1010
0000
0000
0000
,
1000
0001
0010
0100
,
1000
0000
0100
0000
0010
0001
0100
0010
,
0100
0000
0000
0010
0000
0000
1000
0000
0001
0000
0000
0010
0000
0000
0001
0000
,
0100
0000
0000
0010
0000
0000
1000
0000
0100
0000
0010
0000
0001
0000
0010
0000
,
0101
1010
1001
1100
,
1000
0001
0010
0100
0010
0001
2002
0000
,
0000
0000
0000
0000
0000
0000
3003
0000
1000
0000
0000
0100
0000
0000
1000
0000
,
0010
0000
0000
0100
0000
0000
0100
0000
0010
0000
0000
1000
0000
0000
0001
0000
,
0010
0000
0100
0000
0010
0000
0000
0000
0001
0000
0000
0101
0000
0000
0001
0000
,
0100
0000
0000
0110
0000
0000
0010
0000
1000
0000
0000
1100
0000
0000
1000
0000
,
0100
0000
0010
0000
0100
0000
1000
0000
0001
0000
0000
0010
0000
0000
0001
0000
,
0100
0000
0000
0010
0000
0000
0010
0000
1000
0000
0000
0100
0000
0000
1000
0000
,
0001
0000
0010
0000
0001
0000
1000
0000
0010
0000
0000
0110
0000
0000
0010
0000
,
1000
0000
0000
1100
0000
0000
1000
0000
0001
0000
0000
0011
0000
0000
0001
0000
,
0101
0000
1100
0000
2002
0000
3003
0000
0002
0000
0000
0013
0000
0000
0001
0000
,
0200
0000
0000
0310
0000
0000
0010
0000
2000
0000
0000
3100
0000
0000
1000
0000
,
0001
0000
0010
0000
0200
0000
0000
0000
2300
0000
0000
3100
0000
0000
0100
0000
,
2000
0000
0000
3010
0000
0000
0100
0000
0002
0000
0000
0013
0000
0000
0001
0000
,
0100
0000
0100
0000
0020
0000
0000
0000
0230
0000
0000
0301
0000
0000
0001
0000
,
2000
0000
0000
3010
0000
0000
0010
0000
0200
0000
0000
0301
0000
0000
0001
0000
,
0010
0000
0100
0000
0010
0000
0001
0000
2000
0000
0000
3010
0000
0000
0100
0000
,
0002
0000
0000
0013
0000
0000
0001
0000
0200
0000
0000
0310
0000
0000
0010
0000
,
0100
0100
0020
0000
0000
0030
0000
0000
,
0010
0000
0000
0010
0000
0000
0010
0000
0100
0000
0000
0100
0000
0000
0100
0000
,
0001
0000
0000
0001
0000
0000
0001
0000
0010
0000
0000
0010
0000
0000
0010
0000
,
0001
0000
0000
0001
0000
0000
0001
0000
1000
0000
0000
1000
0000
0000
1000
0000
,
0010
0000
0000
0010
0000
0000
0010
0000
0100
0000
0000
0100
0000
0000
0100
0000
,
0010
0000
0000
1000
0000
0000
0001
0000
0010
0000
0000
0100
0000
0000
0010
0000
,
0001
0000
0000
1000
0000
0000
1000
0000
0100
0000
0000
1000
0000
0000
0010
0000
,
0100
0000
0000
0010
0000
0000
1000
0000
0100
0000
0000
0010
0000
0000
0100
0000
,
1000
0000
0000
0001
0000
0000
0010
0000
1000
0000
0000
0010
0000
0000
0001
0000
1000
0000
0000
0000
0001
0000
0000
0000
0000
0000
0000
0000
1000
0000
0000
0000
,
0000
0010
0000
0100
0000
0001
0000
0010
,
0000
0001
0000
0100
0000
1000
0000
0100
,
0000
1000
0000
0100
0000
0001
0000
0100
,
0000
1000
0000
0001
0000
0010
0000
1000
,
0000
0001
0000
1000
0000
0010
0000
0001
,
0000
1000
0000
0001
0000
0010
0000
0100
,
0000
0001
0000
0100
0000
1000
0000
0001
,
0000
0000
0010
0000
0000
0000
0100
0000
0010
0000
0000
0001
0000
0000
0100
0000
,
0100
0000
0000
0010
0000
0000
1000
0000
1000
0000
0000
0001
0000
0000
0010
0000
,
0100
0000
0000
0010
0000
0000
0001
0000
0100
0000
0000
0010
0000
0000
0100
0000
,
0010
0000
0000
1000
0000
0000
0001
0000
0010
0000
0000
0100
0000
0000
0010
0000
,
0001
0000
0000
1000
0000
0000
0010
0000
1000
0000
0000
0100
0000
0000
1000
0000
,
0010
0000
0000
0100
0000
0000
0010
0000
0100
0000
0000
0001
0000
0000
1000
0000
,
0010
0000
0000
0100
0000
0000
0010
0000
1000
0000
0000
0001
0000
0000
0010
0000
,
0100
0000
0000
0010
0000
0000
0001
0000
1000
0000
0000
0010
0000
0000
0100
0000
,
0001
0000
0000
0010
0000
0000
0100
0000
2002
0000
0000
0000
0000
0000
0000
0000
,
0000
0000
3003
0000
;
