#TITLE:GIMME GIMME GIMME;
#SUBTITLE:(Trance Remix);
#ARTIST:E-ROTIC;
#TITLETRANSLIT:;
#SUBTITLETRANSLIT:;
#ARTISTTRANSLIT:;
#CREDIT:;
#BANNER:GIMME%20GIMME%20GIMME.png;
#BACKGROUND:GIMME%20GIMME%20GIMME-bg.png;
#LYRICSPATH:;
#CDTITLE:;
#MUSIC:GIMME GIMME GIMME (Trance Remix).mp3;
#OFFSET:-0.033;
#SAMPLESTART:101.860;
#SAMPLELENGTH:12.000;
#SELECTABLE:YES;
#BPMS:0.000=146.060;
#STOPS:;
#BGCHANGES:;

//---------------dance-single - ----------------
#NOTES:
     dance-single:
     :
     Hard:
     7:
     0.302,0.391,0.026,0.094,0.119:
0000
0000
0000
0000
,
0000
0000
0000
0000
,
0000
0000
0000
0000
,
0000
0000
0000
0000
,
0000
0000
0000
0000
,
0000
0000
0000
0000
,
0000
0000
0000
0000
,
0000
0000
0000
0000
,
0100
0010
0000
1000
0000
0010
0000
1000
,
0000
0010
0000
1000
0000
0010
0100
0001
,
0000
1000
0000
0100
0000
1000
0000
0010
,
0000
1000
0000
0001
0000
0100
0010
0100
,
0000
0010
0000
1000
0000
0010
0000
0100
,
0000
0001
0000
0010
0000
0001
0100
0010
,
0000
1000
0000
0001
0000
0010
0000
0001
,
0000
0010
0000
0010
0000
0100
1000
0100
,
1000
0001
0100
1000
0100
0001
0010
0001
,
0000
0000
0010
0001
0000
0000
0001
0100
,
0000
0000
0100
0010
0000
0000
0010
1000
,
0000
0000
0001
1000
0000
0001
1000
0000
,
0001
0010
1000
0010
0001
0100
1000
0100
,
0000
0000
0010
1000
0000
0000
0100
0010
,
0000
0100
0001
1000
0000
0100
0100
0000
,
0000
1000
0001
0100
0000
0010
0010
0000
,
0000
0000
0000
0000
,
0001
0100
0000
0010
0000
0000
0000
0000
0000
0000
0000
0000
0000
0000
0000
0000
,
0000
0000
0000
0000
,
0000
0000
0000
0000
,
2002
0000
0000
0000
,
0000
0000
0000
0003
,
0200
0000
0000
0000
,
0000
0000
0000
3000
,
0020
0000
0000
0000
,
0000
0000
0000
0300
,
0002
0000
0000
0000
,
0030
0000
0000
0003
,
1000
0100
1000
0100
1000
0100
0010
0001
,
0000
0000
0000
0000
,
0001
0100
0001
0100
0001
0100
0010
0100
,
0000
0000
0000
0000
,
0010
1000
0010
1000
0010
1000
0010
0001
,
0000
0010
0000
0100
0000
0010
0000
1000
,
0000
0000
0000
0000
0000
0000
0000
0000
0000
0001
0000
0000
1000
0000
0000
0000
0010
0000
0000
0000
0100
0000
0000
0000
,
0010
0000
0000
0000
0000
0000
0000
0000
0000
0100
0000
0000
0010
0000
0000
0000
1000
0000
0000
0000
0001
0000
0000
0000
,
1000
0000
0000
0000
,
1001
0001
0100
0010
,
0100
0001
1000
0100
,
1000
0010
0100
0001
,
0010
0001
1000
0100
,
1000
0010
0100
0001
,
1000
0100
0010
0001
,
0200
0000
0320
0000
,
2030
0000
3002
0000
,
0103
0010
1000
0001
0010
0001
1000
0001
,
0100
0000
0010
0000
0000
1000
0000
0000
0010
0000
0000
0001
0000
0000
0010
0000
,
0000
0100
0000
0000
0010
0000
0000
1000
0000
0000
0001
0000
0000
1000
0000
0000
,
0000
0000
0001
0000
0000
0100
0000
0000
0010
0000
0000
1000
0000
0000
0100
0000
,
0000
1000
0000
0000
0010
0000
0000
0100
0000
0000
0010
0000
0000
0010
0000
0000
,
0000
0000
0100
0000
0000
0001
0000
0000
1000
0000
0000
0100
0000
0000
1000
0000
,
0000
0010
0000
0000
1000
0000
0000
0010
0000
0000
0100
0000
0000
0001
0000
0000
,
0000
0000
0001
0000
0000
0010
0000
0000
0100
0000
0000
0010
0000
0000
0001
0000
,
0000
0010
0000
0000
1000
0000
0000
0010
0000
0000
0001
0000
0000
0100
0000
0000
,
0010
1000
0010
1000
0010
0100
0001
0010
,
0000
0000
0000
0000
,
0100
0010
0100
0010
0100
0010
0001
1000
,
0000
0000
0000
0000
,
0001
0100
0001
0100
0001
0100
0010
0100
,
0000
0010
0000
1000
0000
0001
0000
0010
,
0000
0000
0000
0000
0000
0000
0000
0000
0000
0100
0000
0000
1000
0000
0000
0000
0001
0000
0000
0000
1000
0000
0000
0000
,
0001
0000
0000
0000
,
0220
0000
0000
0330
;

//---------------dance-single - ----------------
#NOTES:
     dance-single:
     :
     Medium:
     4:
     0.227,0.357,0.060,0.051,0.000:
0000
0000
0000
0000
,
0000
0000
0000
0000
,
0000
0000
0000
0000
,
0000
0000
0000
0000
,
0000
0000
0000
0000
,
0000
0000
0000
0000
,
0000
0000
0000
0000
,
0000
0000
0000
0000
,
0010
1000
0010
1000
,
0010
0100
0010
0000
0100
0000
0100
0000
,
0010
1000
0001
0010
,
0100
1000
0100
0000
1000
0000
0010
0000
,
0100
0100
0010
0010
,
0100
0001
1000
0100
,
1000
0001
1000
0001
,
0200
0000
0000
0300
,
0010
0000
1000
0000
0010
0100
0001
1000
,
0000
0000
0000
1000
0000
0000
0000
1000
,
0000
0000
0000
1000
0000
0000
0000
1000
,
0000
0000
0000
1000
0000
0000
0000
0000
,
0001
0000
0100
0000
0010
1000
0100
0010
,
0000
0010
0000
0010
,
0000
0000
0000
0100
,
0000
0000
0000
0010
,
0001
0000
0000
0000
,
1001
0000
0000
0000
,
0010
0000
0000
0000
,
0100
0000
0000
0000
,
0020
0000
0000
0000
,
0000
0000
0000
0000
,
2030
0000
0000
0000
,
0000
0000
0000
0000
,
3200
0000
0000
0000
,
0000
0000
0000
0000
,
2300
0000
0000
0000
,
0000
0000
0000
0000
,
3001
0000
1000
0000
0001
0000
1000
0001
,
0000
0000
0000
0000
,
0100
0000
0010
0000
0100
0000
0010
0100
,
0000
0000
0000
0000
,
0010
0000
1000
0000
0010
0000
0100
0001
,
0000
0010
0000
0100
0000
1000
0000
0100
,
0000
0000
0000
1000
0100
0000
0010
0000
,
0001
0000
0001
0010
,
0100
0000
0000
0000
,
1001
0001
0001
0001
,
1000
1000
1000
1000
,
0010
0100
0001
0010
,
1000
0010
0001
0100
,
0010
0100
0010
1000
,
0100
0010
0100
1000
,
0001
0000
1000
0000
,
0010
0000
0100
0000
,
0110
1001
0110
1001
,
0110
0010
1000
0010
,
0001
0010
1000
0010
,
0100
1000
0100
0001
,
0100
1000
0100
0010
,
1000
0001
0010
0100
,
0010
0001
0100
0010
,
1000
0001
0010
0001
,
1000
0100
1000
0010
,
0100
0000
0010
0000
0010
0000
0100
0010
,
0000
0000
0000
0000
,
0100
0000
0001
0000
1000
0000
0100
0010
,
0000
0000
0000
0000
,
0100
0000
1000
0000
0010
0000
0100
0001
,
0000
1000
0000
0001
0000
0010
0000
0100
,
0000
0000
0000
0100
1000
0000
0010
0000
,
0200
0000
0000
0000
,
0310
0000
0000
0000
;

//---------------dance-single - ----------------
#NOTES:
     dance-single:
     :
     Easy:
     2:
     0.148,0.238,0.051,0.255,0.000:
0000
0000
0000
0000
,
0000
0000
0000
0000
,
0000
0000
0000
0000
,
0000
0000
0000
0000
,
0000
0000
0000
0000
,
0000
0000
0000
0000
,
0000
0000
0000
0000
,
0000
0000
0000
0000
,
1000
0000
0001
0000
,
0100
0010
0100
0000
,
0010
0000
1000
0000
,
0100
0010
1000
0000
,
0010
0000
0001
0000
,
0100
0010
0100
0000
,
0010
0000
1000
0000
,
2002
0000
0000
3003
,
0001
0100
0010
1000
,
0100
0000
0100
0000
,
0010
0000
0001
0000
,
0100
0000
0010
0000
,
1000
0010
1000
0010
,
0100
0000
0100
0000
,
0010
0010
0010
0000
,
0100
0100
0100
0000
,
2002
0000
0000
0000
,
3003
0000
0000
0000
,
0000
0000
0000
0000
,
0000
0000
0000
0000
,
0020
0000
0000
0000
,
0000
0000
0000
0030
,
0200
0000
0000
0000
,
0000
0000
0000
0300
,
0002
0000
0000
0000
,
0000
0000
0000
0003
,
2000
0000
0000
0000
,
0000
0000
0000
3000
,
0020
0000
0000
0000
0000
0000
0000
0030
,
0000
0000
0000
0000
,
0200
0000
0000
0000
0000
0000
0000
0300
,
0000
0000
0000
0000
,
0002
0000
0000
0000
,
2000
0000
0000
0003
,
0200
0000
0000
3000
,
0020
0000
0000
0000
,
0330
0000
0000
0000
,
0010
0000
0001
0000
,
0100
0000
0010
0010
,
0100
0000
0010
0000
,
1000
0000
0100
0100
,
1000
0000
0001
0000
,
0100
0000
0010
0010
,
1000
0000
0001
0000
,
0010
0000
0100
0000
,
1001
0000
0110
0000
,
0002
0000
0000
0000
,
2003
0000
0000
0000
,
3020
0000
0000
0000
,
0230
0000
0000
0000
,
0320
0000
0000
0000
,
2030
0000
0000
0000
,
3200
0000
0000
0000
,
0320
0000
0000
0000
,
0002
0000
0000
0000
0000
0000
0000
0033
,
0000
0000
0000
0000
,
0202
0000
0000
0000
0000
0000
0000
0303
,
0000
0000
0000
0000
,
0220
0000
0000
0000
0000
0000
0000
0300
,
0000
0000
0000
0000
,
0200
0000
0000
0030
0020
0000
0000
0300
,
0200
0000
0000
0000
,
0330
0000
0000
0000
;

//---------------dance-single - ----------------
#NOTES:
     dance-single:
     :
     Beginner:
     1:
     0.104,0.205,0.000,0.000,0.000: // measure 1
0000
0000
0000
0000
,  // measure 2
0000
0000
0000
0000
,  // measure 3
0000
0000
0000
0000
,  // measure 4
0000
0000
0000
0000
,  // measure 5
0000
0000
0000
0000
,  // measure 6
0000
0000
0000
0000
,  // measure 7
0000
0000
0000
0000
,  // measure 8
0000
0000
0000
0000
,  // measure 9
0100
0000
0010
0000
,  // measure 10
0001
1000
0001
0000
,  // measure 11
1000
0000
0100
0000
,  // measure 12
0001
1000
0100
0000
,  // measure 13
1000
0000
0010
0000
,  // measure 14
0001
1000
0001
0000
,  // measure 15
1000
0000
0100
0000
,  // measure 16
0010
0000
0000
0000
,  // measure 17
0010
0001
1000
0100
,  // measure 18
0001
0000
0001
0000
,  // measure 19
1000
0000
0010
0000
,  // measure 20
0001
0000
1000
0000
,  // measure 21
0100
1000
0100
1000
,  // measure 22
0001
0000
0001
0000
,  // measure 23
1000
1000
1000
0000
,  // measure 24
0001
0001
0001
0000
,  // measure 25
0010
0000
0000
0000
,  // measure 26
0000
0000
0000
0000
,  // measure 27
0000
0000
0000
0000
,  // measure 28
0000
0000
0000
0000
,  // measure 29
1000
0000
0000
0000
,  // measure 30
0000
0000
0000
0000
,  // measure 31
0001
0000
0000
0000
,  // measure 32
0000
0000
0000
0000
,  // measure 33
0010
0000
0000
0000
,  // measure 34
0000
0000
0000
0000
,  // measure 35
0100
0000
0000
0000
,  // measure 36
0000
0000
0000
0000
,  // measure 37
1000
0000
0000
0000
,  // measure 38
0000
0000
0000
0000
,  // measure 39
0001
0000
0000
0000
,  // measure 40
0000
0000
0000
0000
,  // measure 41
0010
0000
0000
0000
,  // measure 42
0100
0000
0000
0000
,  // measure 43
0001
0000
0000
0000
,  // measure 44
1000
0000
0000
0000
,  // measure 45
0000
0000
0000
0000
,  // measure 46
1000
0000
0010
0000
,  // measure 47
0001
0000
1000
1000
,  // measure 48
0001
0000
1000
0000
,  // measure 49
0100
0000
0001
0001
,  // measure 50
0100
0000
0010
0000
,  // measure 51
0001
0000
1000
1000
,  // measure 52
0100
0000
0010
0000
,  // measure 53
1000
0000
0001
0000
,  // measure 54
0010
0000
1000
0000
,  // measure 55
0010
0000
0000
0000
,  // measure 56
0100
0000
0000
0000
,  // measure 57
1000
0000
0000
0000
,  // measure 58
0001
0000
0000
0000
,  // measure 59
1000
0000
0000
0000
,  // measure 60
0100
0000
0000
0000
,  // measure 61
0001
0000
0000
0000
,  // measure 62
1000
0000
0000
0000
,  // measure 63
0010
0000
0000
0000
,  // measure 64
0000
0000
0000
0000
,  // measure 65
0010
0000
0000
0000
,  // measure 66
0000
0000
0000
0000
,  // measure 67
1000
0000
0000
0000
,  // measure 68
0000
0000
0000
0000
,  // measure 69
0001
0000
1000
0000
,  // measure 70
0001
0000
0000
0000
;
