#TITLE:Fragment;
#SUBTITLE:;
#ARTIST:Zektbach;
#TITLETRANSLIT:;
#SUBTITLETRANSLIT:;
#ARTISTTRANSLIT:;
#CREDIT:;
#BANNER:bn.png;
#BACKGROUND:bg.png;
#LYRICSPATH:;
#CDTITLE:;
#MUSIC:Fragment.mp3;
#OFFSET:-5.669;
#SAMPLESTART:10.420;
#SAMPLELENGTH:12.000;
#SELECTABLE:YES;
#BPMS:0.000=92.040,81.875=46.020,83.938=92.040,173.750=46.020,175.875=92.040;
#STOPS:83.875=1.360
;
#BGCHANGES:;

//---------------dance-single - ----------------
#NOTES:
     dance-single:
     :
     Hard:
     8:
     0.422,0.547,0.326,0.241,0.187: // measure 1
0000
0000
0000
0000
,  // measure 2
0000
0000
0000
0000
,  // measure 3
1001
0001
0010
0001
0100
0000
0010
0000
,  // measure 4
0110
0010
1000
0001
0010
0000
0001
0000
,  // measure 5
1100
1000
0100
0010
0001
0000
0100
0000
,  // measure 6
0101
0001
0100
0010
0100
0000
0010
0000
,  // measure 7
0010
0001
0100
0010
0100
1000
0001
0010
0100
0000
0000
0000
0001
0000
0100
0000
,  // measure 8
0010
0000
0010
0000
0010
0000
0010
1000
,  // measure 9
0001
0000
0010
0000
0001
0000
0100
0000
0010
0000
1000
0000
0100
0000
0010
0000
0001
0000
0100
0000
0010
0000
1000
0000
0100
0000
0000
0000
0000
0000
0000
0000
0000
0000
0000
0000
0000
0000
0000
0000
0000
0000
1000
0000
0000
0100
0000
0000
,  // measure 10
0010
0001
0100
0010
1000
0100
1000
0001
0100
0001
0010
0001
0100
0000
0010
0000
,  // measure 11
1000
0100
0010
0100
1000
0100
0010
0001
0100
0000
0000
0000
0001
0000
1000
0000
,  // measure 12
0001
0000
0001
0000
0001
0000
0001
0100
,  // measure 13
0010
0000
0100
0000
0010
0000
0100
0000
1000
0000
0001
0000
1000
0000
0001
0000
0010
0000
0001
0000
0100
0000
0010
0000
1000
0000
0000
0000
0000
0000
0000
0000
0000
0000
0000
0000
1000
0000
0000
0000
0000
0000
0001
0000
0000
1000
0000
0000
,  // measure 14
0100
1000
0010
0001
0100
0010
1000
0100
1000
0001
0100
0001
0010
0000
0001
0000
,  // measure 15
0011
0010
0011
0001
0011
0010
0011
0010
,  // measure 16
0110
0100
0110
0010
0110
0100
0110
0010
,  // measure 17
1001
1000
1001
0001
1001
1000
1001
0001
,  // measure 18
1100
0100
0110
0010
0011
0001
0101
0010
,  // measure 19
0010
1000
0001
0000
0010
1000
0001
0000
,  // measure 20
0010
0000
0000
0000
0000
0000
1000
0000
0000
0000
0000
0000
0001
0000
0000
0000
0000
0000
0010
0000
0000
0000
0000
0000
0001
0000
0000
0000
0000
0000
0000
0000
0001
0000
0000
0000
0000
0000
0000
0001
0000
0000
0000
0000
0000
0000
0100
0000
,  // measure 21
0000
0000
0000
0000
0000
0000
0000
0000
0000
0000
0000
0000
0000
0000
0000
0000
0000
0000
0000
0000
0000
0000
0000
0000
0010
0000
0000
0000
0000
0000
0000
0000
0000
0000
0000
0000
0000
0000
0000
0000
0000
0000
0000
0000
0000
0000
0000
0000
0000
0000
0000
0000
0000
0000
0000
0000
1000
0000
0000
0000
0000
0000
0000
0000
0000
0000
0000
0000
0000
0000
0000
0000
0000
0000
0000
0000
0000
0000
0000
0000
0000
0000
0000
0000
0000
0000
0000
0000
0000
0000
0001
0000
0000
0000
0000
0000
0000
0000
0000
0000
0000
0000
0000
0000
0000
0000
0000
0000
0000
0000
0000
0000
0000
0000
0000
0000
0000
0000
0000
0000
0000
0000
0000
0000
0000
0000
0000
0000
0000
0000
0000
0000
0000
0000
0000
0000
0000
0000
0000
0000
0000
0000
0000
0000
0000
0000
0000
0000
0000
0000
0000
0000
0000
0000
0000
0000
0000
0000
0000
0000
0000
0000
0000
0000
0000
0000
0000
0000
0000
0000
0000
0000
0000
0000
0000
0000
0000
0000
0000
0000
0000
0000
0000
0000
0000
0000
0000
0000
0000
0000
0000
0000
,  // measure 22
2000
3100
0020
0130
0010
0000
0001
0010
,  // measure 23
0002
0103
0020
1030
0100
0000
1000
1000
,  // measure 24
0002
0103
0002
0013
0001
0000
0000
0000
,  // measure 25
1001
0000
0001
0100
0010
0100
0010
1000
,  // measure 26
0200
1300
0002
0013
0010
0000
0001
0010
,  // measure 27
0002
0103
0020
0031
0001
0000
0001
1000
,  // measure 28
0200
1300
0020
0031
0001
0000
0001
0000
,  // measure 29
0101
0000
0001
0100
0010
1000
0100
1000
,  // measure 30
0010
1000
0100
0020
0001
0000
0001
0000
,  // measure 31
0031
0000
0001
0100
0020
0000
0130
0000
,  // measure 32
0010
1000
0200
0000
1000
0000
1000
0000
,  // measure 33
1300
1000
0001
0100
,  // measure 34
0001
0010
0001
0200
0010
0000
0010
0000
,  // measure 35
0310
0000
0010
1000
0002
0000
0013
0001
,  // measure 36
0100
0010
2000
0000
0100
0000
3100
0000
,  // measure 37
1100
0010
1001
0001
,  // measure 38
0021
0031
0011
0010
0021
0031
0011
0001
,  // measure 39
0201
0310
0110
1000
1002
0103
0101
0010
,  // measure 40
0021
0031
0101
0100
0210
0310
1010
1000
,  // measure 41
2001
3001
0101
0010
0120
1030
1001
0001
,  // measure 42
0201
0001
0310
0000
0020
1000
0130
0000
,  // measure 43
2000
0000
0000
0000
0000
0000
0100
0000
0000
0000
0000
0000
0010
0000
0000
0000
0000
0000
3001
0000
0000
0000
0000
0000
1000
0000
0000
0000
0000
0000
0001
0000
0000
0000
0000
0000
0000
0001
0000
0000
0000
0000
0000
0000
0100
0000
0000
0000
,  // measure 44
0000
0000
0000
0000
0000
0000
0000
0000
0000
0000
0000
0000
0010
0000
0000
0000
0000
0000
0000
0000
0000
0000
0000
0000
0000
0000
0000
0000
0000
0000
0000
0000
0000
0000
0000
0000
0000
0000
0000
0000
0000
0000
0000
0000
1000
0000
0000
0000
0000
0000
0000
0000
0000
0000
0000
0000
0000
0000
0000
0000
0000
0000
0000
0000
0000
0000
0000
0000
0000
0000
0000
0000
0000
0000
0000
0000
2002
0000
0000
0000
0000
0000
0000
0000
0000
0000
0000
0000
0000
0000
0000
0000
0000
0000
0000
0000
0000
0000
0000
0000
0000
0000
0000
0000
0000
0000
0000
0000
0000
0000
0000
0000
0000
0000
0000
0000
0000
0000
0000
0000
0000
0000
0000
0000
0000
0000
0000
0000
0000
0000
0000
0000
0000
0000
0000
0000
0000
0000
0000
0000
0000
0000
0000
0000
0000
0000
0000
0000
0000
0000
0000
0000
0000
0000
0000
0000
0000
0000
0000
0000
0000
0000
0000
0000
0000
0000
0000
0000
0000
0000
0000
0000
0000
0000
0000
0000
0000
0000
0000
0000
0000
0000
0000
0000
0000
0000
3003
0000
0000
0000
0000
0000
;

//---------------dance-single - ----------------
#NOTES:
     dance-single:
     :
     Medium:
     5:
     0.241,0.290,0.039,0.078,0.035:
0000
0000
0000
0000
,
0000
0000
0000
0000
,
1000
0001
0100
0001
0010
0000
0000
0000
,
0001
0010
0100
1000
0100
0000
0000
0000
,
1000
0001
0100
0001
0010
0000
0000
0000
,
0010
0100
1000
0001
0100
0000
0000
0000
,
0010
1000
0100
1000
0010
0000
0010
0000
,
0100
0010
1000
0001
,
2000
0001
3001
0001
,
1000
0001
0100
0001
0010
0001
0100
0010
,
1000
0100
0010
0001
0010
0000
0001
0000
,
0001
0100
0010
1000
,
0200
0000
0000
0000
1300
0000
0000
1000
,
0001
0100
0001
0010
0001
0100
0010
1000
,
0100
0100
1100
1000
,
0100
0010
0011
0001
,
0100
0010
0110
0010
,
1000
0001
1001
1000
,
0001
1000
0100
0000
0001
1000
0100
0000
,
0001
0000
0000
0000
0000
0000
1000
0000
0000
0000
0000
0000
0001
0000
0000
0000
0000
0000
1000
0000
0000
0000
0000
0000
1000
0000
0000
0000
0000
0000
0000
0000
0000
0001
0000
0000
0000
0000
0000
0001
0000
0000
0000
0000
0000
0000
0100
0000
,
0000
0000
0000
0000
0000
0000
0000
0000
0000
0000
0000
0000
0000
0000
0000
0000
0000
0000
0000
0000
0000
0000
0000
0000
0010
0000
0000
0000
0000
0000
0000
0000
0000
0000
0000
0000
0000
0000
0000
0000
0000
0000
0000
0000
0000
0000
0000
0000
0000
0000
0000
0000
0000
0000
0000
0000
1000
0000
0000
0000
0000
0000
0000
0000
0000
0000
0000
0000
0000
0000
0000
0000
0000
0000
0000
0000
0000
0000
0000
0000
0000
0000
0000
0000
0000
0000
0000
0000
0000
0000
0001
0000
0000
0000
0000
0000
0000
0000
0000
0000
0000
0000
0000
0000
0000
0000
0000
0000
0000
0000
0000
0000
0000
0000
0000
0000
0000
0000
0000
0000
0000
0000
0000
0000
0000
0000
0000
0000
0000
0000
0000
0000
0000
0000
0000
0000
0000
0000
0000
0000
0000
0000
0000
0000
0000
0000
0000
0000
0000
0000
0000
0000
0000
0000
0000
0000
0000
0000
0000
0000
0000
0000
0000
0000
0000
0000
0000
0000
0000
0000
0000
0000
0000
0000
0000
0000
0000
0000
0000
0000
0000
0000
0000
0000
0000
0000
0000
0000
0000
0000
0000
0000
,
0010
0100
1000
0001
0000
0000
0000
0000
,
0001
0100
0010
1000
0000
0000
0000
0000
,
1000
0100
0010
0100
0000
0000
0000
0000
,
1000
0001
0100
0010
,
0100
0100
0010
1000
0000
0000
0000
0000
,
1000
0001
1000
1000
0000
0000
0000
0000
,
0100
0100
0010
1000
0000
0000
0000
0000
,
1000
0001
0100
0001
,
0010
0000
0002
0200
0000
0000
0000
0000
,
0303
0000
0001
1000
0001
0000
0100
0000
,
0010
2000
0200
0000
0000
0000
0000
0000
,
3300
0000
0000
0000
,
1000
0001
0100
0020
0000
0000
0000
0000
,
0030
0000
0100
0010
1000
0000
0001
1000
,
0001
0100
0002
0000
0010
0000
0000
0000
,
0010
0000
0010
0000
,
0013
0001
0010
0001
1000
0100
1000
0100
,
1000
0010
1000
0010
0100
0010
0100
0010
,
1000
0001
1000
0001
0100
0001
0100
0001
,
0010
0001
0010
0001
0100
0001
0100
0001
,
1000
0001
1000
0000
1000
0100
1000
0000
,
0001
0000
0000
0000
0000
0000
0000
0000
0000
0000
0000
0000
0000
0000
0000
0000
0000
0000
0000
0000
0000
0000
0000
0000
1000
0000
0000
0000
0000
0000
0000
0000
0000
0000
0000
0000
0000
0000
0000
0000
0000
0000
0000
0000
0000
0000
0000
0000
0001
0000
0000
0000
0000
0000
0000
0000
0000
0000
0000
0000
0000
0000
0000
0000
0000
0000
0000
0000
0000
0000
0000
0000
1000
0000
0000
0000
0000
0000
0000
0000
0000
0000
0000
0000
0000
0000
0000
0000
0000
0000
0000
0000
0000
0000
0000
0000
0100
0000
0000
0000
0000
0000
0000
0000
0000
0000
0000
0000
0000
0000
0000
0000
0000
0000
0000
0000
0000
0000
0000
0000
0010
0000
0000
0000
0000
0000
0000
0000
0000
0000
0000
0000
0000
0000
0000
0000
0000
0000
0000
0000
0000
0000
0000
0000
0000
0000
0000
0000
0000
0000
0001
0000
0000
0000
0000
0000
0000
0000
0000
0000
0000
0000
0000
0000
0000
0000
0000
0000
0000
0000
0000
0000
0000
0000
0000
0000
0000
0000
0100
0000
0000
0000
0000
0000
0000
0000
0000
0000
0000
0000
0000
0000
,
0000
0000
0000
0010
0000
0000
0000
0000
1000
0000
0000
0000
0000
0000
2002
0000
0000
0000
0000
0000
0000
0000
0000
0000
0000
0000
0000
0000
0000
0000
0000
3003
;

//---------------dance-single - ----------------
#NOTES:
     dance-single:
     :
     Easy:
     1:
     0.094,0.135,0.016,0.054,0.004:
0000
0000
0000
0000
,
0000
0000
0000
0000
,
0010
0000
0000
1000
,
0001
0000
0000
0100
,
0010
0000
0000
1000
,
0100
0000
0000
1000
,
1001
0000
0000
0010
,
0010
0000
0000
0100
,
0200
0000
0300
0000
,
0020
0000
0000
0000
,
1030
1000
1000
0000
,
0001
0000
0000
0000
,
0020
0000
0030
0000
,
0100
0000
0010
0000
,
1000
0000
1000
0000
,
0001
0000
0001
0000
,
0100
0000
0100
0000
,
0010
0000
0010
0000
,
0010
0000
1000
0000
,
0001
0000
0000
0000
,
0000
0000
0000
0000
,
0010
0000
0000
1000
,
0001
0000
0000
0100
,
0001
0000
0000
0000
,
0010
0000
0001
0000
,
1000
0001
0100
0000
,
0001
0001
0100
0000
,
0010
0010
1000
0000
,
1001
0000
0001
0000
,
1000
0002
0000
0000
,
0003
0001
0100
0010
,
2000
0000
0000
0000
,
3000
0000
0000
0000
,
0010
0200
0000
0000
,
0300
0010
1000
0100
,
1000
0020
0000
0000
,
0030
0000
0000
0000
,
0100
0000
0001
0000
,
0100
0000
0001
0000
,
1000
0000
0010
0000
,
1000
0000
0010
0000
,
1000
0000
1000
0000
,
1000
0000
0010
0000
,
0000
0000
0000
0000
0000
0000
0000
0100
0000
0000
0000
0000
0000
0000
0000
0000
;

//---------------dance-single - ----------------
#NOTES:
     dance-single:
     :
     Beginner:
     1:
     0.046,0.065,0.000,0.000,0.000:
0000
0000
0000
0000
,
0000
0000
0000
0000
,
0010
0000
0000
0000
,
1000
0000
0000
0000
,
0001
0000
0000
0000
,
0100
0000
0000
0000
,
0010
0000
0010
0000
,
0000
0000
0000
0000
,
0100
0000
0000
0000
,
0001
0000
0000
0000
,
1000
0000
1000
0000
,
0000
0000
0000
0000
,
0010
0000
0000
0000
,
0100
0000
0100
0000
,
0001
0000
0000
0000
,
1000
0000
0000
0000
,
0100
0000
0000
0000
,
0010
0000
0000
0000
,
0001
0000
0001
0000
,
0001
0000
0000
0000
,
0000
0000
0000
0000
,
0100
0000
0000
0000
,
0010
0000
0000
0000
,
1000
0000
0000
0000
,
0000
0000
0000
0000
,
0001
0000
0000
0000
,
0100
0000
0000
0000
,
0010
0000
0000
0000
,
1000
0000
0000
0000
,
1000
0000
0000
0000
,
0000
0001
0000
0000
,
1000
0000
0000
0000
,
0000
0000
0000
0000
,
0010
0000
0000
0000
,
0000
0100
0100
0010
,
0000
0000
0000
0000
,
0000
0000
0000
0000
,
1000
0000
0000
0000
,
0001
0000
0000
0000
,
0100
0000
0000
0000
,
0100
0000
0000
0000
,
0010
0000
0010
0000
,
0010
0000
0000
0000
;
