#TITLE:Flash back 90's;
#SUBTITLE:;
#ARTIST:kors k as DISCONATION;
#TITLETRANSLIT:;
#SUBTITLETRANSLIT:;
#ARTISTTRANSLIT:;
#CREDIT:;
#BANNER:bn.png;
#BACKGROUND:bg.png;
#LYRICSPATH:;
#CDTITLE:;
#MUSIC:Flash back 90's.mp3;
#OFFSET:-0.011;
#SAMPLESTART:24.760;
#SAMPLELENGTH:12.000;
#SELECTABLE:YES;
#BPMS:0.000=155.000;
#STOPS:96.500=0.387
,97.500=0.387
,104.000=0.387
,165.000=1.161
,230.000=1.141
;
#BGCHANGES:0.375=movie 2[1].avi=1.000=0=0=1,
99999=-nosongbg-=1.000=0=0=0 // don't automatically add -songbackground-
;

//---------------dance-single - ----------------
#NOTES:
     dance-single:
     :
     Hard:
     9:
     0.518,0.646,0.125,0.157,0.301:
0000
0000
0000
0000
,
0000
0000
0000
0000
,
0000
0000
0000
0000
,
0000
0000
0000
0000
,
0000
0000
0000
0000
,
0010
0000
0000
0100
0000
0000
0010
1000
,
0100
0010
0000
0000
0000
0010
0100
1000
,
0100
1000
0001
1000
0100
1000
0001
0010
,
0001
1000
0010
1000
0001
0010
0001
0100
,
0110
0000
0000
0000
0010
0000
0000
0100
0001
0000
1000
0000
0100
0000
0010
0000
,
0011
0000
0000
0000
0001
0000
0000
0100
0010
0000
1000
0000
0001
0000
1000
0000
,
0100
0000
0000
0000
0010
0000
0000
0100
1000
0000
0001
0000
1000
0000
0100
0000
,
1000
0001
1000
0001
1000
0001
1000
0010
0100
0010
0100
0010
,
0100
0001
0100
1000
0100
0001
0100
1000
,
0100
0010
1000
0001
0010
0100
0010
0001
1000
0001
0100
0001
,
0010
0100
1000
0100
0010
0001
0010
0000
0000
0000
0000
0000
,
2002
0000
0000
3003
,
1000
1000
0100
0000
0010
0001
0010
0000
,
0100
1000
0010
0100
0001
0010
0001
0000
,
0001
0100
0010
0000
0100
0010
1000
0000
,
0001
0000
1000
0000
0100
0000
0010
0001
0000
0010
0001
0000
1000
0000
0010
0000
,
1000
1000
0010
0000
0100
0100
0001
0000
,
1000
0000
0001
0000
0010
0000
0100
0000
1000
0000
0010
1000
0000
0100
0001
0000
,
1000
0010
0100
0010
1000
0001
0010
0100
,
0010
0010
0100
0100
0010
0010
0001
0001
,
1000
1000
0010
0010
0100
0001
1000
0010
,
0100
0000
0000
0000
0010
0000
0010
0000
1000
0000
0001
0000
0010
0000
0000
0010
,
0000
0000
0010
0000
0100
0000
1000
0000
0100
0000
1000
0000
0010
0000
0000
0010
,
0000
0000
0100
0000
0010
0000
0100
0000
0001
0000
1000
0000
0100
0000
0000
0100
,
0000
0000
0100
0000
1000
0000
0001
0000
1000
0000
0010
0100
0000
0000
0000
0000
,
0000
0000
0000
0000
0100
0000
0001
0000
0100
0000
0010
0000
1000
0000
0000
1000
,
0000
0000
1000
0000
0001
0000
0001
0000
0010
0000
0100
0000
0010
0000
0000
0001
,
0000
0000
0100
0000
0010
0000
1000
0000
0001
0000
0010
0000
0100
0000
0000
0010
,
0000
0000
0001
0000
0100
0000
0010
0000
0100
0000
0010
1000
0000
0000
0000
0000
,
0000
0000
1001
0000
0101
0000
0001
0100
,
0010
0000
1010
0000
1100
0000
1000
0001
,
0010
0000
0110
0000
1100
0000
1000
0010
,
0100
0000
0110
0000
1010
0000
1000
0001
,
0010
0000
0100
1000
0010
0100
0001
0010
,
0001
0000
0100
0010
1000
0001
0010
0001
,
1000
0000
0001
0100
0010
0100
0001
0010
,
0100
1001
0001
0100
,
0010
0000
1000
0010
0110
0000
0010
0000
,
1000
0001
0011
0000
0100
0000
1000
0000
,
0100
0010
0110
0000
0100
0000
1000
0000
,
0001
0100
0101
0000
0001
0100
0000
0100
,
0010
0000
0200
0000
0310
1000
0100
0000
,
0100
0010
0001
0000
1000
0000
1000
0000
,
1000
1000
0001
0001
0100
0000
0010
0000
,
0100
0001
0100
0001
0020
0000
0000
0000
0030
0000
0200
0000
0000
0000
0300
0000
,
0000
0020
0000
0030
0000
0002
0000
0003
,
0000
2000
0000
3000
0000
0020
0000
0030
,
0000
0200
0000
0300
0000
0020
0000
0030
,
0000
2000
0000
3000
0000
0002
0000
0003
,
0000
2000
0000
3000
0000
0200
0000
0300
,
0000
2000
0000
3000
0000
0020
0000
0030
,
0000
0200
0000
0300
0000
0020
0000
0030
,
0000
2000
0000
0000
3000
0000
0000
0000
,
0000
0000
0000
0000
0000
0000
0001
0100
,
0000
0010
0000
0000
1000
0000
0000
0010
0000
0000
1000
0000
0000
0001
0000
0000
,
0010
0000
0000
0001
0000
0000
0100
0000
0000
0001
0000
1000
0000
0000
1000
0000
,
0000
0010
0000
0000
0100
0000
0000
0010
0000
0000
1000
0000
0000
0001
0000
0000
,
0010
0000
0000
0100
0000
0000
0010
0000
0000
0001
0000
0100
0000
0000
0010
0000
,
0000
0010
0000
0000
0100
0000
0000
0100
0000
0000
0001
0000
0000
1000
0000
0000
,
0100
0000
0000
1000
0000
0000
0010
0000
0000
0100
0000
0100
0000
0000
0010
0000
,
0000
0100
0000
0000
0001
0000
0000
0010
0000
0000
0100
0000
0000
0010
0000
0000
,
0001
0000
0000
1000
0000
0000
0010
0000
0000
1000
0000
1000
0001
0000
0000
0001
,
0000
0000
0100
0000
0010
0000
0000
0010
0000
0000
0100
0000
0010
0000
0000
0010
,
0000
0000
1000
0000
0010
0000
0000
0010
0000
0000
1000
0000
0100
0000
0000
0100
,
0000
0000
1000
0000
0010
0000
0000
0010
0000
0000
0100
0000
0001
0000
0000
0010
,
0000
0000
0100
0000
1000
0000
0000
0100
0000
0000
0100
0000
1000
0000
0000
0010
,
0000
0000
0100
0000
0100
0000
0000
0010
0000
0000
1000
0000
0001
0000
0000
1000
,
0000
0000
0100
0000
1000
0000
0000
0010
0000
0000
0100
0000
0001
0000
0000
1000
,
0000
0000
0100
0000
0010
0000
0000
0010
0000
0000
0100
0000
1000
0000
0000
1000
,
0000
0000
0001
0000
0100
0000
0000
0010
0000
0000
1000
0000
0001
0000
0100
0000
,
0010
0000
0100
0010
1000
0000
1000
0100
,
0010
0000
0010
0001
0010
0000
0001
0100
,
0010
0000
0100
0010
1000
0000
0001
0010
,
0100
1000
0100
0010
0100
1000
0000
0000
;

//---------------dance-single - ----------------
#NOTES:
     dance-single:
     :
     Challenge:
     11:
     0.757,0.955,0.196,0.188,0.833:
0000
0000
0000
0000
,
0000
0000
0000
0000
,
0000
0000
0000
0000
,
0000
0000
0000
0000
,
0000
0000
0000
0000
,
1000
0000
0000
0100
0000
0000
0100
1000
,
0001
0010
0000
0000
0000
0001
0010
0100
,
0010
0001
0010
0100
1000
0100
1000
0100
,
1000
0010
0100
0001
0010
0100
1000
0001
,
1001
0000
0000
0000
0000
0000
0000
0000
0000
0000
0000
0000
0000
0000
0000
0000
0000
0000
0000
0000
0000
0000
0000
0100
,
0001
0000
0000
0000
0000
0000
0000
0000
0000
0000
0000
0000
0000
0000
0000
0000
0000
0000
0000
0000
0000
0000
0000
0000
0000
0000
0000
0100
0000
0000
0000
0000
0000
0000
0000
0000
0000
0000
0010
0000
0000
0000
0000
0000
0000
0000
0000
0000
,
1000
0000
0000
0100
0000
0000
0010
0000
0001
0000
0010
0000
0100
0000
1000
0000
,
1000
0001
0100
0001
1000
0100
1000
0010
1000
0001
0010
0100
,
1000
0100
1000
0100
1000
0100
0010
0001
0010
0001
0010
0001
1000
0001
1000
0001
,
0100
0001
0100
0010
0100
0001
0010
0100
1000
0100
0010
0001
,
1000
0100
0010
0001
1000
0100
0010
0000
0000
0000
0000
0000
,
0001
0100
0001
0100
0000
0100
0010
1000
0001
0010
0100
1000
0100
0010
0000
0010
,
0001
1000
0001
1000
0001
0100
0000
0100
0010
0000
0010
1000
0010
1000
0100
0000
,
0100
0010
0000
0100
0000
0100
1000
0001
0100
0001
0010
0100
1000
0100
0010
0001
,
1000
0001
0100
0001
1000
0100
1000
0001
0010
0100
1000
0100
1000
0001
0100
0001
,
0010
0100
0010
0100
0010
0000
1000
0001
0000
0100
0010
0000
0100
0000
0001
0000
,
1000
0001
0100
0001
0000
0100
0000
0100
0010
0000
1000
0001
1000
0010
1000
0010
,
1000
0100
0000
0010
0000
0010
0001
0010
0100
0000
1000
0100
0000
1000
0100
0000
,
1000
0100
0010
0001
0010
0100
0010
0001
0020
0000
0000
0130
1000
0001
1000
0001
,
1001
0000
0110
0000
0110
0000
1001
0000
0010
0100
0000
0001
1000
0000
0010
0100
,
0001
1000
0001
0000
1000
0000
0100
0000
0010
0000
1000
0000
0001
0000
0010
0000
,
0100
0000
0000
0000
1000
0000
0100
0000
1000
0000
0100
0000
1000
0000
0000
0001
,
0000
0000
0100
0000
0010
1000
0010
0000
0100
0000
0001
0000
0010
0100
0000
0100
,
0000
0000
0010
0000
0001
0000
0100
0000
0001
0000
0100
0000
1000
0000
0000
0100
,
0000
0000
0010
0000
0100
0010
0000
0100
0010
0000
0200
0020
0000
0000
0300
0000
,
0030
0000
0000
0000
0100
0000
0001
0000
0010
0000
0100
0000
1000
0000
0000
0100
,
0000
0000
1000
0000
1000
0010
1000
0000
0010
0000
0100
0000
0001
0100
0000
0010
,
0000
0000
0100
0000
0010
0000
0100
0000
0001
0000
1000
0000
0100
0000
0000
0010
,
0000
0000
0100
0000
1100
0000
0110
0000
0011
0000
0001
0100
0020
0230
0320
0230
,
0020
0000
0330
0100
0010
1000
0000
1000
0001
0010
0000
0100
1000
0001
1000
0001
,
0100
0000
0000
0000
0000
0000
0000
0000
0000
0010
0000
0000
1000
0000
0000
0001
0000
0000
0010
0000
0000
0000
0000
0000
0000
0000
0000
0000
0000
0000
0100
0000
0000
0000
0000
0000
1000
0000
0000
0000
0001
0000
0000
0000
0100
0000
0000
0000
,
0001
0000
1000
0001
0100
0000
0000
0000
0000
0000
0010
0100
0000
0100
0000
0001
,
0000
0000
0001
0010
0100
0000
0110
0000
0000
0000
0100
1000
0001
0000
0101
0000
,
0000
0000
0001
0100
1000
0100
0001
0100
,
1000
0100
0001
0010
1000
0010
0001
0010
,
1000
0010
0001
0100
1000
0100
0001
0010
,
1000
0000
0000
0000
0000
0000
0000
0000
0010
0000
0000
0000
0000
0000
0000
0000
0022
0033
0000
0000
0000
0000
0000
0000
0000
0000
0000
0000
0000
0000
0000
0000
0001
0000
0000
0000
0000
0000
0000
0000
0100
0000
0000
0000
0000
0000
0000
0000
0000
0000
0000
0000
0010
0000
0000
0000
0000
0000
0000
0000
0000
0000
0000
0000
,
1000
0000
1000
0010
0100
0001
0010
0000
0100
0000
1000
0000
0000
0010
0000
0000
,
0100
0000
0010
1000
0001
0000
0000
0000
1000
0000
0001
0000
0000
0010
0000
0010
,
0100
0000
0100
1000
0000
1000
0010
0000
0100
0000
0001
0000
0100
0000
0010
0000
,
1000
0000
1000
0001
1000
0000
0000
0000
0010
0000
0101
0000
0000
0000
1100
0000
,
0100
0000
0000
0010
0000
0000
0001
1000
0001
1000
0001
1000
0001
0000
0000
0100
0000
0000
1000
0000
0000
0000
0000
0000
,
1000
0000
0100
0000
0001
0000
0000
0000
0001
0001
0100
0000
0010
0000
1000
0000
,
1100
0000
1001
0000
0101
0000
0011
0000
0001
0010
0100
0000
0100
1000
0000
1000
,
0002
0203
0302
0203
0320
0000
0000
0030
0000
0000
0100
0000
0010
0000
0100
0000
,
0000
0100
0010
0100
0000
0001
1000
0001
,
0000
0100
0010
0100
0000
0001
0100
0001
,
0000
0001
0100
0001
0000
0001
0100
0010
,
0000
0100
0010
1000
0000
0100
1000
0100
,
0000
0100
1000
0100
0000
0100
0010
0100
,
0000
0100
1000
0100
0000
1000
0010
0100
,
0000
0100
0010
1000
0000
0001
0010
0100
,
0000
0100
1000
0010
0200
0000
0300
0000
,
0000
0000
0000
0000
0000
0000
0000
0000
0000
0000
0000
0000
0001
1000
0001
0000
,
0001
0100
0000
0100
0010
0000
0010
1000
0000
1000
0100
0000
0100
0010
0000
0010
,
0001
0000
0001
0100
0000
0100
0010
0000
0100
0001
0000
1000
0000
0000
1000
0000
,
1000
0100
0000
0010
0001
0000
0001
0100
0000
0010
1000
0000
1000
0001
0000
0001
,
0010
0000
0100
1000
0000
1000
0100
0000
0010
0001
0000
1000
0000
0000
0010
0000
,
0100
0001
0000
0001
0010
0000
0010
0100
0000
0010
0001
0000
0001
0100
0000
0010
,
1000
0000
1000
0100
0000
0100
0010
0000
0100
0010
0000
0010
0000
0000
0100
0000
,
0100
1000
0000
1000
0010
0000
0010
0100
0000
0100
0010
0000
0010
1000
0000
1000
,
0100
0000
0100
1000
0000
1000
0010
0000
0100
0001
0000
1000
1100
0000
0000
0100
,
0000
0000
0010
0000
0011
0000
0000
0001
0000
0000
0100
0000
0110
0000
0000
0010
,
0000
0000
1000
0000
1001
0000
0000
0001
0000
0000
0010
0000
0110
0000
0000
0100
,
0000
0000
1000
0000
1010
0000
0000
0010
0000
0000
0100
0000
0101
0000
0000
0001
,
0000
0000
1000
0000
1100
0000
0000
0100
0000
0000
1000
0000
0020
0000
0000
1000
,
0000
0000
0100
0000
0230
0000
0000
1000
0000
0000
1000
0000
2300
0000
0000
0100
,
0000
0000
0100
0000
3020
0000
0000
0100
0000
0000
0100
0000
0230
0000
0000
0010
,
0000
0000
0010
0000
0320
0000
0000
1000
0000
0000
0100
0000
0230
0000
0000
0001
,
0000
0000
0001
0000
0302
0000
0000
0010
0000
0000
0010
0000
0013
0000
0001
0000
,
0100
0000
0010
1000
0010
0000
0100
0000
0001
0000
0010
0100
1000
0000
0100
0000
,
0010
0000
0001
0010
0100
0000
0010
0000
0001
0000
1000
0001
1000
0000
0010
0000
,
1000
0000
0100
0010
0100
0000
0010
0000
0100
0000
1000
0000
0001
0100
0010
1000
,
0001
0010
0100
0010
0001
0100
0010
1000
0100
0010
0001
0010
0100
0000
0000
0000
;

//---------------dance-single - ----------------
#NOTES:
     dance-single:
     :
     Medium:
     7:
     0.404,0.492,0.117,0.157,0.125:
0000
0000
0000
0000
,
0000
0000
0000
0000
,
0000
0000
0000
0000
,
0000
0000
0000
0000
,
0000
0000
0000
0000
,
1000
0000
0000
0100
0000
0000
0010
0000
,
0001
0000
0000
0001
,
0010
0100
1000
0100
,
0010
0001
0010
0100
,
1001
0000
0000
0000
,
0110
0000
0000
0010
,
1000
0010
0100
0001
,
1000
1000
1000
1000
,
0001
1000
0001
1000
0001
1000
0001
1000
,
0001
0001
0001
0001
,
0001
0001
0001
0000
,
2200
0000
3000
0300
,
0100
1000
0010
0000
0100
0000
0010
0000
,
0100
0010
1000
0000
0010
1000
0010
0000
,
1000
0100
0010
0001
0010
0100
1000
0000
,
0001
1000
0001
1000
0001
1000
0001
0001
,
0100
0000
0010
0000
1000
0000
0010
0010
,
0100
0010
1000
1000
,
0001
0100
0010
1000
,
0100
0010
0100
0010
0110
0000
0110
0000
,
0010
0100
1000
0000
0100
1000
0010
0100
,
0001
0000
1000
0001
0100
0000
0001
0000
,
0101
0000
0001
0100
1000
0000
1000
0100
,
0001
0000
0001
0010
0100
0000
0010
0000
,
0110
0000
0100
1000
0100
1000
0000
0000
,
0000
0000
1000
0010
0100
0000
0010
0000
,
0110
0000
0010
0001
0010
1000
0010
0000
,
0110
0000
0010
1000
0100
0000
0010
0000
,
0011
0000
0001
0001
1000
0001
0000
0000
,
0000
0000
0001
0000
0100
0000
0010
0100
,
0010
0000
0100
0000
0010
0000
1000
0010
,
1000
0000
0100
0000
0010
0000
0001
0010
,
0001
0000
0100
0000
0010
0000
1000
0001
,
1000
0000
0000
0001
0000
1000
0000
0001
,
0000
1000
0000
1001
0000
1001
0000
1001
,
0000
1001
0000
0010
0000
0010
0000
0010
,
0000
0010
0100
0000
0010
0000
1000
0000
,
0010
0000
0001
0010
0100
0000
0010
0000
,
1000
0001
1001
0000
0001
0000
1000
0000
,
0100
1000
0010
0000
0100
0000
0010
0000
,
1000
0001
0100
0000
0001
0100
0000
0100
,
0010
0000
0200
0000
0310
1000
0001
0000
,
0001
0010
0100
0000
0010
0000
0001
0000
,
1000
0001
1000
0001
1000
0000
0010
0000
,
0100
0100
0200
0000
0320
0000
0000
0000
,
0000
0000
2030
0000
,
0000
0000
3200
0000
,
0000
0000
2300
0000
,
0000
0000
3002
0000
,
0000
0000
0203
0000
,
0000
0000
0320
0000
,
0000
0000
2030
0000
,
0000
0000
3000
0000
,
0000
0000
0000
0000
0000
0000
0000
1000
,
0000
0001
0000
0000
1000
0000
0000
0001
0000
0000
1000
0000
0000
0001
0000
0000
,
1000
0000
0000
0001
0000
0000
1000
0000
0000
0001
0000
1000
0000
0000
0010
0000
,
0000
0100
0000
0000
0010
0000
0000
0100
0000
0000
0010
0000
0000
0100
0000
0000
,
0010
0000
0000
0100
0000
0000
0010
0000
0000
0100
0000
0010
0000
0000
1000
0000
,
0000
0010
0000
0000
1000
0000
0000
0010
0000
0000
1000
0000
0000
0010
0000
0000
,
1000
0000
0000
0010
0000
0000
1000
0000
0000
0010
0000
1000
0000
0000
0100
0000
,
0000
0010
0000
0000
0001
0000
0000
0010
0000
0000
0100
0000
0000
1000
0000
0000
,
0001
0000
0000
0100
0000
0000
0001
0000
0000
0010
0000
0001
0010
0000
0000
0001
,
0000
0000
0100
0000
0020
0000
0000
0000
1030
0000
0000
0000
1000
0000
0000
0001
,
0000
0000
0010
0000
0200
0000
0000
0000
0310
0000
0000
0000
0100
0000
0000
1000
,
0000
0000
0010
0000
0200
0000
0000
0000
0301
0000
0000
0000
0001
0000
0000
1000
,
0000
0000
0010
0000
2000
0000
0000
0000
3100
0000
1000
0000
0010
0000
0000
0100
,
0000
0000
0010
0000
2000
0000
0000
0000
3001
0000
0000
0000
0001
0000
0000
0010
,
0000
0000
0100
0000
0020
0000
0000
0000
0031
0000
0000
0000
0001
0000
0000
0100
,
0000
0000
0010
0000
2000
0000
0000
0000
3100
0000
0000
0000
1000
0000
0000
0001
,
0000
0010
0200
0000
0310
0000
0100
0010
,
0001
0000
0001
1000
0001
0000
0001
0100
,
0010
0000
0100
0010
0100
0000
0010
1000
,
0001
0000
0001
0010
0100
0000
0100
1000
,
0010
0000
0100
0001
1000
0001
0000
0000
;

//---------------dance-single - ----------------
#NOTES:
     dance-single:
     :
     Easy:
     4:
     0.316,0.461,0.258,0.149,0.000:
0000
0000
0000
0000
,
0000
0000
0000
0000
,
0000
0000
0000
0000
,
0000
0000
0000
0000
,
0000
0000
0000
0000
,
1000
0000
0000
0001
,
0001
0000
0000
0100
,
0010
0100
0010
0100
,
0001
0100
1000
0100
,
0110
0000
0000
0000
,
1001
0000
0000
0001
,
1000
0100
1000
0001
,
0100
0100
0100
0100
,
0010
0010
0010
0010
,
0100
0001
0010
0100
,
0010
0001
1000
0000
,
0110
0000
0000
0000
,
0010
1000
0010
1000
,
0001
0100
0001
0100
,
0001
0010
0100
1000
,
1100
0100
0110
0010
,
0011
0001
0100
0020
,
0130
0010
2000
3002
,
1003
0100
0010
0001
,
1100
0011
0101
1010
,
0110
1001
0001
0001
,
0001
1000
0001
0100
,
0001
1000
0100
1000
,
0001
0100
0001
1000
,
0100
1000
1000
1000
,
0000
0001
1000
0010
,
1000
0001
0010
0001
,
1000
0010
1000
0001
,
0010
0110
0110
0110
,
0000
1001
0001
1000
,
1000
0010
0100
0010
,
0010
0100
0010
1000
,
0001
0010
0000
0100
,
0000
1000
0001
1000
,
0001
0100
0010
0100
,
0010
0100
0001
0010
,
0100
1100
1000
0100
,
0010
0011
0001
0010
,
0100
1100
1000
0010
,
0100
0110
0010
1000
,
1001
0110
0001
0000
,
1000
0002
0103
0000
,
0110
0000
0010
0100
,
0010
0100
0010
0000
0100
0000
0010
0000
,
1000
0001
2000
0000
3100
0000
0000
0000
,
0000
0000
0000
0000
,
0000
0000
0000
0000
,
0000
0000
0000
0000
,
0000
0000
0000
0000
,
0000
0000
0000
0000
,
0000
0000
0000
0000
,
0000
0000
0000
0000
,
0000
0000
1001
0000
,
0000
0000
0000
0001
,
0100
0001
0100
0010
,
0100
0010
0100
0010
,
1000
0010
1000
0100
,
1000
0100
1000
0100
,
0010
0100
0010
0001
,
0010
0001
0010
0001
,
0100
0010
1000
2002
,
0000
0000
3003
0002
,
0103
0100
0010
2000
,
3010
0100
0010
2000
,
3100
1000
0010
0200
,
0310
1000
0001
0011
,
0001
0010
0100
1100
,
1000
0010
0100
0110
,
0010
0110
0100
0110
,
1001
0110
1001
0002
,
0003
2000
3000
0020
,
0030
0200
0300
0020
,
0030
2000
3000
0002
,
0003
0000
0020
0000
0000
0030
0000
0000
;

//---------------dance-single - ----------------
#NOTES:
     dance-single:
     :
     Beginner:
     1:
     0.101,0.184,0.016,0.000,0.000: // measure 1
0000
0000
0000
0000
,  // measure 2
0000
0000
0000
0000
,  // measure 3
0000
0000
0000
0000
,  // measure 4
0000
0000
0000
0000
,  // measure 5
0000
0000
0000
0000
,  // measure 6
0000
0000
0000
0000
,  // measure 7
0000
0000
0000
0000
,  // measure 8
0000
0000
0000
0000
,  // measure 9
0000
0000
0000
0000
,  // measure 10
0010
0000
0000
0000
,  // measure 11
0100
0000
0000
0000
,  // measure 12
0001
0000
0000
0000
,  // measure 13
1000
0000
1000
0000
,  // measure 14
0001
0000
0001
0000
,  // measure 15
0100
0000
0010
0000
,  // measure 16
1000
0000
0001
0000
,  // measure 17
0001
0000
0000
0000
,  // measure 18
1000
0000
0000
0000
,  // measure 19
0010
0000
0000
0000
,  // measure 20
0100
0000
0000
0000
,  // measure 21
0001
0000
1000
0000
,  // measure 22
1001
0000
0000
0000
,  // measure 23
0010
0000
0100
0000
,  // measure 24
0010
0000
0000
0000
,  // measure 25
1000
1000
1000
0000
,  // measure 26
0000
0000
0001
0000
,  // measure 27
0000
0100
0000
0000
,  // measure 28
0000
0010
0000
0000
,  // measure 29
0000
1000
0000
0000
,  // measure 30
0000
0001
0001
0001
,  // measure 31
0000
1000
0000
0000
,  // measure 32
0000
0010
0000
0000
,  // measure 33
0000
0100
0000
0000
,  // measure 34
0000
0010
0010
0010
,  // measure 35
0000
0100
0000
0000
,  // measure 36
0000
0001
0000
0000
,  // measure 37
0000
1000
0000
0000
,  // measure 38
0000
1000
0000
1000
,  // measure 39
0000
0100
0000
0000
,  // measure 40
0000
0010
0000
0000
,  // measure 41
0000
0001
0000
0000
,  // measure 42
0000
0000
1000
0000
,  // measure 43
0000
0000
0001
0000
,  // measure 44
0000
0000
0100
0000
,  // measure 45
0000
0000
0010
0000
,  // measure 46
0000
0000
0100
0000
,  // measure 47
0000
0010
0100
0000
,  // measure 48
0001
0000
0000
0000
,  // measure 49
1000
1000
0001
0000
,  // measure 50
0100
0000
0110
0000
,  // measure 51
0000
0000
0000
0000
,  // measure 52
0000
0000
0000
0000
,  // measure 53
0000
0000
0000
0000
,  // measure 54
0000
0000
0000
0000
,  // measure 55
0000
0000
0000
0000
,  // measure 56
0000
0000
0000
0000
,  // measure 57
0000
0000
0000
0000
,  // measure 58
0000
0000
0000
0000
,  // measure 59
0000
0000
0000
0010
,  // measure 60
0000
0000
0000
1000
,  // measure 61
0000
0001
0000
0100
,  // measure 62
0000
0000
0000
0010
,  // measure 63
0000
1000
0000
1000
,  // measure 64
0000
0000
0000
0001
,  // measure 65
0000
1000
0000
0100
,  // measure 66
0000
0000
0000
1000
,  // measure 67
0000
0010
0000
0100
,  // measure 68
0000
0000
0000
0001
,  // measure 69
0000
0000
0000
1000
,  // measure 70
0000
0000
0000
0100
,  // measure 71
0000
0100
0000
0010
,  // measure 72
0000
0000
0000
0001
,  // measure 73
0000
0000
0000
1000
,  // measure 74
0000
0001
0000
1000
,  // measure 75
0001
1000
0001
0100
,  // measure 76
0000
0000
0000
0010
,  // measure 77
0000
0000
0000
1000
,  // measure 78
0000
0000
0000
0001
,  // measure 79
0000
1000
0000
0000
;
