#TITLE:Farore Lies in Wait;
#SUBTITLE:;
#ARTIST:chthonic;
#TITLETRANSLIT:;
#SUBTITLETRANSLIT:;
#ARTISTTRANSLIT:;
#CREDIT:;
#BANNER:bn.png;
#BACKGROUND:bg.png;
#LYRICSPATH:;
#CDTITLE:;
#MUSIC:Farore Lies in Wait.mp3;
#OFFSET:-7.031;
#SAMPLESTART:22.920;
#SAMPLELENGTH:12.000;
#SELECTABLE:YES;
#BPMS:0.000=136.000;
#STOPS:164.000=1.329
;
#BGCHANGES:;

//---------------dance-single - ----------------
#NOTES:
     dance-single:
     :
     Hard:
     8:
     0.413,0.432,0.160,0.018,0.053:
0000
1000
0100
0010
0100
1000
0000
1000
,
0000
0001
0100
0001
0000
0000
0000
0000
,
0000
0001
0100
0010
0100
0010
0000
0100
,
0000
0010
1000
0001
0000
0000
0000
0000
,
0000
1000
0100
0010
0100
0010
0000
0001
,
0000
1000
0010
0100
0000
0100
0001
0100
,
0010
0010
0010
0010
,
0010
0010
0010
0010
,
0020
0000
0000
0030
,
1001
0001
0100
0001
0000
0001
0100
0010
,
0000
0000
0010
0000
0100
0000
0001
0000
0000
0000
1000
0001
1000
0000
0000
0000
,
0000
1000
0010
0100
0000
0100
0010
0100
,
0000
0000
0100
0000
0010
0000
1000
0000
0000
0000
1000
0001
1000
0000
0000
0000
,
0000
0100
0010
0001
0000
0001
0010
0001
,
0000
0000
0010
0000
0001
0000
0100
0000
0000
0000
0010
1000
0010
0000
0000
0000
,
0000
0100
0010
1000
0000
0010
0100
0001
,
0000
0000
0010
0000
0100
0000
1000
0000
0000
0000
0001
0100
0001
0000
0000
0000
,
0000
0001
0100
0100
0001
1000
0000
0100
,
0000
0000
1000
0000
0010
0100
0010
0000
0000
0000
0000
0000
0000
0000
0000
0000
,
0000
0100
0010
0010
1000
0100
0000
1000
,
0000
0000
0001
0000
0100
0001
0100
0000
0000
0000
0000
0000
0000
0000
0000
0000
,
0000
0001
0100
1000
0100
0010
0000
1000
,
0000
0010
0100
0001
0000
1000
0001
0020
,
0000
0000
0000
0000
,
0000
0000
0000
0000
,
0031
0010
0001
0100
,
0010
0000
0000
0000
1000
0000
0000
0000
0001
0000
0100
0001
0100
0000
0000
0000
,
0010
0010
0100
0100
,
0010
0000
0000
0000
1000
0000
0000
0000
0010
0000
0100
0001
0100
0000
0000
0000
,
0001
1000
0100
1000
,
0010
0000
0000
0000
0100
0000
0000
0000
0001
0000
1000
0001
1000
0000
0000
0000
,
0001
0100
1000
0100
,
0010
0000
0000
0000
1000
0000
0000
0000
0010
0000
0100
0010
0100
0000
0000
0000
,
0010
1000
0100
0001
,
0100
0000
0000
0000
1000
0000
0000
0000
0010
0000
0100
0010
0100
0000
0000
0000
,
0010
1000
0010
0001
,
0010
0000
0000
0000
0100
0000
0000
0000
0010
0000
1000
0001
1000
0000
0000
0000
,
0001
0100
0010
0000
0100
0010
1000
0000
,
0001
0100
0010
0000
1000
0001
1000
0000
,
1000
0100
0001
0100
1000
0010
0001
0010
,
0100
0001
1000
0001
0010
0001
0100
0010
,
1000
1001
0100
0101
,
0010
1010
0010
0110
,
0010
1001
0100
0110
,
0010
1010
0001
0101
,
0001
1001
0100
1001
,
0100
1001
0100
1001
,
0001
0101
0010
0101
,
0010
0101
1000
0101
,
1000
0000
0100
1000
0100
1000
0100
0010
,
0100
0010
0100
1000
0100
1000
0001
1000
,
0001
1000
0001
0100
0001
0100
0010
0100
,
0010
0100
0010
1000
0010
1000
0010
0100
,
0010
0100
0010
1000
0010
1000
0010
0100
,
0010
0100
0001
0100
0001
0100
0001
0010
,
0001
0010
0001
0010
0100
1000
0001
0010
,
0100
1000
0100
0010
0001
0010
0100
1000
,
0100
0010
0110
0000
0000
0000
0000
0000
;

//---------------dance-single - ----------------
#NOTES:
     dance-single:
     :
     Medium:
     6:
     0.338,0.432,0.124,0.319,0.000:
1000
0001
0100
0001
,
0010
0000
0100
0100
0000
0000
0000
0000
,
0000
0010
0001
1000
,
0001
0000
0100
0100
0000
0000
0000
0000
,
0000
0000
0001
0000
1000
0000
0100
1000
,
0000
0100
0000
1000
0000
0010
0100
0020
,
0000
0000
0000
0000
,
0000
0000
0000
0000
,
0030
0000
0000
0000
,
0000
1000
0001
1000
0000
0001
1000
0001
,
0000
1000
0001
1000
0000
0010
0010
0000
,
0000
0100
0010
0100
0000
0010
0100
0010
,
0000
0100
0010
0100
0000
0001
0001
0000
,
0000
1000
0100
1000
0000
0100
1000
0100
,
0000
1000
0100
1000
0000
0100
0100
0000
,
0000
1000
0010
1000
0000
0010
1000
0010
,
0000
1000
0010
1000
0000
0100
0100
0000
,
0000
1000
0100
0000
0010
0000
0000
0001
,
0000
0000
0010
0002
0000
0000
0003
0000
,
0000
0001
0100
0000
0010
0000
0000
0100
,
0000
0000
0010
2000
0000
0000
0000
3000
,
0000
1000
0001
0100
0001
0100
0000
0001
,
0000
0100
0000
1000
0000
0100
0010
2000
,
0000
0000
0000
0000
,
0000
0000
0000
3000
,
0001
1000
0001
1000
,
0010
0000
0100
0000
0001
0100
0010
0000
,
0100
0010
1000
0100
,
0010
0000
0100
0000
1000
0010
0100
0000
,
0010
0001
0010
1000
,
0010
0000
0100
0000
0010
1000
1000
0000
,
0010
0100
0001
1000
,
0100
0000
1000
0000
0010
0100
0001
0000
,
0010
0100
0010
0001
,
1000
0000
0010
0000
0100
0001
0100
0000
,
0010
1000
0100
0010
,
0100
0000
1000
0000
0010
0100
0010
0000
,
0110
0010
1001
0010
,
0101
0010
1100
0010
,
0101
1100
1010
0011
,
1001
0110
1001
0110
,
1001
0000
0002
0000
0000
0003
0200
0000
,
0000
0300
0020
0000
0000
0030
2000
0000
,
0000
3000
0200
0000
0000
0300
2000
0000
,
0000
3000
0200
0000
0000
0300
2000
0000
,
0000
3000
0200
0000
0000
0300
0020
0000
,
0000
0030
0002
0000
0000
0003
0020
0000
,
0000
0030
0200
0000
0000
0300
2000
0000
,
0000
3000
0002
0000
0000
0003
0200
0000
,
0000
0300
0020
0000
1030
0000
0020
0000
,
0031
0020
0130
0020
,
1030
0002
0013
0002
,
0103
2000
3100
0020
,
1030
0000
0020
0000
0130
1000
0020
0000
,
1030
0001
0002
0000
0013
0100
2000
0000
,
3001
0100
0020
0000
1030
0001
0200
0000
,
0310
1000
0002
0000
0013
0100
2000
0000
,
3001
0100
0101
0000
0000
0000
0000
0000
;

//---------------dance-single - ----------------
#NOTES:
     dance-single:
     :
     Easy:
     3:
     0.228,0.355,0.177,0.319,0.000:
1000
0000
0001
0000
,
0100
0100
0100
0000
,
0001
0000
1000
0000
,
0010
0010
0010
0000
,
1000
0000
0001
0000
,
0100
0000
0001
0000
,
0010
0000
0010
0000
,
0010
0000
0010
0000
,
0020
0000
0000
0030
,
0001
0000
1000
0000
,
0010
0000
0100
0001
,
0100
0000
0001
0000
,
1000
0000
0100
1000
,
0100
0000
1000
0000
,
0010
0000
0100
0001
,
0100
0000
0010
0000
,
0100
0000
0001
1000
,
0200
0000
0000
0000
,
0000
0000
0000
0000
0000
0000
0000
0300
,
0020
0000
0000
0000
,
0000
0000
0000
0030
,
0001
1000
0001
1000
,
0010
1000
0010
0100
,
0002
0000
0000
0000
,
0000
0000
0000
0003
,
1000
0000
0100
0000
,
1000
0000
0010
0100
,
0010
0000
0100
0000
,
0001
0000
1000
0001
,
1001
0000
0001
0000
,
1000
0000
0010
0000
,
0110
0000
0010
0000
,
0100
0000
0001
0000
,
1001
0000
1000
0000
,
0101
0001
0001
0000
,
0101
0000
0100
0000
,
0110
0000
0010
0010
,
0110
0000
1001
0000
,
0101
0000
1001
0000
,
1100
0011
0101
1010
,
1001
1001
0110
0110
,
1001
0002
0003
0200
,
0300
0020
0030
2000
,
3000
0200
0300
2000
,
3000
0200
0300
2000
,
3000
2000
3000
0002
,
0003
2000
3000
0002
,
0003
0020
0030
0002
,
0003
0020
0030
0002
,
0003
0002
0000
0200
,
0303
0200
0000
0020
,
0330
0020
0000
2000
,
3030
2000
0000
0200
,
3300
0200
0000
2000
,
3300
2000
0000
0002
,
3003
0002
0000
0200
,
0303
0200
0000
0002
,
0303
1001
0000
0000
;

//---------------dance-single - ----------------
#NOTES:
     dance-single:
     :
     Beginner:
     1:
     0.071,0.127,0.018,0.000,0.000: // measure 1
0010
0000
0000
0000
,  // measure 2
0000
0000
0000
0000
,  // measure 3
1000
0000
0000
0000
,  // measure 4
0000
0000
0000
0000
,  // measure 5
0001
0000
0000
0000
,  // measure 6
0000
0000
0000
0000
,  // measure 7
1000
0000
0000
0000
,  // measure 8
0000
0000
0000
0000
,  // measure 9
0000
0000
0000
0000
,  // measure 10
1001
0000
0000
0000
,  // measure 11
0000
0000
0000
0100
,  // measure 12
0100
0000
0000
0000
,  // measure 13
0000
0000
0000
0010
,  // measure 14
0010
0000
0000
0000
,  // measure 15
0000
0000
0000
1000
,  // measure 16
1000
0000
0000
0000
,  // measure 17
0000
0000
0000
0001
,  // measure 18
0100
0000
0000
0000
,  // measure 19
0000
0000
0000
0000
,  // measure 20
0001
0000
0000
0000
,  // measure 21
0000
0000
0000
0000
,  // measure 22
1000
0000
0000
0000
,  // measure 23
0100
0000
0000
0000
,  // measure 24
1000
0000
0000
0000
,  // measure 25
0010
0000
0000
0000
,  // measure 26
0100
0000
0000
0000
,  // measure 27
0000
0000
0000
0000
,  // measure 28
0001
0000
0000
0000
,  // measure 29
0000
0000
0000
0000
,  // measure 30
1000
0000
0000
0000
,  // measure 31
0000
0000
0000
0000
,  // measure 32
0001
0000
0000
0000
,  // measure 33
0100
0000
0000
0000
,  // measure 34
0100
0000
0000
0000
,  // measure 35
0010
0000
0000
0000
,  // measure 36
0100
0000
0000
0000
,  // measure 37
0001
0000
0000
0000
,  // measure 38
1000
0000
1000
0000
,  // measure 39
1000
0000
1000
0000
,  // measure 40
0001
0000
0001
0000
,  // measure 41
0001
0001
1000
1000
,  // measure 42
0000
0010
0000
0000
,  // measure 43
0000
0100
0000
0000
,  // measure 44
0000
0001
0000
0000
,  // measure 45
0000
1000
0000
0000
,  // measure 46
0000
0001
0000
0000
,  // measure 47
0000
0100
0000
0000
,  // measure 48
0000
0001
0000
0000
,  // measure 49
0000
1000
0000
0000
,  // measure 50
0000
0001
0000
0000
,  // measure 51
0000
0100
0000
0000
,  // measure 52
0000
0001
0000
0000
,  // measure 53
0000
1000
0000
0000
,  // measure 54
0000
0100
0000
0000
,  // measure 55
0000
1000
0000
0000
,  // measure 56
0000
0010
0000
0000
,  // measure 57
0000
0100
0000
0000
,  // measure 58
0000
1001
0000
0000
;
