#TITLE:FIRST OF THE YEAR;
#SUBTITLE:(EQUINOX);
#ARTIST:SKRILLEX;
#TITLETRANSLIT:;
#SUBTITLETRANSLIT:;
#ARTISTTRANSLIT:;
#CREDIT:;
#BANNER:bn.png;
#BACKGROUND:bg.png;
#LYRICSPATH:;
#CDTITLE:;
#MUSIC:FIRST OF THE YEAR (EQUINOX).mp3;
#OFFSET:-0.156;
#SAMPLESTART:66.360;
#SAMPLELENGTH:12.000;
#SELECTABLE:YES;
#BPMS:0.000=145.000,156.000=580.000,172.000=145.000;
#STOPS:;
#BGCHANGES:;

//---------------dance-single - ----------------
#NOTES:
     dance-single:
     :
     Hard:
     9:
     0.478,0.707,0.154,0.372,0.513:
0000
0000
0000
0000
,
0000
0000
0000
0000
,
0000
0000
0000
0000
,
0000
0000
0000
0000
,
0000
0000
0000
0000
,
0000
0000
0000
0000
,
0000
0000
0000
0000
,
0000
0000
0000
0000
,
1000
0000
0001
0100
0000
0000
0010
0000
0000
0010
0000
0010
,
0100
0000
0000
0010
1000
0010
2000
0000
0000
0000
0000
0000
,
3100
0000
0100
0010
0000
0000
0001
0000
0000
1000
0000
0000
,
0010
0000
0100
0001
0010
0001
0010
0000
0010
0100
0010
0100
,
1000
0000
1000
0010
0000
0000
0100
0000
0000
0100
0000
0000
,
0100
0020
2030
3200
,
0310
0000
0000
0001
0000
0000
0100
0000
0000
1000
0000
1000
,
0100
0001
0010
0100
,
0010
0000
0010
0100
0000
0000
2000
0000
0000
0000
0000
0000
,
3001
0000
0001
0200
0000
0000
1000
0000
0000
0010
0000
0000
,
0301
0000
1000
0100
0000
0000
2000
0000
0000
0000
0000
0000
,
3010
0000
1000
0000
0001
0000
0010
0000
0100
1000
0010
0100
,
0010
0000
0100
0001
0000
0000
1000
0000
0000
1000
0000
0000
,
1000
0002
0203
2300
,
3100
0100
0100
0100
,
0100
0010
0100
0010
0100
0001
1000
0100
0001
0100
1000
0001
,
0010
0000
0000
0010
0000
0000
0010
0000
0000
0010
0000
0010
,
0010
0000
0000
0010
0000
0000
0010
0000
0000
0000
0001
0000
,
1001
0000
0001
0100
0000
0000
0010
0000
0000
1000
0000
1000
,
0100
0000
0000
1000
0000
0010
0100
0000
0100
0001
0010
0001
,
1001
0000
0001
0001
0000
0000
1000
0000
0000
0010
0000
0000
,
0001
0000
0000
0001
0010
1000
0010
0000
0010
0000
1000
0001
,
0100
0000
0001
0010
0100
0000
0000
0000
0000
0000
1000
0000
,
0001
0000
0000
0010
0000
0000
0100
0000
1000
0000
0100
0000
,
0010
0000
0001
0200
0000
0000
0310
0000
0000
0100
0010
1000
,
0100
0000
0000
1000
0001
1000
0002
0000
0000
0000
0000
0000
,
0013
0000
0001
2000
0000
0000
3020
0000
0000
0000
0000
0000
,
0030
0000
0100
0010
0010
1000
0001
0000
0001
0010
0100
0010
,
0001
0000
1000
0010
0000
0000
0110
0000
0000
0101
0000
0000
,
1100
0000
0000
1000
0001
0010
0100
0000
0010
0001
1000
0100
,
1000
0000
1000
0100
0000
0010
0001
0000
0001
0100
1000
0010
,
0200
0000
0000
0000
,
0000
0000
0000
0000
,
0000
0000
0000
0000
,
0000
0000
0000
0000
,
0310
0000
0000
0101
0000
0000
2000
0000
0000
3001
0010
1000
,
0010
0001
0100
0010
1000
0100
0020
0000
0000
0230
0000
0000
,
0310
0000
2200
0000
0000
3300
2002
0000
0000
0000
0000
3003
,
0002
0000
0000
0203
0000
0000
2300
0000
0000
3100
0010
1000
,
0002
0000
0000
0000
0000
0000
2003
0000
3000
1000
0010
1000
,
0010
1000
0010
1000
0010
1000
1010
0000
0000
0101
0000
0000
,
0001
0001
0010
0200
0000
0000
0010
0000
0300
0100
1000
0100
,
0110
0000
0000
1001
0000
0000
0001
0000
0001
0010
0000
0010
,
0110
0000
0000
1100
0000
0000
2002
0000
3003
0001
0100
1000
,
0100
0010
0100
1000
0010
0001
0020
0000
0000
0230
0000
0000
,
0301
0000
2002
0000
0000
3003
0022
0000
0000
0000
0000
0033
,
0002
0000
0000
0203
0000
0000
2300
0000
0000
3010
1000
0001
,
0020
0000
0000
0000
0000
0000
0230
0000
0000
0310
0100
0010
,
0100
0010
0100
0010
0100
0010
0200
0000
0000
2300
0000
0000
,
3001
0001
0100
0010
0010
1000
0200
0000
0000
1300
0001
1000
,
1001
0000
0000
0110
0000
0000
0001
0000
1000
0001
0000
0001
,
0100
0000
0010
0000
,
1000
0000
0001
0000
,
0010
0000
1000
0000
,
0010
0001
0100
0000
,
0010
0000
1000
0000
,
0000
0000
1000
0000
,
0001
0001
0010
0000
,
0100
1000
0100
0000
,
1000
0000
0000
1000
0000
0000
1000
0000
0000
1000
0000
0001
,
1000
0000
0000
1000
0000
0000
1000
0000
0000
1000
0000
0001
,
1000
0000
0000
1000
0000
0000
1000
0000
0000
1000
0000
0001
,
1000
0000
0000
1000
0000
0000
1000
0000
0000
1000
0000
1000
,
0001
0000
0000
0001
0000
0000
0001
0000
0000
0001
0000
1000
,
0001
0000
0000
0001
0000
0000
0001
0000
0000
0001
0000
1000
,
0001
0000
0000
0001
0000
0000
0001
0000
0000
0001
0000
1000
,
0001
0000
0000
0001
0000
0000
0001
0010
0001
0100
0010
2000
,
0002
0000
0000
0000
,
3003
0000
0000
0000
;

//---------------dance-single - ----------------
#NOTES:
     dance-single:
     :
     Medium:
     6:
     0.355,0.485,0.243,0.283,0.077:
0000
0000
0000
0000
,
0000
0000
0000
0000
,
0000
0000
0000
0000
,
0000
0000
0000
0000
,
0000
0000
0000
0000
,
0000
0000
0000
0000
,
0000
0000
0000
0000
,
0000
0000
0000
0000
,
1000
0001
0200
0010
,
1300
0010
2020
3030
,
1000
0001
0020
1000
,
0031
0000
0000
0100
0000
0000
1000
0000
0000
0100
0010
1000
,
0100
0010
0002
0100
,
0103
0001
0100
1000
,
0100
0100
0010
0010
,
0200
0310
0020
1030
,
1000
0001
0020
0001
,
0130
0010
2002
3003
,
0001
0100
2000
0100
,
3100
0000
0010
0000
1000
0000
0001
0000
0001
0010
0000
0000
,
0100
0010
0001
0200
,
1000
0310
0100
0010
,
1000
1001
0001
1001
,
1010
1001
0101
0011
,
0110
0010
0010
0010
,
0010
0100
0100
0000
,
0010
0001
0100
1000
,
0100
0010
0010
0100
,
0110
0010
1000
0001
,
0001
0100
0100
0010
,
1010
0010
0110
0000
,
0100
0010
1000
0001
,
0010
0001
0022
0000
,
0033
0001
0202
0303
,
0100
0100
0020
0000
,
0130
0010
0220
0330
,
1001
0001
2002
0000
,
3003
1000
0100
0010
,
0011
1100
1010
0101
,
2002
0000
0000
0000
,
0000
0000
0000
0000
,
0000
0000
0000
0000
,
0000
0000
0000
0000
,
3003
0001
0102
0100
,
0010
0010
0023
0230
,
1300
0000
0002
0000
0000
0000
0200
0000
0000
0000
0000
0303
,
0001
0000
0000
0100
0000
0000
0010
0000
0000
0100
0010
0100
,
0010
1000
0002
0010
,
0010
0010
0010
0013
,
0001
0100
0010
1000
0000
0000
0001
0000
0000
1000
0000
0000
,
1100
0000
0000
1001
0000
0000
0110
0000
0010
0001
0000
0001
,
1000
1000
2010
0010
,
0100
0100
3200
0320
,
0031
0000
2000
0000
0000
0000
0020
0000
0000
0000
0000
3030
,
1000
0000
0000
0010
0000
0000
0100
0000
0000
0010
0100
0010
,
0100
0001
2000
0100
,
0100
0100
0100
3100
,
1000
0010
0100
0001
0000
0000
1000
0000
0000
0001
0000
0000
,
0011
0000
0000
1001
0000
0000
0110
0000
0100
0001
0000
0001
,
1000
0000
0001
0000
,
0001
1000
0001
0000
,
1000
0000
0001
0000
,
1000
0001
1000
0000
,
0010
0000
0100
0000
,
0000
0000
0100
0000
,
0010
1000
0010
0000
,
0100
0000
0010
0000
,
1000
1000
1000
1000
,
1000
1000
1000
1000
,
0001
0001
0001
0001
,
0001
0001
0001
0001
,
0100
0100
0100
0010
,
0100
0100
0100
0010
,
0010
0010
0010
0010
,
0100
0100
0010
0100
,
0001
0000
0000
0000
;

//---------------dance-single - ----------------
#NOTES:
     dance-single:
     :
     Easy:
     5:
     0.274,0.485,0.218,0.186,0.000:
0000
0000
0000
0000
,
0000
0000
0000
0000
,
0000
0000
0000
0000
,
0000
0000
0000
0000
,
0000
0000
0000
0000
,
0000
0000
0000
0000
,
0000
0000
0000
0000
,
0000
0000
0000
0000
,
1000
0001
0200
0000
,
0310
1001
2002
3003
,
0001
1000
0200
0000
,
0310
0001
0100
1000
,
0100
0000
0100
0000
0020
0030
0020
0030
,
0000
0100
0001
1000
,
0100
0100
0010
0010
,
0011
0001
0101
0100
,
0010
1000
0200
0010
,
0310
0000
0010
0000
0022
0000
0000
0033
,
0001
0100
0010
1000
,
0010
0010
0100
0100
,
0010
1000
0200
0010
,
0310
0010
0001
0100
,
0110
0001
0101
0100
,
0101
1010
1100
0011
,
1001
0000
0000
0000
,
0000
0000
0000
0000
,
0110
0000
0000
0000
,
0000
0000
0000
0000
,
1010
0000
0000
0000
,
0000
0000
0000
0000
,
0101
0000
0000
0000
,
0100
0000
0100
0000
,
0010
1000
0100
0100
,
0100
1000
2020
3030
,
0010
0010
0100
0100
,
0001
1000
0100
0020
,
0031
0100
1000
0100
,
0100
0100
0010
1000
,
0001
0001
0010
0100
,
2200
0000
0000
0000
,
0000
0000
0000
0000
,
0000
0000
0000
0000
,
0000
0000
0000
0000
,
3000
0300
1000
0100
,
0010
0010
0001
0100
,
0010
0000
0000
0000
2002
0000
0000
3003
,
0001
0100
1000
0100
,
0020
0000
0100
0100
,
0100
0100
0100
0130
,
0010
1000
0010
0001
,
0010
0010
0110
1001
,
0101
0101
0102
0100
,
0100
0100
0100
0103
,
0100
0000
0000
0000
2020
0000
0000
3030
,
0010
1000
0001
0010
,
0200
0000
0310
0001
,
0001
0001
0001
0001
,
0100
1000
0100
0010
,
1000
0001
0011
1100
,
1001
0000
0001
0000
,
1000
0000
0001
0000
,
1000
0000
0001
0000
,
1000
0001
1000
0000
,
0001
0000
1000
0000
,
0000
0000
1000
0000
,
1000
0001
1000
0000
,
1000
0000
1000
0000
,
0001
0000
0100
0000
,
0010
0010
0010
0000
,
0100
0000
0010
0000
,
1000
0001
1000
0000
,
0100
0000
0010
0000
,
0001
1000
0100
0000
,
1000
0000
0010
0000
,
0100
0010
2000
0000
,
3100
0000
0000
0000
;

//---------------dance-single - ----------------
#NOTES:
     dance-single:
     :
     Beginner:
     1:
     0.090,0.152,0.016,0.000,0.000: // measure 1
0000
0000
0000
0000
,  // measure 2
0000
0000
0000
0000
,  // measure 3
0000
0000
0000
0000
,  // measure 4
0000
0000
0000
0000
,  // measure 5
0000
0000
0000
0000
,  // measure 6
0000
0000
0000
0000
,  // measure 7
0000
0000
0000
0000
,  // measure 8
0000
0000
0000
0000
,  // measure 9
1000
0000
0000
0000
,  // measure 10
0001
0000
0001
0000
,  // measure 11
0100
0000
0000
0000
,  // measure 12
0010
0000
0010
0000
,  // measure 13
0000
0000
0000
0000
,  // measure 14
0100
0000
0100
0000
,  // measure 15
0010
0000
0000
0000
,  // measure 16
1000
0000
0000
0000
,  // measure 17
1001
0000
0000
0000
,  // measure 18
0100
0000
0100
0000
,  // measure 19
0100
0000
0000
0000
,  // measure 20
0010
0000
0010
0000
,  // measure 21
0010
0000
0000
0000
,  // measure 22
1000
0000
1000
0000
,  // measure 23
0001
0000
0000
0000
,  // measure 24
0100
0000
0000
0000
,  // measure 25
0010
0000
0000
0000
,  // measure 26
0000
0000
0000
0000
,  // measure 27
1000
0000
0000
0000
,  // measure 28
0000
0000
0000
0000
,  // measure 29
0001
0000
0000
0000
,  // measure 30
0000
0000
0000
0000
,  // measure 31
1000
0000
0000
0000
,  // measure 32
0100
0000
0010
0000
,  // measure 33
1000
0000
0000
0000
,  // measure 34
0000
0001
0001
0000
,  // measure 35
1000
0000
0000
0000
,  // measure 36
0000
0001
0001
0000
,  // measure 37
0001
0000
1000
0000
,  // measure 38
0010
0000
0100
0000
,  // measure 39
0010
0000
0100
0000
,  // measure 40
0000
0000
0000
0000
,  // measure 41
0000
0000
0000
0000
,  // measure 42
0000
0000
0000
0000
,  // measure 43
0000
0000
0000
0000
,  // measure 44
0000
0000
1000
0000
,  // measure 45
0001
0000
0001
0000
,  // measure 46
0100
0000
0000
0000
,  // measure 47
0010
0000
0000
0000
,  // measure 48
1000
0000
0000
0000
,  // measure 49
0000
0000
0000
0000
,  // measure 50
0001
0000
0000
0000
,  // measure 51
0000
0000
0010
0000
,  // measure 52
0110
0000
0100
0000
,  // measure 53
0100
0100
0100
0000
,  // measure 54
1000
0000
0000
0000
,  // measure 55
0001
0000
0000
0000
,  // measure 56
0100
0000
0000
0000
,  // measure 57
0000
0000
0000
0000
,  // measure 58
0010
0000
0000
0000
,  // measure 59
1000
0000
0001
0001
,  // measure 60
0001
0000
0000
0000
,  // measure 61
1000
0000
0000
0000
,  // measure 62
0010
0000
0000
0000
,  // measure 63
0000
0000
0000
0000
,  // measure 64
0100
0000
0000
0000
,  // measure 65
0000
0000
0010
0000
,  // measure 66
0010
0000
0000
0000
,  // measure 67
1000
0000
0000
0000
,  // measure 68
0100
0000
0000
0000
,  // measure 69
0100
0000
0000
0000
,  // measure 70
0100
0000
0000
0000
,  // measure 71
0100
0000
0000
0000
,  // measure 72
0010
0000
0000
0000
,  // measure 73
0010
0000
0000
0000
,  // measure 74
0010
0000
0000
0000
,  // measure 75
0001
0000
1000
0000
,  // measure 76
0100
0000
0000
0000
;
