#TITLE:Electronic or Treat!;
#SUBTITLE:;
#ARTIST:PON;
#TITLETRANSLIT:;
#SUBTITLETRANSLIT:;
#ARTISTTRANSLIT:;
#GENRE:;
#CREDIT:;
#BANNER:18_NU_STYLE_ROCKABILLY.png;
#BACKGROUND:bg.png;
#LYRICSPATH:;
#CDTITLE:;
#MUSIC:Electronic or Treat!.mp3;
#OFFSET:-5.080;
#SAMPLESTART:25.600;
#SAMPLELENGTH:15.150;
#SELECTABLE:YES;
#DISPLAYBPM:143.000:190.000;
#BPMS:0.000=190.000
,187.000=142.500
,226.000=190.000
;
#STOPS:16.000=0.947,
125.000=0.158,
125.500=0.158,
126.000=0.158,
126.500=0.158
;
#BGCHANGES:;
#KEYSOUNDS:;
#ATTACKS:;

//---------------dance-single - ----------------
#NOTES:
     dance-single:
     :
     Hard:
     9:
     0.638,0.826,0.469,0.244,0.576,384.000,48.000,25.000,0.000,0.000,0.000,0.638,0.826,0.469,0.244,0.576,384.000,48.000,25.000,0.000,0.000,0.000:
0001
0001
1000
1000
,
0001
0100
0010
0100
,
0010
1000
0100
0010
,
0001
0100
0010
1000
0100
0010
0100
1000
0001
0100
0010
1000
,
0010
0001
1000
0001
,
0100
0000
0000
0010
0000
1000
0010
0000
0100
0001
0000
0010
,
0100
0000
0100
1000
0000
0000
0100
0000
0000
0010
0000
0000
,
0010
0000
0000
0010
0000
0001
0010
0000
0100
1000
0000
1000
,
0010
0000
0100
0010
0000
0000
0010
0000
0000
0100
0000
0000
,
0100
0000
0000
0010
0000
0010
1000
0000
0100
0001
0000
0001
,
0010
0000
1000
0100
0000
0000
0100
0000
0000
1000
0000
0000
,
1000
0000
0000
0001
0000
0001
0100
0000
0010
1000
0000
1000
,
0100
0000
0010
0001
0000
0000
1001
0000
0000
0100
0000
0000
,
0110
1000
0100
0001
,
0100
0000
0000
1000
0000
0100
0000
0010
0000
0100
0000
1000
,
0000
0001
0000
0220
0000
0000
0300
0000
0000
0030
0000
0000
,
0000
0000
1001
0000
0000
0000
0101
0000
0000
0001
0000
0100
,
0010
0000
0010
1000
0000
0000
1100
0000
0000
1000
0000
1000
,
0001
0000
0001
0100
0000
0000
0100
0000
0000
0100
0000
0010
,
1000
0000
1000
0100
0000
0000
0110
0000
0000
0010
0000
0001
,
0010
0000
0100
1000
0000
0000
1001
0000
0000
0001
0000
0100
,
0010
0000
0010
0100
0000
0000
0010
0000
0000
1000
0000
1000
,
0001
0000
0001
0010
0000
0000
1100
0000
0000
1000
0000
1000
,
0100
0000
0100
1000
0000
0000
1001
0000
0000
0001
0000
0100
,
0010
0000
0010
2000
0000
0000
3100
0000
0000
0200
0000
0000
,
0310
0020
0130
2000
,
3001
0000
0000
0101
0000
0100
0000
0010
0000
1001
0000
1000
,
0000
0100
0000
0022
0000
0000
0000
0000
0000
0000
0000
0000
,
0033
0001
0100
0010
,
0010
0000
0000
0100
0001
0010
0100
0010
0001
0200
0000
0000
,
0320
1030
1000
0001
,
0001
0000
0001
0100
0010
0001
0010
0000
,
1000
0100
0010
0100
,
1000
0000
0000
0010
0000
0000
0010
0000
0000
1000
0000
0001
,
0000
0010
0000
0001
0000
0100
0000
0010
0000
1000
0000
0100
,
0000
0010
0000
0100
0000
1000
0000
0010
0000
0202
0000
0000
,
0000
0000
0000
0000
0000
0000
0303
0000
0000
0001
0000
0100
,
0001
0000
0000
0100
0000
0010
1000
0000
0000
1000
0000
0100
,
1000
0000
0000
1000
0000
1000
0100
0000
0100
0010
0000
0010
,
0001
0000
0000
0001
0000
0100
0001
0000
0000
0100
0000
0010
,
1000
0000
0000
1000
0000
1000
0001
0000
0001
0010
0000
1000
,
0100
0000
0000
1000
0000
0001
0010
0000
0000
0001
0000
1000
,
0001
0000
0000
1000
0000
0001
0100
0000
0010
1000
0000
1000
,
0100
0000
0000
0100
0000
0010
0001
0000
0000
0001
0100
0010
,
1010
0000
0000
1000
0100
0010
0110
0000
0000
0001
0000
0100
,
0010
0000
1000
0100
0000
0010
0001
0000
0001
0100
0000
0010
,
0100
0000
0010
1000
0000
0001
0010
0000
0000
2002
0000
0000
,
0000
0000
0000
0000
,
0000
0000
0000
0000
3003
0000
1000
0001
,
0010
0001
0100
0010
0100
1000
0100
1000
,
0100
0010
1000
0001
1001
0000
0001
0010
,
0001
0100
0010
1000
0100
0010
0100
1000
,
0001
0010
0001
0100
1010
0000
2000
0000
,
3200
0320
0230
2300
,
3002
0023
0230
0310
,
0001
0100
1010
0000
1000
0100
0011
0101
,
1010
1100
0011
1001
1010
0000
0000
0000
,
0000
0000
0000
0000
0000
1001
0000
0000
0000
0001
0000
0000
,
0001
0000
0001
1000
0000
1000
0100
0000
0000
0100
0000
0000
,
0100
0000
0000
0100
0000
0110
0000
0000
0000
0010
0000
0000
,
0001
0000
0010
0001
0000
0100
0002
0000
0000
0000
0000
0000
,
0103
0001
0010
0100
0000
1000
0000
0000
0000
0001
0000
0000
,
0100
0000
0010
1000
0000
0010
0100
0000
0000
0100
0000
0000
,
0100
0100
0010
1000
,
0001
0000
0001
0010
0000
0100
2000
0000
0000
3100
0000
0000
,
0200
0310
0001
1000
,
0001
0000
0100
0010
0000
1000
0100
0000
0000
0100
0000
0000
,
0010
0000
0001
0100
0000
0100
0110
0000
0110
0000
0110
0000
,
0110
0000
0110
0000
0110
0000
1001
0000
1001
0000
1001
0000
,
1001
0000
1001
0000
1001
0000
0101
0000
1010
0000
1100
0000
,
0011
0000
1001
0000
0101
0000
0011
0000
0000
0000
0000
0000
;

//---------------dance-single - ----------------
#NOTES:
     dance-single:
     :
     Medium:
     7:
     0.526,0.551,0.742,0.049,0.205,296.000,76.000,5.000,0.000,0.000,0.000,0.526,0.551,0.742,0.049,0.205,296.000,76.000,5.000,0.000,0.000,0.000:
0001
0001
1000
1000
,
0010
0100
0001
1000
,
0100
0001
0100
1000
,
1010
0101
0011
1100
,
1001
0001
0100
0010
,
1000
1010
1010
1010
,
1010
0010
0100
0010
,
1000
1001
1001
1001
,
1001
0001
0010
0001
,
0010
0011
0011
0011
,
0011
0001
0100
0010
,
1000
1001
1001
1001
,
1001
0001
0100
1000
,
0100
0001
0010
1000
,
0010
0000
0000
0001
0000
1000
0000
0001
0000
0100
0000
0001
,
0000
0100
0000
0010
0000
0000
0000
0000
0000
0000
0000
0000
,
0000
0010
1000
0010
,
0100
0110
1001
0110
,
1001
0001
0100
0010
,
1000
1010
0011
1010
,
0011
0001
0010
0100
,
1000
1100
0101
1100
,
0101
0010
0010
0100
,
0100
0110
0101
1010
,
1100
1000
0100
0010
,
0001
0010
0100
1000
,
0001
0000
0000
0100
0000
0010
0000
0100
0000
1000
0000
0100
,
0000
0010
0000
2000
0000
0000
0000
0000
0000
3000
0000
0000
,
0000
0001
0100
0010
,
1000
0020
0000
0000
,
0030
0100
0010
1000
,
0001
0000
1000
0001
1000
0001
0100
0000
,
0010
1000
0010
0001
,
0010
0000
0000
0100
0000
0000
0001
0000
0000
1000
0000
0001
,
0000
0100
0000
0010
0000
1000
0000
0010
0000
0100
0000
0001
,
0000
0010
0000
0100
0000
1000
0000
0001
0000
0101
0000
0000
,
0000
0000
0000
0100
,
0101
0010
1001
0100
,
1010
0100
1001
0001
,
1100
0010
0101
0100
,
1001
0001
0101
0010
,
1001
0100
0011
0100
,
1010
0100
1001
0100
,
1100
0000
0000
0001
0000
0000
0011
0000
0000
0010
1000
0001
,
0010
0000
0000
0010
0001
0100
0010
0000
0000
0010
0000
0000
,
1000
0001
0010
0001
,
1000
0100
0010
0022
,
0000
0000
0030
0003
,
0000
0000
0000
1001
,
0101
1010
1100
0110
,
0011
0000
0001
0100
0101
0000
0110
0000
,
1001
0101
1100
0101
,
0011
0000
0001
0010
0100
1000
1100
0000
,
0011
0000
0101
0000
0001
0100
0110
0000
,
1001
0000
0101
0000
0001
0100
1000
0000
,
1000
0100
0001
0000
0001
0100
0010
1000
,
0100
0010
0100
1000
0001
0000
0000
0000
,
0000
0000
0000
0000
0000
1000
0000
0000
0000
1000
0000
0000
,
0001
0100
0010
0010
,
0010
0000
0000
0100
0000
0110
0000
0000
0000
0001
0000
0000
,
1000
0100
0020
0000
,
0031
0010
0100
1000
0000
1100
0000
0000
0000
1000
0000
0000
,
0001
0100
0001
0001
,
0001
0000
0000
0001
0000
1001
0000
0000
0000
0001
0000
0000
,
0100
0010
1000
0010
,
0100
0000
0000
0001
0000
0000
1000
0000
1000
0100
0000
0000
,
0100
0000
0100
0010
0000
0000
0010
0000
0010
0001
0000
0000
,
0001
0000
0001
0100
0000
0000
0010
0000
1000
0000
0010
0000
,
0001
0000
0010
0000
0100
0000
0001
0000
1000
0000
0100
0000
,
0010
0000
0100
0000
1000
0000
0001
0000
0100
0000
0010
0000
,
1000
0000
0001
0000
0100
0000
0011
0000
0000
0000
0000
0000
;

//---------------dance-single - ----------------
#NOTES:
     dance-single:
     :
     Easy:
     5:
     0.407,0.551,0.283,0.117,0.000,251.000,29.000,12.000,0.000,0.000,0.000,0.407,0.551,0.283,0.117,0.000,251.000,29.000,12.000,0.000,0.000,0.000:
0001
0100
0010
1000
,
0001
0100
0010
1000
,
0001
0001
1000
1000
,
1001
0110
1001
0110
,
1001
0001
0001
1000
,
1000
0001
1000
0001
,
1000
0010
0010
0100
,
0100
0010
0100
0010
,
0100
0001
0001
0100
,
0100
0001
0100
0001
,
0100
0010
0010
1000
,
1000
0010
1000
0010
,
1000
0001
0010
0001
,
1000
0010
0100
0010
,
1000
0001
0001
0001
,
0001
0002
0000
0000
,
0003
1000
0001
0100
,
0010
0100
0100
0100
,
0100
0010
1000
0001
,
0010
0100
0100
0100
,
0100
1000
0010
0100
,
0001
1000
1000
1000
,
1000
0001
0010
0001
,
0100
0010
0010
0010
,
0010
0100
0001
0010
,
0100
0010
1000
0001
,
0010
0100
0100
0100
,
0100
0220
0000
0000
,
0330
0010
0001
1000
,
0010
0200
0000
0000
,
0300
0010
1000
0010
,
0100
0020
0000
0130
,
0010
1000
0010
0100
,
0010
0010
1000
0001
,
0010
0100
1000
0001
,
0001
0001
0001
2002
,
0000
0000
3003
0001
,
0100
0001
0100
0001
,
0100
0001
0100
0010
,
1000
0010
1000
0010
,
1000
0010
1000
0001
,
1000
0001
1000
0001
,
1000
0001
1000
0100
,
1000
0100
1000
1000
,
0110
1000
0110
1000
,
1000
0001
0001
0100
,
0100
0010
0010
2002
,
0000
0000
0000
0000
,
0000
3003
0000
0001
,
1000
0001
0100
0001
,
1000
0100
1000
0010
,
0100
0001
0100
0010
,
1000
0010
0100
0010
,
0010
0010
0010
0100
,
0100
0100
0100
0110
,
0010
1001
0010
1001
,
0110
1001
0110
0000
,
0000
0000
0010
1000
,
0010
0100
0002
0000
,
0000
0003
0100
0010
,
1000
0001
0020
0000
,
0000
0030
0001
0010
,
0100
1000
0200
0000
,
0000
0300
1000
0010
,
0100
0001
1000
1000
,
0001
0001
0100
0010
,
1000
0100
0010
0001
,
0010
0100
0110
0110
,
0110
0110
1001
1001
,
1001
1001
0110
1001
,
0110
1001
0110
0000
;

//---------------dance-single - ----------------
#NOTES:
     dance-single:
     :
     Beginner:
     2:
     0.181,0.275,0.205,0.000,0.000,109.000,21.000,0.000,0.000,0.000,0.000,0.181,0.275,0.205,0.000,0.000,109.000,21.000,0.000,0.000,0.000,0.000: // measure 0
1000
0000
0000
0000
,  // measure 1
0001
0000
0000
0000
,  // measure 2
0100
0000
0000
0000
,  // measure 3
0010
0010
0010
0010
,  // measure 4
0010
1000
0000
0000
,  // measure 5
0000
0001
0000
0001
,  // measure 6
0000
0001
0000
0000
,  // measure 7
0000
1000
0000
1000
,  // measure 8
0000
1000
0000
0000
,  // measure 9
0000
0010
0000
0100
,  // measure 10
0000
0010
0000
0000
,  // measure 11
0000
0100
0000
0100
,  // measure 12
0000
0100
0000
0000
,  // measure 13
0000
0010
0000
1000
,  // measure 14
0000
0001
0000
0000
,  // measure 15
0000
0000
0000
0000
,  // measure 16
0000
1001
0000
0000
,  // measure 17
0000
1000
0000
0001
,  // measure 18
0000
0100
0000
0000
,  // measure 19
0000
0010
0000
0100
,  // measure 20
0000
0001
0000
0000
,  // measure 21
0000
1000
0000
0100
,  // measure 22
0000
1000
0000
0000
,  // measure 23
0000
0010
0000
0100
,  // measure 24
0000
0001
0000
0001
,  // measure 25
0000
1000
0000
1000
,  // measure 26
0000
0110
0000
0000
,  // measure 27
0000
0000
0000
0000
,  // measure 28
0000
1000
0000
0001
,  // measure 29
0000
0100
0000
0000
,  // measure 30
0000
0001
0000
1000
,  // measure 31
0000
0010
0000
1000
,  // measure 32
0000
0001
0000
1000
,  // measure 33
0000
0001
0000
1000
,  // measure 34
0000
1000
0000
0001
,  // measure 35
0001
0001
0001
0001
,  // measure 36
0000
0000
0000
0100
,  // measure 37
0000
0000
0000
0010
,  // measure 38
0000
0000
0000
1000
,  // measure 39
0000
0000
0000
1000
,  // measure 40
0000
0001
0000
1000
,  // measure 41
0000
0000
0000
0001
,  // measure 42
0000
0000
0000
0100
,  // measure 43
0000
0000
0000
0110
,  // measure 44
0000
1001
0000
1001
,  // measure 45
0000
0000
0000
1000
,  // measure 46
0000
0000
0000
0110
,  // measure 47
0000
0000
0000
0000
,  // measure 48
0000
0000
0000
0010
,  // measure 49
0000
0010
0000
0010
,  // measure 50
0000
0010
0000
0100
,  // measure 51
0000
0100
0000
0100
,  // measure 52
0000
0100
0000
1001
,  // measure 53
0000
0000
0000
0110
,  // measure 54
0000
0000
0000
1001
,  // measure 55
0000
1001
0000
0110
,  // measure 56
0110
0110
0110
0000
,  // measure 57
0000
0000
1000
0000
,  // measure 58
0000
0000
0001
0000
,  // measure 59
0000
0000
1000
0000
,  // measure 60
0000
0000
0010
0000
,  // measure 61
0010
0000
0010
0000
,  // measure 62
0000
0000
0100
0000
,  // measure 63
0001
0000
0100
0000
,  // measure 64
0000
0000
0010
0000
,  // measure 65
1000
0000
0001
0000
,  // measure 66
1000
0000
0001
0000
,  // measure 67
1000
0000
1001
0000
,  // measure 68
1001
0000
0110
0000
,  // measure 69
0110
0000
1001
0000
,  // measure 70
0110
0000
1001
0000
;
