#TITLE:ElectroBuzz;
#SUBTITLE:;
#ARTIST:Matt Darey;
#TITLETRANSLIT:;
#SUBTITLETRANSLIT:;
#ARTISTTRANSLIT:;
#CREDIT:;
#BANNER:electrobn.png;
#BACKGROUND:electrobg.png;
#LYRICSPATH:;
#CDTITLE:;
#MUSIC:ElectroBuzz.mp3;
#OFFSET:-0.018;
#SAMPLESTART:88.360;
#SAMPLELENGTH:12.000;
#SELECTABLE:YES;
#BPMS:0.000=139.790;
#STOPS:145.500=0.429
,147.500=0.429
,151.500=0.429
,153.500=0.429
,157.500=0.429
,159.500=0.429
,161.000=0.215
,163.000=0.429
,165.500=0.215
,167.000=0.215
,169.000=0.429
,171.000=0.429
,175.000=0.429
,177.000=0.429
,181.000=0.429
,183.000=0.429
,184.500=0.215
,186.500=0.429
;
#BGCHANGES:;

//---------------dance-single - ----------------
#NOTES:
     dance-single:
     :
     Hard:
     8:
     0.470,0.538,0.265,0.248,0.046:
0000
0000
0000
0000
,
0000
0000
0000
0000
,
0000
0000
0000
0000
,
0000
0000
0000
0000
,
0001
0000
0100
0010
0000
0100
0001
1000
,
0200
0000
0310
0200
0000
0310
1000
0001
,
0010
0000
0100
1000
0000
1000
0001
0000
,
0011
0000
0000
0000
0001
0000
0100
0000
0000
0000
0010
0000
0000
0010
0000
0000
,
0010
0100
0001
1000
0000
0010
0010
0000
,
0100
0000
0010
0000
1000
0000
0100
0000
0000
0000
0001
0000
0000
0010
0000
0000
,
1100
0000
1000
0001
0000
0001
0010
0100
,
0010
0000
0000
0000
0001
0000
0100
0000
0000
0000
0100
0000
0000
0010
0000
0000
,
1001
0000
0001
0100
0000
0100
0010
0000
,
0120
0000
0000
0000
0000
0000
1000
0000
0000
0000
0130
0000
0000
0100
0000
0000
,
1001
0000
1000
0100
0000
0100
0010
0000
,
0010
0000
0010
0100
0000
0100
1000
0010
,
0100
0001
0010
0001
0000
0001
1000
0000
,
1000
0000
0010
0100
0000
0100
0010
1000
,
0100
0000
0010
0001
0000
0001
0100
0000
,
0101
0000
0001
0100
0020
2030
3200
0000
,
1300
0100
0001
0200
0000
0300
0000
0000
,
1100
0000
0000
0000
0000
0000
0011
0000
0000
0000
0001
0000
0000
1000
0000
0000
,
0110
0000
0000
1100
0000
0000
0000
0000
,
0101
0000
0000
0000
0000
0000
1010
0000
0000
0000
1100
0000
0000
0011
0000
0000
,
0001
0100
2000
3100
0001
0010
0100
0000
,
1100
0000
0000
0000
0000
0000
0011
0000
0000
0000
0001
0000
0000
0100
0000
0000
,
1010
0000
0000
1100
0000
0000
0000
0000
,
0001
0000
0000
0000
0000
0000
1010
0000
0000
0000
0010
0000
0000
1000
0000
0000
,
0100
1000
0100
0020
0000
0030
0000
0000
,
0011
0000
0000
0000
0000
0000
1100
0000
0000
0000
0101
0000
0000
0010
0000
0000
,
1001
0000
0000
1100
0000
0000
0000
0000
,
0110
0000
0000
0000
0000
0000
0011
0000
0000
0000
0001
0000
0000
0100
0000
0000
,
1000
0100
0002
0020
0000
0033
0000
0000
,
0011
0000
0000
0000
0000
0000
1100
0000
0000
0000
0001
0000
0000
1000
0000
0000
,
0011
0000
0000
0101
0000
0000
0000
0000
,
0110
0000
0000
1010
2000
3002
0023
0000
,
0031
0100
0010
1000
0001
0010
0100
1000
,
1000
0001
0010
0100
0010
0001
0100
0010
,
0100
0010
1000
0100
0100
0010
0100
1000
,
0001
0100
0001
0010
0010
0001
0100
0010
,
0100
0001
0010
0010
0100
1000
0100
1000
,
0100
0010
0100
1000
2000
3002
0023
0031
,
0010
0100
1000
1000
0001
0100
0001
0001
,
1000
0100
1000
0010
0001
0010
0100
0100
,
0010
0001
0100
0001
0100
0010
1000
0100
,
1000
0001
0010
0100
1000
0010
0010
0100
,
0100
0001
0001
1000
0100
1000
0001
0100
,
0020
0000
0000
0000
0100
0100
0130
0000
,
0010
1000
0100
0001
0000
0000
0001
0100
,
1000
0010
0000
0000
0100
0010
1000
0001
,
0010
0100
0010
0001
0000
0000
0001
1000
,
0100
0001
0000
0000
0001
0100
0010
0100
,
0010
0001
0100
1000
0000
0000
1000
0100
,
0001
0100
0000
0000
0100
0010
1000
0000
,
0001
1000
0001
0100
0000
0000
0010
0001
,
0100
1000
0100
0000
0020
0230
0020
0330
,
0010
0001
1000
0200
0000
0300
1000
0010
,
0100
0020
0000
0030
0100
0001
0100
1000
,
0100
0010
1000
0200
0000
0300
0010
0001
,
0010
0200
0000
0300
0010
0001
0010
1000
,
0010
0001
0100
0020
0000
0030
0100
0001
,
1000
0200
0000
0300
1000
0010
0200
0000
,
0310
1000
0100
0010
0000
0000
0100
1000
,
0100
1000
0010
0100
0001
1000
0200
0000
,
0020
0000
0000
0000
,
0330
0000
0000
0000
;

//---------------dance-single - ----------------
#NOTES:
     dance-single:
     :
     Medium:
     6:
     0.358,0.450,0.091,0.496,0.062:
0000
0000
0000
0000
,
0000
0000
0000
0000
,
0000
0000
0000
0000
,
0000
0000
0000
0000
,
1000
0000
0000
0010
0000
0000
0100
0000
,
0010
0000
0000
0000
0000
0000
1000
0000
0000
0000
0001
0000
0000
1000
0000
0000
,
0010
0000
0000
0100
0000
0000
0000
0000
,
0010
0000
0000
0000
0000
0000
0100
0000
0000
0000
0001
0000
0000
0010
0000
0000
,
0100
0000
0000
1000
0000
0000
0000
0000
,
0010
0000
0000
0000
0000
0000
0100
0000
0000
0000
0010
0000
0000
1000
0000
0000
,
0100
0000
0000
1000
0000
0000
0000
0000
,
0001
0000
0000
0000
0000
0000
0100
0000
0000
0000
0010
0000
0000
1000
0000
0000
,
0001
0000
0000
1010
0000
0000
0000
0000
,
0100
0000
0000
0000
0000
0000
1001
0000
0000
0000
0001
0000
0000
0100
0000
0000
,
1100
0000
0000
0110
0000
0000
0000
0000
,
0010
0000
0000
0000
0000
0000
1010
0000
0000
0000
1000
0000
0000
0001
0000
0000
,
0010
0000
0000
1100
0000
0000
0000
0000
,
0010
0000
0000
0000
0000
0000
0101
0000
0000
0000
0001
0000
0000
1000
0000
0000
,
0010
0000
0000
0110
0000
0000
0000
0000
,
0101
0000
0000
0000
0000
0000
0110
0000
0000
0000
0010
0000
0000
1000
0000
0000
,
1000
0100
0010
0001
0000
0000
0000
0000
,
0001
0000
0000
0000
0000
0000
0100
0000
0000
0000
1000
0000
0000
0100
0000
0000
,
0001
0000
0000
0010
0000
0000
0000
0000
,
0100
0000
0000
0000
0000
0000
1000
0000
0000
0000
0100
0000
0000
1000
0000
0000
,
0010
0100
0001
0100
0010
1000
0100
0000
,
1000
0000
0000
0000
0000
0000
0100
0000
0000
0000
0010
0000
0000
0001
0000
0000
,
0010
0000
0000
0001
0000
0000
0000
0000
,
0100
0000
0000
0000
0000
0000
0010
0000
0000
0000
1000
0000
0000
0001
0000
0000
,
0100
0010
0100
0010
0000
0000
0000
0000
,
0100
0000
0000
0000
0000
0000
0010
0000
0000
0000
1000
0000
0000
1000
0000
0000
,
1000
0000
0000
0001
0000
0000
0000
0000
,
0010
0000
0000
0000
0000
0000
0100
0000
0000
0000
0100
0000
0000
1000
0000
0000
,
0100
1000
0010
0100
0000
0000
0000
0000
,
0001
0000
0000
0000
0000
0000
0001
0000
0000
0000
0100
0000
0000
0100
0000
0000
,
0100
0000
0000
0010
0000
0000
0000
0000
,
1000
0000
0000
0000
0002
2003
0002
3003
,
1000
0000
0000
0001
0100
0000
0000
0010
,
0010
0000
0100
0000
0001
0000
0000
1000
,
0100
0000
0000
0010
0100
0000
1000
0000
,
0010
0000
0000
0100
0010
0000
0000
1000
,
0001
0000
0001
0100
0000
0000
0010
1000
,
0000
0001
0000
0100
0010
0100
0010
2000
,
0000
0000
3010
0200
0000
0000
0301
0020
,
0000
0230
0000
0320
0000
0000
0031
2000
,
0000
0000
3001
0200
0000
2300
0000
3200
,
0000
0000
0310
0200
0000
0000
0301
0020
,
0000
0130
0020
0000
0000
0031
2000
0000
,
3020
0000
0230
0000
0310
0010
2002
3003
,
0002
0203
0310
0200
,
0320
1030
0002
2003
,
3002
0203
0310
0200
,
0320
1030
2000
3200
,
0320
0230
1300
0200
,
2300
0000
3010
0000
0100
0001
0100
0000
,
0020
1030
0002
0103
,
0001
0100
1000
0100
0001
0020
0200
0330
,
0200
0320
0130
0020
,
0032
1003
2000
3002
,
0203
0320
0130
0020
,
2030
3001
0002
0023
,
2030
3020
0130
0020
,
0032
0000
0013
0000
0001
0001
1000
0000
,
2000
3001
0200
0310
,
0100
0010
1000
0001
0010
2000
0020
0000
,
3030
0000
0000
0000
;

//---------------dance-single - ----------------
#NOTES:
     dance-single:
     :
     Easy:
     4:
     0.210,0.291,0.025,0.248,0.000:
0000
0000
0000
0000
,
0000
0000
0000
0000
,
0000
0000
0000
0000
,
0000
0000
0000
0000
,
1001
0000
0000
0000
,
0010
0000
0000
0000
0000
0100
0000
0000
,
0100
0000
0000
0000
,
0010
0000
0000
0000
0000
1000
0000
0000
,
0100
0000
0000
0000
,
1000
0000
0000
0000
0000
0010
0000
0000
,
0100
0000
0000
0000
,
0010
0000
0000
0100
0000
0000
0000
0000
,
0001
0000
0000
0010
0000
0000
0000
0000
,
0100
0000
0000
1000
0000
0100
0000
0000
,
1000
0000
0000
0010
0000
0000
0000
0000
,
0100
0000
0000
0010
0000
1000
0000
0000
,
0001
0000
0000
0010
0000
0000
0000
0000
,
1000
0000
0000
0010
0000
0001
0000
0000
,
0001
0000
0000
0100
0000
0000
0000
0000
,
0010
0000
0000
0000
0100
0010
0100
0000
,
0020
0000
0030
0000
,
0100
0000
0000
0000
,
0010
0000
0000
0000
,
0100
0000
0000
0000
,
0002
0000
0000
0003
,
1000
0000
0000
0000
,
0010
0000
0000
0000
,
0100
0000
0000
0000
,
0002
0000
0003
0000
,
1000
0000
0000
0000
,
0010
0000
0000
0000
,
0100
0000
0000
0000
,
0020
0000
0000
0030
,
1000
0000
0000
0000
,
0001
0000
0000
0000
,
0010
0000
0000
0000
0100
1000
0010
0000
,
0200
0000
0000
0300
0020
0000
0000
0030
,
0200
0000
0000
0000
0020
0000
0000
0330
,
0200
0000
0000
0300
0020
0000
0000
0000
,
0200
0000
0000
0330
0200
0000
0000
0300
,
0020
0000
0030
0200
0000
0000
0300
0020
,
0000
0000
0000
0030
0200
0000
0300
0002
,
0000
0000
0003
2000
0000
0000
3000
0002
,
0000
2003
0000
3002
0000
0000
0003
2000
,
0000
0000
3000
0002
0000
2003
0000
3002
,
0000
0000
0003
2000
0000
0000
3000
0002
,
0000
0003
2000
0000
0000
3000
0001
0000
,
2002
0000
0000
3003
,
0001
1000
0001
0100
,
0001
1000
0001
0100
,
0010
0100
0010
1000
,
0010
0100
0010
0001
,
0010
0100
0010
1000
,
0100
1000
0010
0100
,
0001
1000
0100
0010
,
0100
0000
0100
0000
0100
0010
0001
0000
,
1000
0001
0100
0100
,
0001
1000
0100
0100
,
1000
0010
0100
0100
,
0010
1000
0001
0001
,
0010
0001
0100
0100
,
0010
1000
0001
0010
,
0100
1000
0010
0100
,
0001
0000
0001
0000
0001
0100
0010
0000
,
1100
0000
0000
0000
;

//---------------dance-single - ----------------
#NOTES:
     dance-single:
     :
     Beginner:
     2:
     0.092,0.159,0.058,0.000,0.000:
0000
0000
0000
0000
,
0000
0000
0000
0000
,
0000
0000
0000
0000
,
0000
0000
0000
0000
,
0001
0000
0000
0000
,
1000
0000
0000
0000
,
0001
0000
0000
0000
,
1000
0000
0000
0000
,
0010
0000
0000
0000
,
0100
0000
0000
0000
,
0010
0000
0000
0000
,
0100
0000
0000
0000
,
0010
0000
0000
0000
,
1000
0000
0000
0000
,
0010
0000
0000
0000
,
1000
0000
0000
0000
,
0001
0000
0000
0000
,
0100
0000
0000
0000
,
0001
0000
0000
0000
,
0100
0000
0000
0000
,
0010
0000
0000
0000
,
0000
0000
0000
0000
,
0100
0000
0000
0000
,
0000
0000
0000
0000
,
1001
0000
0000
0000
,
0000
0000
0000
0000
,
1000
0000
0000
0000
,
0000
0000
0000
0000
,
0110
0000
0000
0000
,
0010
0000
0000
0000
,
1000
0000
0000
0000
,
0100
0000
0000
0000
,
0110
0000
0000
0000
,
0010
0000
0000
0000
,
0001
0000
0000
0000
,
1000
0000
0000
0000
,
1000
0000
0000
0000
,
0000
0000
1000
0000
,
0000
0000
0000
0000
,
0001
0000
0000
0000
,
0000
0000
0000
0001
0000
0000
0000
0000
,
0000
0000
0000
0000
0000
0000
0000
0110
,
0000
0000
0000
0010
0000
0000
0000
0010
,
0000
0000
0000
0010
0000
0000
0000
0010
,
0000
0000
0000
0100
0000
0000
0000
0100
,
0000
0000
0000
0100
0000
0000
0000
0100
,
0000
0010
0000
0100
,
0110
0000
0000
0000
,
0010
0000
0000
1000
,
0000
0000
0001
0000
,
0010
0000
0000
0010
,
0000
0000
0010
0000
,
0100
0000
0000
0100
,
0000
0000
1000
1000
,
1000
0000
0000
0001
,
1000
0000
1001
0000
,
0010
0000
0000
0100
,
0000
0000
0010
0000
,
1000
0000
0000
0001
,
0000
0000
1000
0000
,
0100
0000
0000
1000
,
0000
0000
0010
0000
,
0100
0000
0000
0000
,
0100
0000
0010
0000
,
1001
0000
0000
0000
;

//---------------dance-single - ----------------
#NOTES:
     dance-single:
     :
     Challenge:
     9:
     0.729,0.874,0.215,1.000,0.128: // measure 1
0000
0000
0000
0000
,  // measure 2
0000
0000
0000
0000
,  // measure 3
0000
0000
0000
0000
,  // measure 4
0000
0000
0000
0000
,  // measure 5
0010
0100
0001
1000
0000
1000
0001
0100
,  // measure 6
1000
0000
0000
0000
0100
0000
0010
0000
0000
0000
0100
0000
0000
0001
0000
0000
,  // measure 7
1000
0001
0010
0100
0000
0010
0100
0000
,  // measure 8
0100
0000
1000
0000
0010
0000
0100
0000
0000
0000
0001
0000
0000
0100
0000
0000
,  // measure 9
0010
1000
0001
1000
0000
0000
0100
0000
,  // measure 10
0010
0000
0001
0000
1000
0000
0010
0000
0000
0000
0100
0000
0000
1000
0000
0000
,  // measure 11
0001
0100
0001
0010
0000
0000
0100
0000
,  // measure 12
0011
0000
0000
0000
0001
0000
0100
0000
0000
0000
0010
0000
0000
1000
0000
0000
,  // measure 13
1100
0000
0001
0011
0000
0001
0100
0000
,  // measure 14
0110
0000
0000
0000
0010
0000
1010
0000
0000
0000
1000
0000
0000
0001
0000
0000
,  // measure 15
0011
0000
0010
0110
0000
0100
1000
0000
,  // measure 16
1001
0000
0000
0000
0010
0000
0110
0000
0000
0000
0001
0000
0000
1010
0000
0000
,  // measure 17
1001
0000
0010
0110
0000
0100
0001
0000
,  // measure 18
1001
0000
0000
0000
1000
0000
1100
0000
0000
0000
0110
0000
0000
0011
0000
0000
,  // measure 19
1001
0000
0001
0110
0000
1000
0010
0000
,  // measure 20
0110
0000
0000
0000
0010
0000
1000
0000
0000
0000
1010
0000
0000
0101
0000
0000
,  // measure 21
0002
0203
2300
0200
0000
3300
0000
0000
,  // measure 22
1000
0000
0000
0100
0000
0000
0010
0000
1000
0000
0000
0001
0000
0000
0010
0000
,  // measure 23
0001
0000
0000
0100
0000
0000
0010
0000
1000
0000
0000
0001
0000
0000
0010
0000
,  // measure 24
0100
0000
0000
0010
0000
0000
0001
0000
1000
0000
0000
0100
0000
0000
1000
0000
,  // measure 25
0020
2030
3020
0230
0302
0023
0200
0330
,  // measure 26
0110
0000
0000
0010
0000
0000
0010
0000
0001
0000
0000
1000
0000
0000
0010
0000
,  // measure 27
1000
0000
0000
0100
0000
0000
1000
0000
0010
0000
0000
0100
0000
0000
0010
0000
,  // measure 28
1000
0000
0000
0001
0000
0000
0010
0000
0100
0000
0000
1000
0000
0000
1000
0000
,  // measure 29
0020
2030
3002
0020
0000
0033
0000
0000
,  // measure 30
0001
0000
0000
0010
0000
0000
0010
0000
0100
0000
0000
1000
0000
0000
0010
0000
,  // measure 31
0100
0000
0000
0100
0000
0000
0010
0000
1000
0000
0000
0001
0000
0000
0010
0000
,  // measure 32
0100
0000
0000
0010
0000
0000
0001
0000
1000
0000
0000
0100
0000
0000
1000
0000
,  // measure 33
0020
2030
3020
0002
0000
0000
0033
0000
,  // measure 34
0110
0000
0000
0010
0000
0000
0100
0000
0001
0000
0000
1000
0000
0000
0100
0000
,  // measure 35
1000
0000
0000
0010
0000
0000
0100
0000
0001
0000
0000
0010
0000
0000
0100
0000
,  // measure 36
1000
0000
0000
0100
0000
0000
1000
0000
0002
0000
2003
0000
0200
0000
3300
0000
,  // measure 37
2000
3200
0302
0203
0320
0032
0203
2300
,  // measure 38
3200
0320
2030
3002
0023
2030
3020
0032
,  // measure 39
0203
2300
3200
0320
0230
0320
2030
3002
,  // measure 40
0023
0000
2030
0000
3020
0000
0032
0003
0002
0000
0203
0000
2300
0000
3200
0000
,  // measure 41
0320
2030
3002
2003
3002
0023
0230
0320
,  // measure 42
0032
0000
2003
0000
3200
0000
0302
0000
0203
0000
2300
0000
0020
3000
0230
0000
,  // measure 43
0320
2030
3002
2003
3020
0230
0302
2003
,  // measure 44
3020
0230
0302
2003
3200
0320
0032
0203
,  // measure 45
2300
3200
0320
0032
0023
2030
3020
0032
,  // measure 46
0023
2030
3002
0203
0302
0203
2300
3200
,  // measure 47
0320
2030
3002
0203
0320
0032
0023
2030
,  // measure 48
0100
0000
3100
0000
0200
0000
0000
0000
0010
0000
0010
0000
0020
0000
0000
0330
,  // measure 49
0210
0320
0032
0203
0300
0100
0020
2030
,  // measure 50
3002
0023
0030
0001
0200
2300
3200
2300
,  // measure 51
3200
0320
2030
3002
0003
0001
0002
0023
,  // measure 52
0230
2300
3000
1000
0020
0230
0320
0230
,  // measure 53
0302
0023
0230
2300
3000
0100
2000
3200
,  // measure 54
0320
0032
0003
0010
0200
0320
0230
0300
,  // measure 55
0200
0320
0032
0203
0300
0100
2000
3200
,  // measure 56
0320
0230
0320
0230
0320
2030
0002
3003
,  // measure 57
0002
0000
0200
0003
2000
0300
0200
3000
0000
0300
1000
0000
0200
0000
0002
0300
,  // measure 58
0200
0003
0002
0300
0000
0003
0000
0000
0002
0000
0200
0003
2000
0300
0200
3000
,  // measure 59
0020
0300
2000
0030
0020
3000
0002
0030
0000
0003
0001
0000
0020
0000
2000
0030
,  // measure 60
0020
3000
0002
0030
0000
0003
0001
0000
0020
0000
0200
0030
0020
0300
0200
0030
,  // measure 61
0020
0300
2000
0030
0002
3000
0020
0003
0000
0030
0010
0000
0020
0000
0200
0030
,  // measure 62
2000
0300
0200
3000
0000
0300
2000
0000
0200
3000
0020
0300
0002
0030
0000
0003
,  // measure 63
0002
0000
0200
0003
0020
0300
2000
0030
0000
3000
0002
0000
0020
0003
0200
0030
,  // measure 64
2000
0300
0002
3000
0020
0003
0200
0030
2000
3300
0022
0033
2002
0000
0000
0000
,  // measure 65
3003
0000
0000
0000
;
