#TITLE:Electric Super Highway;
#SUBTITLE:;
#ARTIST:MACHO ROBOT feat. nouvo nude;
#TITLETRANSLIT:;
#SUBTITLETRANSLIT:;
#ARTISTTRANSLIT:;
#CREDIT:;
#BANNER:bn.png;
#BACKGROUND:bg.png;
#LYRICSPATH:;
#CDTITLE:Beatmania IIDX.png;
#MUSIC:11 Electric Super Highway.mp3;
#OFFSET:-3.934;
#SAMPLESTART:86.800;
#SAMPLELENGTH:12.000;
#SELECTABLE:YES;
#BPMS:0.000=139.000;
#STOPS:;
#BGCHANGES:;

//---------------dance-single - Pandemonium X----------------
#NOTES:
     dance-single:
     Pandemonium X:
     Hard:
     7:
     0.393,0.404,0.433,0.131,0.061: // measure 1
0000
0000
0000
0000
,  // measure 2
0000
0000
0000
0000
,  // measure 3
0000
0000
0000
0000
,  // measure 4
1000
0000
0000
0000
0001
0000
0000
0100
0000
0000
0010
0000
1000
0000
0000
0000
,  // measure 5
0001
0000
0000
0000
1000
0000
0000
0010
0000
0000
0100
0000
0001
0000
0000
0000
,  // measure 6
1000
0000
0000
0000
0001
0000
0000
1000
0000
0000
0010
0000
1000
0000
0000
0000
,  // measure 7
0100
0000
0000
0000
0010
0000
0000
0001
0000
0000
0010
0000
0110
0000
0000
0000
,  // measure 8
0100
0000
0000
0000
1000
0000
0000
0100
0000
0000
0100
0000
0010
0000
0000
0000
,  // measure 9
0001
0000
0000
0000
0001
0000
0000
0010
0000
0000
0001
0000
0100
0000
0000
0000
,  // measure 10
0010
0000
0000
0000
0100
0000
0000
0001
0000
0000
1000
0000
0010
0000
0000
0000
,  // measure 11
0220
0000
0000
0000
,  // measure 12
0000
0000
0000
0000
0000
0000
0000
0000
0000
0000
0000
0300
0030
0000
0000
0000
,  // measure 13
1010
0010
0101
0001
,  // measure 14
1001
1000
0110
1000
,  // measure 15
0101
1000
1100
0100
,  // measure 16
1010
0000
0100
0000
0010
0100
1001
0000
,  // measure 17
0011
0001
1100
0100
,  // measure 18
0110
0010
1001
0010
,  // measure 19
1100
0010
0101
1000
,  // measure 20
0011
0000
1000
0000
0001
0100
0001
1000
,  // measure 21
0010
0000
1000
0010
0200
0000
0310
0000
,  // measure 22
0010
0000
1000
0001
0200
0000
0300
0000
,  // measure 23
0010
0000
0100
0010
2000
0000
3001
0000
,  // measure 24
0001
0000
0100
0010
2000
0000
3000
0000
,  // measure 25
0010
0000
1000
0001
2000
0000
3001
0000
,  // measure 26
0001
0000
1000
0100
0020
0000
0030
0000
,  // measure 27
0001
0000
0010
0100
2000
0000
3010
0000
,  // measure 28
0010
0100
0001
1000
,  // measure 29
0200
0000
0000
0000
,  // measure 30
0020
0000
0000
0330
,  // measure 31
0100
0000
0000
0000
1000
0000
0000
0001
0000
0000
0100
0000
0110
0000
0000
0000
,  // measure 32
0010
0000
0000
0000
1000
0000
0000
0010
0000
0000
0100
0000
0001
0000
1000
0000
,  // measure 33
0100
0000
0000
0000
0010
0000
0000
0001
0000
0000
0001
0000
1001
0000
0000
0000
,  // measure 34
1000
0000
0000
0000
0001
0000
0000
0100
0000
0000
0001
0000
0100
0000
0010
0000
,  // measure 35
0100
0000
0000
0000
0010
0000
0000
1000
0000
0000
0100
0000
1100
0000
0000
0000
,  // measure 36
1000
0000
0000
0000
0010
0000
0000
0100
0000
0000
0010
0000
1000
0000
0001
0000
,  // measure 37
0010
0000
0000
0000
0100
0000
0000
0010
0000
0000
0001
0000
0011
0000
0000
0000
,  // measure 38
0001
0000
0000
0000
0100
0000
0000
0010
0000
0000
0100
0000
1001
0000
0000
0000
,  // measure 39
0001
0100
0001
0000
0100
0000
0010
0000
,  // measure 40
1000
0010
1000
0000
0010
0000
0100
0000
,  // measure 41
0010
1000
0001
0000
0010
0000
0100
0000
,  // measure 42
1000
0100
0010
0000
0100
0000
1000
0000
,  // measure 43
0001
0100
0001
0000
0100
0000
0010
0000
,  // measure 44
1000
0100
1000
0000
0001
0000
0100
0000
,  // measure 45
0020
0000
1030
0000
0010
1000
0010
0000
,  // measure 46
0200
0000
0310
0000
0100
0001
0010
0000
,  // measure 47
0100
0100
0100
0100
,  // measure 48
2002
0000
0000
3003
,  // measure 49
0011
0100
0101
0010
,  // measure 50
1001
0010
0110
0001
,  // measure 51
1100
0010
0101
0010
,  // measure 52
1010
0000
0001
0000
0001
0010
0110
0000
,  // measure 53
0011
1000
0101
0010
,  // measure 54
1001
0001
0110
0001
,  // measure 55
1100
0010
0101
0010
,  // measure 56
0110
0000
0010
0000
0100
0010
1000
0001
,  // measure 57
0011
0001
0101
0010
,  // measure 58
1001
0010
0110
0100
,  // measure 59
0011
0010
1100
0100
,  // measure 60
1001
0000
0010
0000
0100
0100
0110
0000
,  // measure 61
1010
0010
0101
0001
,  // measure 62
0110
0100
1001
0001
,  // measure 63
0011
0010
1100
0100
,  // measure 64
0110
0000
0010
0000
0010
0001
1000
0001
,  // measure 65
0200
0000
0000
0000
,  // measure 66
0000
0000
0000
0000
,  // measure 67
0300
0000
0000
0000
;

//---------------dance-single - Pandemonium X----------------
#NOTES:
     dance-single:
     Pandemonium X:
     Medium:
     5:
     0.301,0.323,0.057,0.229,0.000:
0000
0000
0000
0000
,
0000
0000
0000
0000
,
0000
0000
0000
0000
,
1000
0010
1000
1000
,
0001
0010
0001
0001
,
0100
0010
0100
0100
,
0010
1000
0010
0010
,
0100
0001
1000
1000
,
0001
0010
0001
0001
,
0100
0010
0100
0100
,
2002
0000
0000
0000
,
0000
0000
0000
3003
,
0010
1000
0100
1000
,
0001
0100
0110
1000
,
0010
1000
0100
1000
,
0010
0000
0100
0000
0001
0100
0010
0000
,
0010
1000
0100
0010
,
0001
0001
0010
0001
,
0001
1000
0100
1000
,
0010
0000
0100
0000
0001
0010
0100
1000
,
0020
0130
0200
0310
,
0010
2000
0002
3003
,
0002
1003
2000
3001
,
0001
2000
0200
3300
,
2000
3010
0020
1030
,
0010
0200
0002
0303
,
0002
1003
2000
3001
,
0001
0100
0010
1000
,
2200
0000
0000
0000
,
3300
0000
0000
0000
,
2000
0100
0000
0100
,
3200
0010
0000
0010
,
0320
0001
0000
0001
,
0032
1000
0000
1000
,
2003
0001
0000
0001
,
3002
0100
0000
0100
,
0203
0010
0000
0010
,
0320
0100
0000
0130
,
0010
1000
0010
0001
,
0010
1000
0010
0001
,
0100
1000
0100
0001
,
0100
1000
0100
0001
,
0010
0100
1000
0100
,
0010
0100
1000
0100
,
0010
0001
0010
0100
,
0010
0001
0010
0100
,
2000
0000
0000
0000
,
3000
0000
0000
0000
,
0010
0001
0100
0010
,
1000
0001
0101
0001
,
1000
0001
0100
0001
,
0010
0000
0100
0000
0010
0001
0100
0000
,
0010
1000
0100
1000
,
0001
0100
0110
0010
,
1000
0001
0100
0001
,
1000
0000
0001
0000
1000
0100
0010
0001
,
0010
0001
0100
0001
,
0010
0100
1100
0100
,
1000
0010
0100
0010
,
1000
0000
0001
0000
0010
0100
1000
0000
,
0010
0001
0100
0010
,
1000
0001
0011
0001
,
0100
0010
1000
0000
0001
0000
0100
0000
,
0010
0000
1000
0000
0001
1000
0010
0100
,
0002
0000
0000
0000
,
0000
0000
0000
0000
,
0003
0000
0000
0000
;

//---------------dance-single - Pandemonium X----------------
#NOTES:
     dance-single:
     Pandemonium X:
     Easy:
     3:
     0.196,0.243,0.025,0.074,0.000:
0000
0000
0000
0000
,
0000
0000
0000
0000
,
0000
0000
0000
0000
,
0010
1000
0000
1000
,
0001
0010
0000
0001
,
0100
0010
0000
0100
,
0010
1000
0000
0001
,
1000
0100
0000
1000
,
0010
0100
0000
0010
,
1000
0001
0000
0010
,
0200
0000
0000
0000
,
0000
0000
0000
0300
,
0010
0000
0100
0000
,
1000
0000
0001
0000
,
0010
0000
0100
0000
,
0010
0000
0000
0000
0001
1000
0001
0000
,
0010
0000
0100
0000
,
1000
0000
0001
0000
,
1000
0000
0100
0000
,
0010
0000
0001
0010
,
0100
1000
0010
0100
,
0100
0010
1000
0000
,
0010
1000
0010
0010
,
0100
0001
0010
0000
,
0100
1000
0010
0100
,
0010
1000
0001
0000
,
1000
0100
0001
0100
,
0010
0001
0100
0010
,
2000
0000
0000
0000
,
3000
0000
0000
0000
,
0010
0100
0000
0100
,
0010
1000
0000
1000
,
0001
0010
0000
0001
,
0100
0010
0000
0100
,
0010
1000
0000
0010
,
0100
0001
0000
1000
,
0001
1000
0100
0000
,
0100
1000
1000
0001
,
0200
0001
0000
0001
,
0000
0001
0000
0001
,
0302
1000
0000
1000
,
0000
1000
0000
1000
,
2003
0010
0000
0010
,
0000
0010
0000
0010
,
3020
0100
0000
0100
,
0000
0100
0000
0100
,
0200
0000
0000
0000
,
0330
0000
0000
0000
,
0010
0000
0100
0000
,
0001
0000
1001
0000
,
1000
0000
0100
0000
,
1000
0000
0000
0000
0010
0100
0010
0000
,
0010
0000
0100
0000
,
0001
0000
0011
0000
,
0001
0000
0100
0000
,
0010
0000
1000
1000
,
0010
0000
0100
0000
,
1000
0000
0001
0000
,
1000
0000
0100
0000
,
1000
0000
0000
0000
0010
0100
0010
0000
,
0010
0000
0100
0000
,
0010
0000
1000
0000
,
0001
0000
0100
0000
,
0010
0000
1000
0001
,
2002
0000
0000
0000
,
0000
0000
0000
0000
,
3003
0000
0000
0000
;

//---------------dance-single - Pandemonium X----------------
#NOTES:
     dance-single:
     Pandemonium X:
     Beginner:
     1:
     0.097,0.183,0.016,0.000,0.000:
0000
0000
0000
0000
,
0000
0000
0000
0000
,
0000
0000
0000
0000
,
0010
0000
0000
0000
,
1000
0000
0000
0000
,
0010
0000
0000
0000
,
1000
0000
0000
0000
,
0001
0000
0000
0000
,
1000
0000
0000
0000
,
0001
0000
0000
0000
,
1001
0000
0000
0000
,
0000
0000
0000
0000
,
0010
0000
0000
0000
,
0100
0000
0000
0000
,
0001
0000
0000
0000
,
0100
0000
0010
0010
,
0100
0000
0000
0000
,
0010
0000
0000
0000
,
1000
0000
0000
0000
,
0100
0000
1000
1000
,
0001
0000
0000
0000
,
1000
0000
0000
0000
,
0010
0000
0000
0000
,
1000
0000
0000
0000
,
0010
0000
0000
0000
,
0100
0000
0000
0000
,
0001
0000
0000
0000
,
1000
0000
0001
0000
,
0100
0000
0000
0000
,
0000
0000
0000
0000
,
0010
0000
0000
0000
,
1000
0000
0000
0000
,
0001
0000
0000
0000
,
1000
0000
0000
0000
,
0001
0000
0000
0000
,
0100
0000
0000
0000
,
0001
0000
0000
0000
,
1000
0000
0000
0000
,
0001
0000
0000
0000
,
0000
0000
0000
0000
,
0100
0000
0000
0000
,
0000
0000
0000
0000
,
0010
0000
0000
0000
,
0000
0000
0000
0000
,
1000
0000
0000
0000
,
0100
0000
0000
0000
,
1000
0000
0000
0000
,
0000
0000
0000
0000
,
0010
0000
0100
0000
,
0010
0000
0100
0000
,
0010
0000
0100
0000
,
0010
0000
0100
0100
,
0010
0000
0100
0000
,
0010
0000
0100
0000
,
0010
0000
0100
0000
,
0010
0000
0100
0100
,
0010
0000
0100
0000
,
0001
0000
1000
0000
,
0001
0000
0100
0000
,
0010
0000
1000
1000
,
0010
0000
0100
0000
,
0001
0000
1000
0000
,
0001
0000
0100
0000
,
0010
0000
1000
0001
,
1001
0000
0000
0000
;

//---------------dance-single - ----------------
#NOTES:
     dance-single:
     :
     Challenge:
     8:
     0.447,0.512,0.090,0.065,0.498: // measure 1
0000
0000
0000
0000
,  // measure 2
0000
0000
0000
0000
,  // measure 3
0000
0000
0000
0000
,  // measure 4
0001
0000
0000
0000
1000
0000
0000
0100
0000
0000
0100
0000
0110
0000
0000
0000
,  // measure 5
0100
0000
0000
0000
1000
0000
0000
0001
0000
0000
0100
0000
0001
0000
0001
0000
,  // measure 6
0100
0000
0000
0000
0010
0000
0000
0100
0000
0000
0001
0000
1001
0000
0000
0000
,  // measure 7
0001
0000
0000
0000
1000
0000
0000
0100
0000
0000
1000
0000
0100
0000
0100
0000
,  // measure 8
1000
0000
0000
0000
0010
0000
0000
0001
0000
0000
0010
0000
0110
0000
0000
0000
,  // measure 9
0010
0000
0000
0000
0100
0000
0000
1000
0000
0000
1000
0000
0100
0000
0001
0000
,  // measure 10
1000
0000
0000
0000
0001
0000
0000
1000
0000
0000
0100
0000
0010
0000
0000
0000
,  // measure 11
2200
0000
0000
0000
,  // measure 12
0000
0000
0000
0000
0000
0000
0000
0000
0000
0000
0000
0000
3300
0000
0000
1000
,  // measure 13
0010
0000
0000
0000
1000
0000
0000
0001
0100
0000
0000
0000
0010
0000
0000
0010
,  // measure 14
1000
0000
0000
0000
0001
0000
0000
1000
0100
0000
0000
0000
0010
0000
0000
0010
,  // measure 15
0001
0000
0000
0000
1000
0000
0000
0001
0100
0000
0000
0000
0001
0000
0000
1000
,  // measure 16
0100
0000
0000
0000
0000
0000
0000
0000
0000
0000
0000
0000
0010
0000
0000
0000
0000
0000
0000
0000
0000
0000
0000
0000
0001
0000
0000
0000
0100
0000
0000
0000
0010
0000
0000
0000
1000
0000
0000
0000
0000
0000
0000
0000
0000
1000
0000
0000
,  // measure 17
0010
0000
0000
0000
0100
0000
0000
0100
0001
0000
0000
0000
1000
0000
0000
0001
,  // measure 18
1000
0000
0000
0000
0001
0000
0000
1000
0100
0000
0000
0000
0100
0000
0000
0100
,  // measure 19
0010
0000
0000
0000
0010
0000
0000
0010
0100
0000
0000
0000
1000
0000
0000
0100
,  // measure 20
1000
0000
0001
0000
1000
0100
0001
0100
,  // measure 21
1000
0000
0000
1000
0010
0000
0000
0010
0100
0000
0000
0100
0001
0000
0000
0001
,  // measure 22
0010
0000
0000
0010
0100
0000
0000
0100
2000
0000
0000
0000
3001
0000
0000
0001
,  // measure 23
0100
0000
0000
0100
0010
0000
0000
0010
1000
0000
0000
1000
0100
0000
0000
0100
,  // measure 24
0010
0000
0000
0010
0001
0000
0000
0001
2000
0000
0000
0000
3100
0000
0000
1000
,  // measure 25
0010
0000
0000
0010
0100
0000
0000
0100
0001
0000
0000
0001
0010
0000
0000
0010
,  // measure 26
0100
0000
0000
0100
1000
0000
0000
1000
0002
0000
0000
0000
1003
0000
0000
1000
,  // measure 27
0001
0000
0000
0001
0100
0000
0000
0001
0010
0000
0000
0010
0100
0000
0000
0100
,  // measure 28
1000
0000
0000
1000
0010
0000
0000
0010
0200
0000
0000
0000
0310
0000
0000
0000
,  // measure 29
1000
0010
0101
0000
,  // measure 30
0001
0010
1100
0000
,  // measure 31
0001
0000
0000
0000
1000
0000
0000
0100
0000
0000
0000
0000
1000
0000
0000
0000
,  // measure 32
0010
0000
0000
0000
0100
0000
0000
0010
0000
0000
0100
0000
0001
0000
0001
0000
,  // measure 33
0100
0000
0000
0000
0001
0000
0000
0100
0000
0000
0000
0000
0010
0000
0000
0000
,  // measure 34
1000
0000
0000
0000
0010
0000
0000
0100
0000
0000
0010
0000
1000
0000
0001
0000
,  // measure 35
1000
0000
0000
0000
0001
0000
0000
0100
0000
0000
0000
0000
1000
0000
0000
0000
,  // measure 36
0100
0000
0000
0000
0010
0000
0000
1000
0000
0000
0010
0000
0100
0000
0001
0000
,  // measure 37
1000
0000
0000
0000
0100
0000
0000
1000
0000
0000
0000
0000
0100
0000
0000
0000
,  // measure 38
1000
0000
0000
0000
0010
0000
0000
0100
0000
0000
0010
0000
1000
0000
0000
0000
,  // measure 39
0001
0000
0100
0000
0001
0000
0100
0000
0001
0000
0100
0000
,  // measure 40
0001
0000
0100
0000
0001
0000
0100
0000
0001
0000
0100
0000
,  // measure 41
0010
0000
0100
0000
0010
0000
0100
0000
0010
0000
0100
0000
,  // measure 42
0010
0000
0100
0000
0010
0000
0100
0000
0010
0000
0100
0000
,  // measure 43
0010
0000
1000
0000
0010
0000
1000
0000
0010
0000
1000
0000
,  // measure 44
0010
0000
1000
0000
0010
0000
1000
0000
0010
0000
1000
0000
,  // measure 45
0010
0000
1000
0000
0100
0000
0001
0000
0100
0000
1000
0000
,  // measure 46
0010
0000
0001
0000
0010
0000
1000
0000
0001
0000
1000
0000
,  // measure 47
0001
0000
0000
0000
0001
0000
0000
0001
0000
0000
0001
0000
0000
0001
0000
0000
,  // measure 48
0002
0000
0000
0000
0000
0000
0000
0000
0000
0000
0013
0000
1100
0000
0000
1000
,  // measure 49
0010
0000
0000
0000
0100
0000
0000
0010
0100
0000
0000
0000
0010
0000
0000
0100
,  // measure 50
0001
0000
0000
0000
1000
0000
0000
0100
0010
0000
0000
0000
0100
0000
0000
1000
,  // measure 51
0010
0000
0100
0000
0001
0000
0000
0100
0001
0000
0100
0000
0010
0000
0000
0100
,  // measure 52
0010
0000
0000
0100
0000
0000
0010
1000
0001
1001
0000
0000
,  // measure 53
0010
0000
0000
0000
0001
0000
0000
1000
0100
0000
0000
0000
1000
0000
0000
0010
,  // measure 54
0100
0000
0000
0000
0010
0000
0000
0100
0001
0000
0000
0000
1000
0000
0000
0100
,  // measure 55
1000
0000
0000
0000
0010
0000
0000
0100
0001
0000
0000
0000
1000
0000
0000
0100
,  // measure 56
1000
0000
0100
0000
1000
1000
0001
0001
,  // measure 57
0010
0000
0000
0010
0100
0000
1000
0000
0100
0000
0000
1000
0010
0000
0100
0000
,  // measure 58
0101
0000
0000
0001
0100
0000
0010
0000
0100
0000
0000
0100
0010
0000
1000
0000
,  // measure 59
1010
0000
0000
0100
1000
0000
0001
0000
0100
0000
0000
0010
1000
0000
0100
0000
,  // measure 60
1000
0000
0000
0000
0000
0000
0000
0000
0000
1000
0000
0000
0001
0000
0000
0000
0000
0000
1000
0000
0000
0000
0000
0000
0010
0000
0000
0000
0100
0000
0000
0000
0001
0000
0000
0000
1001
0000
0000
0000
0000
0000
0000
0000
0000
0000
0000
0000
,  // measure 61
0010
0000
0000
0010
0100
0000
0001
0000
0100
0000
0000
0010
1000
0000
0001
0000
,  // measure 62
0100
0000
0000
0100
0001
0000
1000
0000
0010
0000
0000
1000
0010
0000
0100
0000
,  // measure 63
0001
0000
0001
0000
0100
0000
0000
0001
0100
0000
0100
0000
0010
0000
0000
0100
,  // measure 64
0010
1000
0001
0000
1000
0100
0001
0010
,  // measure 65
2000
0000
0000
0000
,  // measure 66
0000
0000
0000
0000
,  // measure 67
3000
0000
0000
0000
;
