#TITLE:ЁVOLUTIΦN;
#SUBTITLE:;
#ARTIST:TЁЯRA;
#TITLETRANSLIT:EVOLUTION;
#SUBTITLETRANSLIT:;
#ARTISTTRANSLIT:;
#CREDIT:;
#BANNER:bn.png;
#BACKGROUND:bg.png;
#LYRICSPATH:;
#CDTITLE:;
#MUSIC:EVOLUTION.mp3;
#OFFSET:-0.039;
#SAMPLESTART:37.080;
#SAMPLELENGTH:12.000;
#SELECTABLE:YES;
#BPMS:0.000=165.000;
#STOPS:;
#BGCHANGES:;

//---------------dance-single - ----------------
#NOTES:
     dance-single:
     :
     Hard:
     9:
     0.612,0.635,0.271,0.143,0.323:
0000
0000
0000
0000
,
0000
0000
0000
0000
,
0000
0000
0000
0000
,
0000
0000
0000
0000
,
0000
0000
0000
0000
0000
0000
0000
0000
0000
0000
0000
0000
0000
0000
0001
0100
,
0001
0000
0000
0100
0000
0000
0010
0000
1000
0000
0000
0100
0000
0000
1000
0000
,
0001
0000
0000
0010
0000
0000
0010
0000
0001
0000
0000
0100
0000
0000
1000
0000
,
0100
0000
0000
0010
0000
0000
1000
0000
0001
0000
0000
0010
0000
0000
1000
0000
,
0011
0000
0000
1001
0000
0000
1010
0000
0101
0000
0000
0000
0000
0000
0001
1000
,
0001
0000
0000
0100
0000
0000
0010
0000
1000
0000
0000
0001
0000
0000
0010
0000
,
0100
0000
0000
0010
0000
0000
0001
0000
1000
0000
0000
0010
0000
0000
1000
0000
,
0100
0000
0000
0010
0000
0000
0100
0000
1000
0000
0000
0001
0000
0000
0010
0000
,
0100
0000
0000
0010
0000
0000
0100
0000
1000
0000
0000
0000
0010
0000
0100
0000
,
0001
0000
0000
0001
0000
0000
0001
0000
0100
0000
0000
0000
0010
0000
1000
0000
,
0100
0000
0000
0100
0000
0000
0100
0000
0010
0000
0000
0000
0100
0000
1000
0000
,
0001
0000
0000
0100
0000
0000
0010
0000
1000
0000
0000
0000
1000
0000
0100
0000
,
0110
0000
0000
0000
0000
0010
0001
1000
,
1020
0000
0000
1000
0000
0000
1030
0000
0000
0000
1000
0000
0001
0000
0010
0000
,
0210
0000
0000
0010
0000
0000
0310
0000
0000
0000
0100
0000
1000
0000
0001
0000
,
0012
0000
0000
0010
0000
0000
0013
0000
0001
0000
0100
0000
1000
0000
0100
0000
,
0020
0000
1000
0000
0130
0010
1000
0001
,
0021
0000
0000
0001
0000
0000
0031
0000
0000
0000
0001
0000
0100
0000
0010
0000
,
2010
0000
0000
0010
0000
0000
3010
0000
1000
0000
0001
0000
0001
0000
0010
0000
,
0110
0100
1001
0010
,
1001
0010
0101
1100
,
0210
0000
0000
0000
0310
0001
0100
0010
,
0000
1000
1010
0000
1000
0001
0010
0100
,
0000
0010
0001
0100
0000
0010
1000
0001
,
2000
0000
0000
3001
1000
0100
0001
0100
,
0000
0010
0110
0000
0010
0001
0100
0010
,
0000
0100
0110
0000
0100
0010
0100
0001
,
0000
1000
0100
1000
0000
2000
0100
3100
,
0000
0200
0010
0310
0000
0020
0001
0031
,
0000
0000
0001
0000
1000
0000
0010
0000
0000
0000
0000
0000
0000
0000
0100
0010
,
0100
0000
0000
0010
0000
0000
1000
0000
0001
0000
0000
0010
0000
0000
0001
0000
,
0100
0000
0000
1000
0000
0000
1000
0000
0100
0000
0000
0010
0000
0000
1000
0000
,
0001
0000
0000
0010
0000
0000
0100
0000
0010
0000
0000
0000
0100
0000
1000
0000
,
0002
0000
0000
0000
0000
0000
0013
0000
0011
0000
0000
0000
0000
0000
0100
0001
,
0100
0000
0000
0010
0000
0000
1000
0000
0100
0000
0000
1000
0000
0000
0010
0000
,
0100
0000
0000
0001
0000
0000
1000
0000
0000
0000
1000
0000
0100
0000
0010
0000
,
0001
0000
0000
0000
0000
0000
0001
0000
0100
0000
0000
0010
0000
0000
1000
0000
,
2020
0000
0000
0000
0000
0000
0000
3030
,
0000
0100
0001
0001
0100
0001
0001
0000
,
0000
1000
0001
0001
1000
0001
0001
0000
,
0000
0010
0001
0001
0010
0001
0100
0001
,
0010
0100
0100
1000
0001
0001
0100
0001
,
0000
0010
1000
1000
0010
1000
1000
0000
,
0000
0001
1000
1000
0001
1000
1000
0000
,
0000
0100
1000
1000
0100
1000
0010
1000
,
0100
0010
0010
0001
1000
1000
0010
1000
,
0010
0000
0000
1000
0001
0000
0000
0001
0100
0000
0000
0100
0010
0000
0000
0010
,
1000
0000
0000
1000
0001
0000
0000
0001
0100
0000
0000
0100
0010
0000
0000
0010
,
1000
0000
0000
1000
0001
0000
0000
0001
0100
0000
0000
0100
0010
0000
0000
0010
,
1000
0000
0000
1000
0001
0000
0000
0001
0100
0000
0000
0100
0010
0000
0000
0010
,
1000
0000
0000
1000
0100
0000
0000
0100
0010
0000
0000
0010
0001
0000
0000
0001
,
0100
0000
0000
0100
0010
0000
0000
0010
1000
0000
0000
1000
0010
0000
0000
0010
,
1000
0000
0000
1000
0100
0000
0000
0100
0010
0000
0000
0010
0001
0000
0000
0001
,
0100
0000
0000
0100
0010
0000
0000
0010
1000
0000
0001
0000
0010
0000
0001
0000
,
0000
0100
0101
0000
0010
1000
0001
0010
,
0000
0010
0100
0001
0000
0001
0100
1000
,
0100
0000
0000
0010
0001
0100
0010
1000
,
0000
0001
1001
0000
0001
1000
0100
1000
,
0000
0010
1010
0000
1000
0001
0010
0100
,
0000
0100
1000
0010
0000
0100
0001
1000
,
0000
1000
0001
0010
0000
0010
0001
0100
,
0000
0100
0010
1000
0001
0010
0100
1000
,
0000
0001
1001
0000
0001
0100
0001
0010
,
0000
0010
0001
0100
0000
0100
0010
1000
,
0100
0000
0000
0100
0010
0100
1000
0001
,
0000
0100
0101
0000
0010
1000
0001
0010
,
0000
0100
0110
0000
0010
0001
1000
0100
,
0000
0100
0010
0001
0000
0001
1000
0010
,
0000
0010
0100
0001
0000
0001
0001
1000
,
0000
0000
1000
0000
1000
0000
0020
0000
0000
0000
0030
0000
0000
0000
0100
0001
,
0100
0000
0000
0010
0000
0000
1000
0000
0001
0000
0000
0010
0000
0000
0100
0000
,
0010
0000
0000
0001
0000
0000
1000
0000
0010
0000
0000
0100
0000
0000
0100
0000
,
0010
0000
0000
1000
0000
0000
0001
0000
1000
0000
0000
0000
1000
0000
0001
0000
,
0020
0000
0000
0000
0000
0000
0130
0000
0110
0000
0000
0000
0000
0000
0100
1000
,
0100
0000
0000
1000
0000
0000
0010
0000
0100
0000
0000
0001
0000
0000
1000
0000
,
0100
0000
0000
0010
0000
0000
0100
0000
0000
0000
0100
0000
0010
0000
0001
0000
,
1000
0000
0000
0000
0000
0000
0001
0000
0201
0000
0000
0001
0000
0000
0301
0000
,
0011
0000
0000
0000
0000
0000
0001
0000
2001
0000
0000
0001
0000
0000
3001
0000
,
1100
0000
0000
0000
0000
0000
0000
0000
0101
0000
0000
0000
0000
0000
0001
0100
,
0010
0000
0010
1000
0100
0000
0100
0010
0001
0000
0001
0010
0100
0000
1000
0000
,
1001
0000
0000
0000
;

//---------------dance-single - ----------------
#NOTES:
     dance-single:
     :
     Medium:
     7:
     0.430,0.468,0.207,0.175,0.004:
0000
0000
0000
0000
,
0000
0000
0000
0000
,
0000
0000
0000
0000
,
0000
0000
0000
0000
,
0000
0000
0000
0000
,
0001
1000
0100
1000
,
0010
0100
0001
0010
,
0001
0100
0010
1000
,
0001
0000
0001
0000
1001
0000
0000
0001
,
0100
0010
1000
0100
,
0001
0100
0010
0100
,
0010
0001
0100
0010
,
1000
0000
0001
0000
0010
0000
0001
0100
,
1000
0000
0100
0000
0010
0000
0010
1000
,
0100
0000
1000
0000
0001
0000
0001
0010
,
0100
0000
0010
0000
0001
0000
0001
1000
,
0200
0000
0000
0310
,
0001
1000
0100
0000
1000
0000
0010
0000
,
0100
0001
0010
0000
0001
0000
1000
0000
,
0100
1000
0010
0000
0100
0001
0010
0000
,
0001
0010
0100
1000
0001
0000
0001
0000
,
1000
0000
0001
0000
0100
0010
1000
0000
,
0100
0000
0010
0000
0001
0010
0100
0000
,
0010
0001
0100
1000
,
0100
0010
1000
0001
,
1001
1001
2002
3003
,
0001
0100
0001
0010
,
0001
0000
1000
0000
0100
0000
0010
0001
,
0100
0000
0000
0010
1000
0001
0010
0100
,
0000
0100
0010
0000
0001
0000
0100
0000
,
0110
0010
1000
0001
,
0010
0000
0100
0000
1000
0001
1000
0001
,
0000
1000
0001
1000
0000
0001
0100
0010
,
0000
0010
1000
0100
0000
0000
0000
1000
,
1100
0100
0110
0010
,
0011
0001
0100
0010
,
1001
0010
0101
0100
,
0220
0000
0000
0330
,
0110
0010
1010
0100
,
0110
0010
1001
0001
,
0010
0000
0000
0000
0000
0000
0001
0000
0100
0000
0000
0100
0000
0000
0002
0000
,
0020
0000
0000
0033
,
0002
0000
0000
0000
0000
0000
0000
1003
,
0002
0000
0000
0000
0000
0000
0000
1003
,
0002
0000
0203
0000
,
0020
0000
0000
0000
0000
0000
0330
0010
,
2000
0000
0000
0000
0000
0000
0000
3010
,
0200
0000
0000
0000
0000
0000
0000
0310
,
2000
0000
3002
0000
,
0023
0000
0230
0000
,
1300
1000
0001
0001
,
0001
0100
0001
0100
0001
0000
0000
0000
,
0100
0100
0010
0010
,
0100
0010
0100
0010
0100
0000
0010
0000
,
1000
0001
0010
0001
,
0100
0000
1000
0000
0100
0000
0010
1000
,
0010
0000
0010
0100
0010
0000
0010
1000
,
0001
0010
0001
0010
,
0100
1000
0100
0001
,
0100
0000
0010
0000
0001
0000
0100
0010
,
2000
0000
0000
3001
0100
0000
0010
0000
,
1000
0000
0100
0000
1000
0010
0100
0010
,
1000
0001
0010
0001
,
0100
0010
1000
0001
,
0010
0010
0001
0001
,
0100
0010
1000
0001
,
1000
0000
1100
0000
1000
0100
0010
0000
,
0001
0000
0011
0000
0001
0100
0010
1000
,
0002
0000
0000
1003
0001
0100
0001
0100
,
0000
0100
0010
0000
0010
1000
0010
0000
,
0100
0000
0101
0000
0010
1000
0100
0000
,
1000
0000
0010
0000
0100
0000
0001
1000
,
0000
0100
1000
0100
0000
1000
0100
0010
,
0000
0010
0001
0010
0000
0000
0000
0001
,
0101
0010
0110
0010
,
1001
0001
0100
0010
,
1010
0000
0010
0000
0110
0000
0010
1000
,
0200
0000
0000
0000
0310
0000
0000
0010
,
0010
0001
0011
0001
,
0101
0001
0100
0010
,
1001
0000
0000
0001
0010
0100
1000
0100
,
0010
0000
0000
0010
0100
1000
0100
0010
,
0001
0000
1000
0000
,
0020
0000
0000
0000
,
0130
0000
0000
0000
;

//---------------dance-single - ----------------
#NOTES:
     dance-single:
     :
     Easy:
     4:
     0.294,0.435,0.088,0.151,0.000:
0000
0000
0000
0000
,
0000
0000
0000
0000
,
0000
0000
0000
0000
,
0000
0000
0000
0000
,
0000
0000
0000
0000
,
1000
0000
0001
0000
,
1000
0000
0001
0000
,
1000
0000
0001
0000
,
0100
0100
0100
0000
,
0010
1000
0010
1000
,
0001
1000
0001
1000
,
0001
0010
0001
0010
,
0001
0100
0010
1000
,
0010
0010
0010
1000
,
0100
0100
0100
1000
,
0001
0001
1000
0001
,
0100
0000
0000
0000
,
0010
0010
0010
0000
,
0100
0100
0100
0000
,
0010
1000
0001
0010
,
0100
0000
0000
0010
,
0001
1000
0100
0000
,
1000
0010
0100
0010
,
1000
0000
0001
0000
,
0010
0000
0000
0000
,
0220
0000
0000
0330
,
1001
0001
1000
0100
,
1000
0001
0100
0010
,
0200
0000
0310
1000
,
0010
0001
0010
0010
,
0110
0010
1000
0001
,
0010
0001
0100
0100
,
0010
0010
1000
0001
,
0010
0001
0100
0000
,
0010
0010
0100
0100
,
0010
0010
0100
0100
,
0010
0100
0010
0100
,
0020
0000
0030
0000
,
1000
0001
1000
1000
,
0001
1000
0001
0001
,
0100
0000
0010
1000
,
0200
0000
0000
0300
,
2000
0000
0000
3000
,
0002
0000
0000
0003
,
2000
0000
3002
0000
,
0200
0000
0000
0303
,
0002
0000
0000
0003
,
2000
0000
0000
3000
,
0002
0000
2003
0000
,
0000
0000
0020
3030
,
0010
0010
0010
0010
,
0010
0010
0010
0000
,
0100
0100
0100
0100
,
0001
0001
1000
1000
,
0001
0100
0001
0010
,
0001
0100
0010
1000
,
1010
0000
0101
0000
,
1001
1001
1001
1001
,
0001
0000
1000
0000
,
0100
0000
1000
0000
,
0020
0000
0130
0000
,
0001
0001
1000
0100
,
1000
0000
0010
0000
,
0100
0000
0010
0000
,
1000
0000
1000
0000
,
0001
1000
0100
0100
,
0110
0010
0001
0010
,
1000
0010
0001
0100
,
1000
0100
0010
1000
,
0001
0010
0001
1000
,
0100
1000
0010
0100
,
0010
1000
0001
0010
,
0001
0100
1000
0100
,
0010
1000
0001
0000
,
1000
0000
0001
0000
,
0100
0000
0010
0000
,
1000
0000
0100
0010
,
0002
0000
0013
0000
,
0001
0000
0100
0000
,
0001
0000
1000
0000
,
0010
0000
1000
0001
,
0100
0000
0001
1000
,
0100
0000
0010
0000
,
2002
0000
0000
0000
,
3003
0000
0000
0000
;

//---------------dance-single - ----------------
#NOTES:
     dance-single:
     :
     Beginner:
     1:
     0.135,0.268,0.024,0.000,0.000:
0000
0000
0000
0000
,
0000
0000
0000
0000
,
0000
0000
0000
0000
,
0000
0000
0000
0000
,
0000
0000
0000
0000
,
1000
0000
0000
0000
,
0001
0000
0000
0000
,
0100
0000
0000
0000
,
0010
0010
0010
0000
,
0100
0000
0000
0000
,
0001
0000
0000
0000
,
1000
0000
0000
0000
,
0100
0000
0000
1000
,
1000
0000
0000
0001
,
0001
0000
0000
0100
,
0100
0000
0010
0000
,
1000
0000
0000
0000
,
0001
0000
0000
0000
,
1000
0000
0000
0000
,
0100
0000
0000
0000
,
0010
0010
0010
0000
,
0001
0000
0000
0000
,
0100
0000
0000
0000
,
0010
0000
1000
0000
,
0100
0000
0000
0000
,
0000
0000
0000
0000
,
0010
0000
0000
0000
,
0001
0000
0001
0000
,
1000
0000
0000
0000
,
0010
0000
1000
0000
,
1001
0000
0000
0000
,
0001
0000
0000
0000
,
1000
0000
1000
0000
,
1000
1000
1000
0000
,
0001
0000
0100
0000
,
1000
0000
0000
0000
,
0010
0000
1000
0000
,
0100
0000
0000
0000
,
1000
0000
0010
0000
,
1000
0000
0000
0000
,
0001
0000
0100
0000
,
0010
0000
0000
0000
,
1000
0000
0000
0000
,
1000
0000
0000
0000
,
0001
0000
0001
0000
,
0001
0000
0000
0000
,
0100
0000
0000
0000
,
0010
0000
0000
0000
,
1000
0000
1000
0000
,
0000
0000
1000
0000
,
0001
0000
0000
0000
,
0000
0000
0000
0000
,
0100
0000
0000
0000
,
0010
0000
0010
0000
,
0010
0000
0000
0000
,
0000
0000
0000
0000
,
1000
0000
1000
0000
,
1000
0001
1000
0001
,
1001
0000
0000
0000
,
0100
0000
0000
0000
,
0010
0000
0000
0000
,
1000
0000
0001
0001
,
0001
0000
0000
0000
,
1000
0000
0000
0000
,
0010
0000
0010
0000
,
0010
0010
0010
0000
,
0100
0000
0000
0000
,
1000
0000
0000
0000
,
0001
0000
0000
0000
,
0010
0010
0001
0000
,
1000
0000
0000
0000
,
0010
0000
0000
0000
,
0100
0000
0100
0000
,
0100
0100
0100
0000
,
0010
0000
0001
0000
,
0100
0000
0000
0000
,
1000
0000
0010
0000
,
0100
0000
0000
0000
,
0010
0000
1000
0000
,
0001
0000
0000
0000
,
1000
0000
0000
0000
,
0001
0000
0000
0000
,
0100
0000
0100
0000
,
0100
0000
0000
0000
,
1001
0000
0000
0000
;

//---------------dance-single - ----------------
#NOTES:
     dance-single:
     :
     Challenge:
     9:
     0.636,0.609,0.247,0.287,0.147:
0000
0000
0000
0000
,
0000
0000
0000
0000
,
0000
0000
0000
0000
,
0000
0000
0000
0000
,
0000
0000
0000
0000
0000
0000
0000
0001
,
2000
0010
0100
0001
,
3002
0000
0010
0000
0103
0000
1000
0010
,
0200
0001
0010
0301
,
0100
0000
0000
0010
0000
0000
1000
0000
0001
0000
0000
1000
0001
0000
0000
0000
,
1001
0000
0001
0000
0001
0000
0000
0010
0001
0000
0010
0000
0100
0000
0000
0000
,
1000
0000
0010
0000
0010
0000
0000
1000
0010
0000
0100
0000
0001
0000
0000
0000
,
1000
0000
0100
0000
0100
0000
0000
1000
0100
0000
0010
0000
0001
0000
0000
0000
,
0010
0000
0100
0000
0100
0000
0000
1000
0100
0000
0010
0000
0001
0000
0000
0000
,
1000
0000
0010
0000
0100
0000
0000
0001
0100
0000
0010
0000
1000
0000
0000
0000
,
0100
0000
1000
0000
0001
0000
0000
0010
0001
0000
0010
0000
0100
0000
0000
0000
,
1000
0100
0010
0001
1000
0010
0100
0001
,
1000
0010
0100
0001
0020
0000
0130
1000
,
0001
0000
0000
1000
0000
0000
0200
0000
0000
0000
1000
0000
1300
0000
0000
0000
,
0100
0000
0000
0010
0000
0000
0002
0000
0000
0000
0100
0000
0103
0000
0000
0000
,
0001
0000
0000
0100
0000
0000
0010
0000
1000
0000
0100
0000
0001
0000
0100
0000
,
1000
0010
0001
0010
1000
0000
0001
1000
,
1100
0000
0000
0100
0000
0000
0020
0000
0000
0000
0001
0000
0031
0000
0000
0000
,
1000
0000
0000
0100
0000
0000
0010
0000
0001
0000
1000
0000
0100
0000
0000
0000
,
0110
0000
0010
0001
0101
0000
0100
0010
,
1010
1000
0001
0010
0001
1000
0001
0100
,
0101
0000
1010
0000
1000
0010
0100
0002
,
0000
1000
1003
0000
0001
0100
0010
2000
,
0000
0100
0100
3100
0000
0100
0010
0001
,
1000
0000
0001
1000
0010
0100
0001
0020
,
0000
0100
0130
0000
1000
0001
0010
0002
,
0000
0100
0103
0000
0001
0100
0010
2000
,
0000
0100
0100
3100
0000
0100
0010
0001
,
1000
0010
1010
0000
0001
0010
0011
0000
,
1000
0010
0100
0001
0010
0100
1000
0000
,
0001
0000
0000
1000
0000
0000
0100
0000
1000
0000
0000
0001
0000
0000
0010
0000
,
0001
0000
0000
1000
0000
0000
0100
0000
0001
0000
0000
0100
0000
0000
1000
0000
,
0010
0000
0000
0100
0000
0000
0001
0000
0010
0000
0000
0000
0100
0000
1000
0000
,
0010
0000
0100
0001
0010
0000
0110
0000
,
0100
0000
0000
1000
0000
0000
0010
0000
0100
0000
0000
0001
0000
0000
1000
0000
,
0100
0000
0000
0001
0000
0000
0100
0000
0000
0000
1000
0000
0010
0000
0100
0000
,
0101
0000
0000
0000
0001
0000
0010
0000
0110
0000
0000
0100
0000
0000
1000
0000
,
1010
0110
0101
0011
,
0002
0000
1003
0010
1000
0000
0100
0000
,
0020
0000
0031
0100
0001
0100
0010
1000
,
0200
0000
0310
0001
1000
0000
0100
0000
,
2000
0000
3010
0100
0001
0010
1000
0010
,
0002
0000
0103
0010
1000
0000
0100
0000
,
0020
0000
0031
1000
0100
0001
0100
1000
,
0200
0000
1300
0100
0010
0000
0001
0000
,
0020
0000
0130
1000
0001
0010
0001
0000
,
1000
0100
0010
0001
1000
0010
0100
0001
,
1000
0000
0010
0000
0001
0000
0010
0000
2000
0000
0000
0000
3100
0000
0000
0100
,
1000
0100
0010
0001
1000
0010
0100
0001
,
0010
1000
0010
0001
0100
0010
1000
0001
,
1000
0000
0010
0000
0100
0000
0000
0001
0100
0000
0010
0000
1000
0000
0000
0000
,
0010
0000
0100
0000
0001
0000
0000
0010
0001
0000
0100
0000
0010
0000
0000
0000
,
1000
0001
0010
1000
0010
0001
0100
0001
,
0011
0000
1100
0000
1000
0010
0100
0002
,
0000
1000
1003
0000
0010
0100
0001
0200
,
0000
0010
0010
0310
0000
0010
1000
0001
,
0010
0000
0100
1000
0100
0010
0001
0200
,
0000
0010
0310
0000
0100
0001
1000
0200
,
0000
1000
1300
0000
0100
0010
0001
2000
,
0000
0010
0010
3010
0000
1000
0010
0110
,
0000
0001
0010
0110
0000
1000
0001
0101
,
0000
0000
0001
0000
1000
0000
0100
0000
1000
0000
0000
1000
0001
0000
0100
0000
,
0001
0010
1000
0000
0010
0001
0100
0020
,
0000
1000
1000
1030
0000
0010
0100
0001
,
1000
0000
0001
0100
0010
1000
0100
0020
,
0000
0001
0031
0000
0010
0100
1000
0002
,
0000
0100
0103
0000
0001
0100
0010
2000
,
0000
0010
0010
3010
0000
1000
0010
0110
,
0000
0100
0001
1001
0000
1000
0100
0110
,
0010
0000
0001
0000
0100
0000
0001
0000
1000
0000
0000
0001
0000
0000
0100
0000
,
0110
0000
0000
0010
0000
0000
1000
0000
0100
0000
0000
0001
0000
0000
0100
0000
,
1000
0000
0000
0010
0000
0000
0100
0000
0001
0000
0000
0010
0000
0000
1000
0000
,
0010
0000
0000
0001
0000
0000
0100
0000
0010
0000
0000
0000
1000
0000
0100
0000
,
0010
0000
0001
0100
0010
0000
1010
0000
,
0010
0000
0000
0100
0000
0000
0001
0000
0010
0000
0000
1000
0000
0000
0010
0000
,
0001
0000
0000
0100
0000
0000
0010
0000
0000
0000
1000
0000
0100
0000
0010
0000
,
0011
0000
0000
0000
0010
0000
0100
0000
1000
0000
0000
0001
0000
0000
0100
0000
,
0110
0000
0000
0000
0010
0000
1000
0000
0100
0000
0000
0001
0000
0000
0100
0000
,
2200
3300
0022
0033
,
0100
1000
0010
0100
0001
0010
0100
1000
,
2002
0000
0000
0000
,
3003
0000
0000
0000
;
