#TITLE:ELECTRIC MASSIVE DIVER;
#SUBTITLE:;
#ARTIST:L.E.D.-G;
#TITLETRANSLIT:;
#SUBTITLETRANSLIT:;
#ARTISTTRANSLIT:;
#CREDIT:;
#BANNER:bn.png;
#BACKGROUND:Knighs bg.png;
#LYRICSPATH:;
#CDTITLE:;
#MUSIC:KNIGHTS OF THE ROUND 5 (Agracaine).ogg;
#OFFSET:-0.385;
#SAMPLESTART:1.716;
#SAMPLELENGTH:15.600;
#SELECTABLE:YES;
#BPMS:0.000=89.000,34.000=178.000,66.000=89.000,68.000=178.000,128.000=89.000,130.000=178.000,160.000=89.000,161.000=178.000,189.000=89.000,191.000=178.000,221.000=89.000,222.000=178.000,254.000=89.000,257.000=178.000,283.000=89.000,287.000=178.000;
#STOPS:;
#BGCHANGES:;

//---------------dance-single - ----------------
#NOTES:
     dance-single:
     :
     Hard:
     10:
     0.736,1.000,1.000,0.186,0.254: // measure 1
0000
0000
0000
0000
,  // measure 2
0000
0000
0000
0000
,  // measure 3
0000
0000
0000
0000
,  // measure 4
0000
0000
0000
0000
,  // measure 5
0000
0000
0000
0000
1001
0001
0100
0010
,  // measure 6
0100
0001
0010
1000
0010
0001
0100
0010
,  // measure 7
1000
0000
0000
0000
0100
0000
0000
0000
0010
0000
0000
0000
0010
0000
0000
1000
0001
0000
0100
0000
0010
0000
1000
0000
0100
0000
0010
0000
0100
0000
1000
0000
,  // measure 8
0001
0000
0100
0000
0010
0000
1000
0000
0100
0000
0010
0000
0100
0000
1000
0000
0100
0010
0100
0010
0100
0010
0100
0010
0100
0010
0100
0010
0100
0010
0100
0010
,  // measure 9
0200
0310
1001
0001
,  // measure 10
1000
1000
0001
0001
,  // measure 11
1000
0001
1000
0001
,  // measure 12
1000
0100
0010
0100
,  // measure 13
1000
0001
0100
0010
,  // measure 14
1000
0100
0010
1000
,  // measure 15
0100
0100
0010
0001
,  // measure 16
0100
0010
1000
0001
,  // measure 17
0001
0000
0000
0000
0000
0000
1000
0000
0000
0000
0000
0000
0002
0000
0200
0003
0320
0000
2000
0000
0000
3030
0000
0000
,  // measure 18
1001
0101
0110
1100
,  // measure 19
0110
0010
0110
0000
1001
0000
0110
0100
,  // measure 20
0110
0010
1001
0000
0101
0000
1010
0000
,  // measure 21
1100
0000
0110
0000
0011
0202
0303
0101
,  // measure 22
0110
0010
0010
0000
1001
0000
0001
0100
,  // measure 23
1010
1100
0110
0011
,  // measure 24
1001
0000
0101
0000
0110
0000
1000
1000
,  // measure 25
0001
0000
0000
0000
0000
0000
0001
0000
0000
0000
0000
0000
0010
0000
0000
0000
0000
0000
0000
0000
0000
0000
0000
0000
0021
0000
0000
0000
0030
0000
2001
0000
0000
3000
0000
0000
0201
0000
0000
0000
0300
0000
0100
0000
0000
0000
0000
0000
,  // measure 26
0110
1001
0110
1001
,  // measure 27
0101
0000
1010
0000
1100
0000
0011
0010
,  // measure 28
0110
0100
1001
0000
0110
0000
0101
0000
,  // measure 29
1010
0000
1100
0000
1100
0011
0000
0101
,  // measure 30
1010
0010
0110
0000
1001
0000
0101
0100
,  // measure 31
0100
0101
1100
1100
,  // measure 32
0011
0000
0101
0000
0110
0000
1001
0010
,  // measure 33
2002
0000
0000
0000
3003
0000
0010
0010
0101
0000
0000
0000
0110
0000
0000
0000
,  // measure 34
1001
1100
0110
0011
,  // measure 35
0101
0110
1001
1100
,  // measure 36
0011
1100
0110
1001
,  // measure 37
0101
0000
0000
0110
0000
0000
1001
0000
1100
0000
0000
0000
0110
0000
0000
0000
,  // measure 38
0011
0110
1001
0101
,  // measure 39
1010
1100
1001
0101
,  // measure 40
0110
1001
1100
0110
,  // measure 41
0011
0000
1001
1001
1001
0000
0101
0000
,  // measure 42
1010
1010
1010
0000
1010
0000
1100
0000
,  // measure 43
0011
0101
0110
1001
,  // measure 44
0101
0000
0000
0000
0110
0000
0000
0000
1100
0000
0000
0000
1001
0000
0002
0003
,  // measure 45
1001
0000
2000
3000
1001
0000
0000
0000
0110
0000
0000
0000
0101
0000
0000
0000
,  // measure 46
0110
1010
1100
0110
,  // measure 47
0011
0001
1001
0000
0101
0000
1010
0000
,  // measure 48
1100
0000
0000
0000
0220
0000
0000
0000
0330
0000
1001
1001
0110
0000
0000
0000
,  // measure 49
0011
0110
1010
1100
,  // measure 50
0110
0000
0110
0000
1001
1000
0101
0001
,  // measure 51
0110
1100
1001
1001
,  // measure 52
0110
0000
0101
0000
1010
0010
0110
0000
,  // measure 53
1001
0011
1001
0101
,  // measure 54
0110
0110
1001
0101
,  // measure 55
1010
1100
0011
1001
,  // measure 56
0101
0000
0000
0000
2200
0000
0000
3300
1100
0000
0000
0000
0011
0000
0000
0000
,  // measure 57
1001
1010
1001
0011
,  // measure 58
1001
0000
0101
0100
0110
0010
1001
0000
,  // measure 59
1100
0011
0101
1010
,  // measure 60
1001
0000
0001
0001
1001
0000
0101
0000
,  // measure 61
0110
1100
0110
1100
,  // measure 62
0101
0000
0110
0000
0001
1000
0001
1000
,  // measure 63
0001
0000
1000
0000
0001
0000
1000
0000
0001
1000
0001
1000
0001
1000
0001
1000
,  // measure 64
0001
0100
0010
0001
0010
0100
0010
0100
2000
0000
0000
0000
0000
0000
0000
0000
,  // measure 65
0000
0000
0000
3000
0000
0000
0000
0000
,  // measure 66
0000
0000
0000
0000
,  // measure 67
0000
0000
0000
0000
0000
0000
0001
0100
,  // measure 68
0010
1000
0100
1000
0010
0100
0001
0010
,  // measure 69
0100
0010
0001
0100
0010
1000
0001
0001
,  // measure 70
0010
0000
0010
0000
0100
0000
0100
0000
1000
0000
1000
0000
0010
1000
0010
1000
,  // measure 71
0010
1000
0010
1000
0010
0100
0001
0010
0100
1000
0001
1000
0200
0300
0000
0200
,  // measure 72
0302
0023
2000
0000
3030
0000
0000
0000
0000
0000
0000
0000
1001
0000
0000
1000
,  // measure 73
0000
0000
0010
0000
0000
0100
0000
0000
0110
0000
0000
1000
0000
0000
0001
0000
,  // measure 74
0000
0010
0000
0000
0100
0000
0000
1000
0100
0000
0000
0010
0001
0000
0011
0000
,  // measure 75
1001
0110
0101
1010
,  // measure 76
1100
0000
0000
0000
0110
0000
0000
0100
0010
0000
0000
0001
1000
0000
0000
0100
,  // measure 77
0000
0000
0010
0000
0000
0100
0000
0000
1001
0000
0000
0010
0000
0000
0100
0000
,  // measure 78
0000
0010
0000
0000
1001
0000
0000
0001
1000
0000
0000
1000
0001
0000
0000
0000
,  // measure 79
0101
0000
1010
0000
1100
0000
0110
0011
,  // measure 80
0011
0000
0000
0000
0101
0000
0110
0000
0010
1000
0001
0000
1100
0000
0110
0000
,  // measure 81
0011
1001
0101
0110
,  // measure 82
1001
0000
0000
0000
1100
0000
0000
0001
0010
0000
0000
0010
0100
0000
1100
0000
,  // measure 83
0011
1001
0101
0110
,  // measure 84
1100
0000
0000
0000
0110
0000
0000
0010
0100
0000
0001
0000
1001
0000
0101
0000
,  // measure 85
0110
0000
0110
0000
1010
0110
0101
0000
,  // measure 86
1001
0000
0000
0000
1100
0000
0000
0010
0001
0000
0001
0000
0100
0000
0010
0000
,  // measure 87
1000
0000
0010
0000
0100
0000
0001
0000
0010
0000
0100
0000
1000
0100
1000
0100
,  // measure 88
1000
0100
1000
0100
1000
0010
0100
0001
1000
0100
0010
0002
2000
0000
0000
0000
,  // measure 89
0000
0000
3003
0000
;

//---------------dance-single - ----------------
#NOTES:
     dance-single:
     :
     Medium:
     9:
     0.507,0.914,0.509,0.165,0.054:
0000
0000
0000
0000
,
0000
0000
0000
0000
,
0000
0000
0000
0000
,
0000
0000
0000
0000
,
0000
0000
0000
0000
1000
1000
0001
0001
,
0100
0100
0010
0010
0100
0001
0010
0100
,
1000
0000
0100
0000
1000
0000
0010
0000
0100
0010
1000
0001
0010
0001
0100
1000
,
0100
0010
1000
0001
0010
0100
1000
0001
0100
0001
0010
0100
1000
0001
0010
0100
,
1000
0000
0000
0000
0010
0100
0000
0010
,
0000
1000
0000
0010
0000
0100
0000
0100
,
0000
0010
0000
0010
0000
0100
0000
0001
,
0000
0010
0000
0001
0000
1000
0000
1000
,
0000
0001
0000
0001
0000
0100
0000
0100
,
0000
0010
0000
1000
0000
0010
0000
0010
,
0000
0100
0000
0100
0000
0010
0000
1000
,
0000
0001
0000
0010
0000
0001
0000
0100
,
0000
1000
0000
0100
0000
0000
0000
0000
,
0010
1000
0010
0100
,
0010
0100
0010
0000
1000
0000
0010
1000
,
0001
0001
0001
0000
0001
0000
0010
0000
,
0100
0000
0010
0000
0001
0001
0000
1000
,
0001
0001
0001
0000
0100
0000
0010
0010
,
0010
0100
0010
1000
,
0001
0000
0010
0000
0100
0000
1000
0100
,
1000
0100
1000
0000
0100
0100
0010
0010
,
0001
1000
0001
0100
,
0001
0000
0010
0000
0100
0000
0100
0100
,
0010
0001
0010
0000
0001
0000
0100
0000
,
0010
0000
1000
0000
0010
0010
0000
0100
,
0010
0010
0010
0000
0100
0000
0010
0010
,
0010
0100
0010
1000
,
0001
0000
0100
0000
0010
0000
1000
0010
,
2020
0000
0000
0000
3030
0000
0010
0010
0010
0000
0000
0000
1000
0000
0000
0000
,
0100
1000
0100
0010
,
0001
0010
0001
0100
,
0010
1000
0001
0010
,
0100
0000
0000
0100
0000
0000
0100
0000
0100
0000
0000
0000
0010
0000
0000
0000
,
0001
1000
0001
0100
,
0010
0100
0010
1000
,
0010
0100
0010
1000
,
0001
0000
1000
0001
0100
0000
0001
0000
,
0001
0001
0001
0000
1000
0000
0010
0000
,
0100
0010
1000
0010
,
0100
0000
0010
0000
0001
0000
0010
0001
,
1000
0010
1000
0000
0001
0000
0100
0000
,
1000
0100
0001
0010
,
1000
0010
0010
0000
0001
0000
0100
0000
,
0010
0000
0000
0000
2002
0000
0000
0000
3003
0000
0100
0100
0200
0000
0000
0000
,
0010
1000
0010
1000
,
0010
0320
1000
2030
,
0001
0001
0001
3002
,
1000
1000
1000
0023
,
0100
0100
0100
0100
,
0100
0230
1000
2300
,
0001
0001
0001
3020
,
0100
0000
0200
0330
0200
0000
1000
0000
,
1000
1000
1000
1000
,
0320
0100
2030
0010
,
0010
0010
3002
0100
,
0100
0100
1003
1000
,
0001
0001
0100
0100
,
0010
0000
0010
0000
0100
0010
1000
0001
,
0010
0001
0100
1000
0100
0010
1000
0001
,
0010
0100
1000
0001
0202
0000
0000
0000
,
0000
0303
0000
0000
,
0000
0000
0000
0000
,
0000
0000
0000
0001
,
0100
0010
1000
0010
,
0001
0000
0010
0000
0100
0000
0010
0010
,
1000
1000
0001
0001
0010
0010
0001
0010
,
0100
1000
0001
0010
0100
1000
2002
0000
,
0000
3003
0000
1001
,
0101
1010
0110
1001
,
1100
0000
0110
0000
1001
0000
0101
0101
,
0101
0110
0110
1001
,
0110
0000
0101
0000
0101
1001
1100
1100
,
1001
0101
0110
1001
,
0101
0110
0110
1001
,
0101
0000
1010
0000
1100
0000
0011
0110
,
1100
0000
1001
1001
0110
0110
1001
1001
,
1001
0101
1010
1100
,
0011
0000
0011
0000
1001
0000
0101
1001
,
1001
1100
0110
0011
,
0101
0000
1001
0000
1100
1100
0110
0000
,
0011
0000
1001
0000
0101
0110
0110
0000
,
0101
0000
0011
0000
0110
0000
0010
0100
,
1000
0001
0100
0001
0010
0100
1000
1000
,
0100
0100
0010
0010
0001
0001
2002
0000
,
3003
0000
0000
0000
;

//---------------dance-single - ----------------
#NOTES:
     dance-single:
     :
     Easy:
     6:
     0.399,0.572,0.767,0.172,0.000:
0000
0000
0000
0000
,
0000
0000
0000
0000
,
0000
0000
0000
0000
,
0000
0000
0000
0000
,
0000
0000
1000
0001
,
1000
0001
1000
0001
,
1000
0000
0001
0000
1000
0010
1000
0010
,
0001
0010
0100
0010
1000
1000
1000
1000
,
1001
0000
0001
0000
,
1000
0000
0010
0000
,
0100
0000
0010
0000
,
1000
0000
0001
0000
,
0010
0000
0001
0000
,
0100
0000
0010
0000
,
1000
0000
0001
0000
,
1000
0000
0001
0000
,
1000
0000
0000
0000
,
0001
1000
0010
0100
,
0110
0101
1000
0101
,
1010
0110
0010
1000
,
0001
0010
0110
0000
,
0110
0011
0001
0101
,
1010
0010
1000
0001
,
0010
0001
0100
0110
,
0110
0110
0110
1001
,
0110
0010
1000
0010
,
0001
0010
0100
0101
,
1100
0101
0001
1000
,
0100
0010
0110
0000
,
1001
0110
1001
0001
,
1000
0100
1000
0010
,
0100
0001
0010
0100
,
2200
3300
1100
0001
,
0010
0001
0100
0010
,
1000
0001
1000
0001
,
0100
0010
1000
0010
,
0110
1001
0110
0010
,
1000
0010
0001
0010
,
0100
0010
1000
0001
,
0010
0100
1000
0100
,
1100
1100
0011
0101
,
1001
0110
0010
1000
,
0010
0100
0010
1000
,
0001
0010
0100
0110
,
1001
0101
0001
0100
,
0010
1000
0010
0100
,
0110
1001
0001
0100
,
0010
2002
3003
0002
,
0000
0000
0000
0000
,
0000
2003
0000
0020
,
0000
0000
0000
3000
0000
0000
0200
0000
,
0000
0000
0030
0002
,
0000
0000
0000
0000
,
0300
0020
0003
0200
,
0000
0000
0030
2000
,
0000
0000
0000
3300
2000
0000
0000
0000
,
0000
0000
0000
0000
,
3020
0000
0200
0000
,
0000
0030
0002
0000
,
0000
0300
2000
0000
,
0000
0003
0200
0000
,
0000
3000
0020
0000
,
0000
0300
0002
0000
,
0000
0033
2002
0000
,
0000
3003
0000
0000
,
0000
0000
0000
0000
,
0000
0000
0000
0100
,
0010
1000
0001
0010
,
0001
1000
0010
0100
,
0100
0000
0100
0000
0100
0000
0010
1000
,
0010
1000
0010
1000
0010
1000
0010
0000
,
0000
0000
0000
0101
,
1100
0101
1100
0101
,
1100
0101
1100
1010
,
0011
1010
0011
1010
,
0011
1010
0011
1001
,
0110
1001
0110
1001
,
0110
1001
0110
0101
,
1010
1100
0011
0110
,
1001
0110
0110
0101
,
1100
0101
1100
0101
,
1100
0101
1100
1010
,
0011
1010
0011
1010
,
0011
1010
0011
1001
,
0110
1001
0110
1001
,
0110
1001
0110
0101
,
1010
1100
0011
0110
,
1100
0110
0011
2002
,
0000
0000
0000
3003
;

//---------------dance-single - ----------------
#NOTES:
     dance-single:
     :
     Beginner:
     3:
     0.161,0.377,0.351,0.007,0.000:
0000
0000
0000
0000
,
0000
0000
0000
0000
,
0000
0000
0000
0000
,
0000
0000
0000
0000
,
0000
0000
0000
0000
,
0001
0000
0100
0000
,
0010
0010
0010
0000
,
0100
0000
0001
0000
,
1000
1000
1000
0000
,
0000
0000
0000
0000
,
0000
0000
0000
0000
,
0000
0000
0000
0000
,
0000
0000
0000
0000
,
0000
0000
0000
0000
,
0000
0000
0000
0000
,
0000
0000
0000
0000
,
0000
0000
0020
0030
,
1000
0000
0000
0000
,
0001
0000
0000
0000
,
1001
0000
0000
0000
,
0110
0000
0010
0000
,
1001
0000
0000
0000
,
1000
0000
0000
0000
,
1001
0000
0000
0000
,
0001
0000
1001
0110
,
1001
0000
0000
0000
,
0010
0000
0000
0000
,
1000
0000
0000
0000
,
0001
0000
1001
0000
,
0110
0000
0000
0000
,
0110
0000
0000
0000
,
0010
0000
0000
0000
,
1001
0000
0110
0000
,
0000
0000
0010
0000
,
0000
0000
0100
0000
,
0000
0000
0001
0000
,
1001
1001
1001
0000
,
0000
0000
0010
0000
,
0000
0000
1000
0000
,
0000
0000
0100
0000
,
0110
0010
0000
0000
,
0001
0001
0000
0000
,
0000
1000
0000
0000
,
0000
0010
0000
0100
,
0000
1001
0000
0000
,
0000
1000
0000
0000
,
0000
0001
0000
0000
,
0000
1001
0000
0010
,
0000
0000
0000
0000
,
0000
1000
0000
0010
,
0000
0000
0000
0100
,
0000
0000
0000
1001
,
0000
0000
0000
0000
,
0000
0001
0000
0010
,
0000
0000
0000
0100
,
0000
1000
0100
0000
,
0000
0000
0000
0000
,
1000
0000
0010
0000
,
0000
0000
0000
0000
,
0000
0000
0001
0000
,
0000
0000
0100
0000
,
0000
0000
0010
0000
,
0000
0000
1000
0000
,
0001
0000
1001
0000
,
0000
0000
0000
0000
,
0000
0000
0000
0000
,
0000
0000
0000
0010
,
0000
0000
0000
0100
,
0000
0000
0000
0001
,
0000
1000
0000
0001
,
1000
0010
0100
1001
,
0000
0000
0000
1001
,
0000
0000
0000
0110
,
0000
0000
0000
1001
,
0000
0000
0000
1001
,
0000
1001
0000
0110
,
0000
0000
0000
0110
,
0000
0000
0000
1001
,
0000
0000
0000
1001
,
0000
0110
0110
1001
,
0000
0000
0000
1001
,
0000
0000
0000
0110
,
0000
0000
0000
0110
,
0000
1001
0110
1001
,
0000
0000
1001
0110
,
0000
0110
0000
0110
,
0000
1001
0000
0110
,
0110
1001
1001
0110
;
