#TITLE:Dschinghis Khan;
#SUBTITLE:;
#ARTIST:Berryz Koubou;
#TITLETRANSLIT:;
#SUBTITLETRANSLIT:;
#ARTISTTRANSLIT:;
#CREDIT:;
#BANNER:bn.png;
#BACKGROUND:bg.png;
#LYRICSPATH:;
#CDTITLE:;
#MUSIC:Dschinghis Khan.mp3;
#OFFSET:-0.765;
#SAMPLESTART:47.040;
#SAMPLELENGTH:12.000;
#SELECTABLE:YES;
#BPMS:0.000=140.000;
#STOPS:104.000=0.429
,105.000=0.429
;
#BGCHANGES:;

//---------------dance-single - ----------------
#NOTES:
     dance-single:
     :
     Hard:
     7:
     0.418,0.420,0.357,0.261,0.000:
0000
0000
0000
0000
,
0000
0000
0000
0000
,
0000
0000
0000
0000
,
0000
0000
0000
0000
,
0000
0000
0000
0000
,
0101
0010
1100
0010
,
1001
0010
1001
0100
,
0011
0100
1010
0100
,
1001
0010
1001
0100
,
1002
1000
1000
1003
,
2001
0001
0001
3001
,
0001
0100
0010
0000
0100
0010
1000
0000
,
1000
0001
0010
0100
0000
0100
0010
0001
,
1001
0001
1001
1000
,
0110
0100
0110
0010
,
0100
0010
1000
0000
1000
0001
0010
0000
,
0001
0010
0100
0010
0000
0100
1000
0010
,
0110
0010
1001
0100
,
0101
0100
1010
0100
,
0010
0100
0010
0000
1000
0001
1000
0000
,
0001
0010
0100
1000
0000
0000
0000
0000
,
1000
0001
1000
0000
0010
0100
0010
0000
,
0100
0010
1000
0001
0000
0000
0000
0000
,
2000
3100
0200
0310
,
0020
0032
0203
0320
,
2000
0000
0000
3030
,
1001
0000
0110
0000
1001
0000
0000
0001
,
0101
0000
0000
0100
0010
0000
1000
0100
,
0000
0000
0000
0000
0100
0000
0010
0001
,
0100
0000
0100
1000
0100
0000
1000
0100
,
0001
0000
0010
0100
0110
0000
0000
0010
,
0110
0000
0000
0100
0110
0000
0010
0001
,
0000
0000
0000
0000
0001
0000
0001
0100
,
1000
0000
1000
0100
0010
0000
0010
1000
,
0001
0000
0010
0100
1000
0001
0010
0001
,
1000
0010
0000
0000
0120
0100
0100
0130
,
0000
0000
0100
0001
,
0010
0100
0000
0000
2001
0001
0001
3001
,
0000
0000
0002
0103
,
0200
0310
0020
2030
,
3002
0023
0200
0000
,
0000
0000
0330
0000
0100
0100
1000
1000
,
0001
0001
0100
0100
0010
0000
0000
0010
,
1010
0000
0000
1000
1010
0000
0010
0100
,
0000
0000
0000
0000
0100
0000
0010
1000
,
0001
0000
0001
0010
0100
0000
0100
0010
,
0001
0000
0001
1000
1001
0000
0000
0010
,
1001
0000
0000
0100
1001
0000
0001
0001
,
0000
0000
0000
0000
1000
0000
0010
0100
,
0010
0000
1000
0001
1000
0000
0001
0010
,
0001
0000
0100
0000
0010
1000
0100
0010
,
0001
0010
0000
0000
0102
0100
0100
0103
,
0000
0000
0000
0100
0010
0000
1000
0000
,
0001
0010
0000
0000
2100
0100
0100
3100
,
0000
0000
0000
1000
0002
0000
0013
0000
,
0020
0130
0200
2300
,
3020
0230
0002
0000
,
0000
0303
1001
0110
,
1001
0000
0000
0000
;

//---------------dance-single - ----------------
#NOTES:
     dance-single:
     :
     Medium:
     5:
     0.335,0.392,0.560,0.087,0.000:
0000
0000
0000
0000
,
0000
0000
0000
0000
,
0000
0000
0000
0000
,
0000
0000
0000
0000
,
0000
0000
0000
0000
,
0110
0000
0101
0000
,
1100
0000
0110
0000
,
1001
0000
0101
0000
,
0011
0000
0110
0000
,
2200
0000
0000
3300
,
0022
0000
0000
0033
,
0001
0001
1000
1000
,
0010
0100
0001
0010
,
0110
0000
1001
0000
,
0110
0000
1001
0000
,
0001
0100
0010
1000
,
0010
0100
0001
1000
,
1001
0000
0110
0000
,
1010
0000
0101
0000
,
0001
0100
0010
1000
,
0020
0000
0100
0130
0000
0000
0000
0000
,
0100
0010
1000
0001
,
0020
0000
0100
0130
0000
0000
0000
0000
,
0010
0001
0010
0100
,
1000
1000
0001
0100
,
0020
0000
0000
0000
,
0130
0000
1001
0000
0010
0000
0000
0100
,
0010
0000
0000
0100
0010
0000
0100
0010
,
0000
0000
0110
1001
,
0110
1001
0110
1001
,
0110
0000
1001
0000
0101
0000
0000
0001
,
0100
0000
0000
0100
1000
0000
1000
0100
,
0000
0000
0110
1010
,
0110
1010
0011
1010
,
0011
1001
0001
0100
,
0010
0000
0000
0000
0100
0001
0100
0001
,
0000
0000
0100
0010
,
1000
0000
0000
0000
0100
0010
0100
0010
,
0000
0000
0100
1000
,
0010
0001
0010
1000
,
0100
0001
0200
0000
,
0000
0000
0000
0000
0310
0001
0010
0001
,
0010
0001
0010
0001
1000
0000
0000
0001
,
1000
0000
0000
0001
1000
0000
1000
0010
,
0000
0000
0110
0110
,
1001
1001
0110
0110
,
1001
0000
1001
0000
0110
0000
0000
0010
,
1000
0000
0000
0010
1000
0000
1000
0001
,
0000
0000
0101
1100
,
0101
1100
1010
0011
,
1010
1001
0101
0001
,
0101
0000
0000
0000
0100
0010
0100
0010
,
0000
0000
0010
1000
,
0001
0000
0000
0000
1000
0100
1000
0100
,
0000
0000
1000
0010
,
0100
0001
0010
0100
,
1000
0010
0200
0000
,
0000
0300
0110
1001
,
0110
0000
0000
0000
;

//---------------dance-single - ----------------
#NOTES:
     dance-single:
     :
     Easy:
     2:
     0.171,0.224,0.048,0.029,0.000:
0000
0000
0000
0000
,
0000
0000
0000
0000
,
0000
0000
0000
0000
,
0000
0000
0000
0000
,
0000
0000
0000
0000
,
1000
0000
0001
0000
,
1000
0000
0001
0000
,
0100
0000
0010
0000
,
0100
0000
0010
0000
,
0100
0001
0100
0001
,
0010
0100
1000
0100
,
1000
0000
0010
0000
,
0100
0000
0001
0000
,
1000
1000
0001
0001
,
1000
1000
0001
0001
,
0100
0000
0001
0000
,
0010
0000
0100
0000
,
1000
1000
0100
0100
,
1000
1000
0010
0010
,
0100
0000
0001
0000
,
1000
0001
0100
0000
,
0010
0000
1000
0000
,
0010
0100
0001
0000
,
1000
0000
1000
0000
,
0001
0000
0100
0000
,
0020
0000
0000
0000
,
0030
0000
0100
0000
,
0100
0000
0100
0010
,
1000
0000
0001
0000
,
0001
0000
1000
0000
,
1000
0000
0010
0000
,
0010
0000
0010
0000
,
0000
0000
0100
0000
,
0001
0000
1000
0000
,
0100
0000
0010
0010
,
0010
0000
1001
0000
,
0000
0000
0100
0100
,
0100
0000
1001
0000
,
0000
0000
0001
0000
,
0100
0000
1000
0000
,
0100
0000
0020
0000
,
0000
0000
0030
0000
,
0000
0000
1000
0000
,
0001
0000
0010
0000
,
0000
0000
0001
0000
,
0100
0000
0010
0000
,
1000
0000
0100
0000
,
0100
0000
0100
0000
,
0000
0000
0010
0000
,
0001
0000
0100
0000
,
1000
0000
0100
0010
,
1000
0000
1001
0000
,
0000
0000
0001
0001
,
1000
0000
0101
0000
,
0000
0000
0001
0000
,
0100
0000
0010
1000
,
0010
1000
2000
0000
,
0000
0000
3001
1000
,
1001
0000
0000
0000
;

//---------------dance-single - ----------------
#NOTES:
     dance-single:
     :
     Beginner:
     1:
     0.088,0.112,0.039,0.019,0.000: // measure 1
0000
0000
0000
0000
,  // measure 2
0000
0000
0000
0000
,  // measure 3
0000
0000
0000
0000
,  // measure 4
0000
0000
0000
0000
,  // measure 5
0000
0000
0000
0000
,  // measure 6
1000
0000
0000
0000
,  // measure 7
0001
0000
0000
0000
,  // measure 8
1000
0000
0000
0000
,  // measure 9
0001
0000
0000
0000
,  // measure 10
0100
0000
0100
0000
,  // measure 11
0010
0000
0010
0000
,  // measure 12
1000
0000
0000
0000
,  // measure 13
0100
0000
0000
0000
,  // measure 14
1000
0000
1000
0000
,  // measure 15
1000
0000
1000
0000
,  // measure 16
0001
0000
0000
0000
,  // measure 17
0100
0000
0000
0000
,  // measure 18
0010
0000
0010
0000
,  // measure 19
0010
0000
0010
0000
,  // measure 20
0100
0000
0000
0000
,  // measure 21
0001
0000
0000
0000
,  // measure 22
0001
0000
0000
0000
,  // measure 23
1000
0000
0000
0000
,  // measure 24
0100
0000
0000
0000
,  // measure 25
0100
0000
0000
0000
,  // measure 26
1000
0000
0000
0000
,  // measure 27
0000
0000
0010
0000
,  // measure 28
0000
0000
0010
0000
,  // measure 29
0000
0000
1000
0000
,  // measure 30
0000
0000
0001
0000
,  // measure 31
0000
0000
1000
0000
,  // measure 32
0000
0000
0010
0000
,  // measure 33
0000
0000
0100
0000
,  // measure 34
0000
0000
0100
0000
,  // measure 35
0000
0000
0010
0000
,  // measure 36
0000
0000
1001
0000
,  // measure 37
0000
0000
0100
0000
,  // measure 38
0000
0000
1001
0000
,  // measure 39
0000
0000
1000
0000
,  // measure 40
0000
0000
0001
0000
,  // measure 41
0000
0000
0200
0000
,  // measure 42
0000
0000
0300
0000
,  // measure 43
0000
0000
0010
0000
,  // measure 44
0000
0000
0010
0000
,  // measure 45
0000
0000
1000
0000
,  // measure 46
0000
0000
0100
0000
,  // measure 47
0000
0000
1000
0000
,  // measure 48
0000
0000
0001
0000
,  // measure 49
0000
0000
0100
0000
,  // measure 50
0000
0000
0010
0000
,  // measure 51
0000
0000
0100
0000
,  // measure 52
0000
0000
0110
0000
,  // measure 53
0000
0000
1000
0000
,  // measure 54
0000
0000
0110
0000
,  // measure 55
0000
0000
0010
0000
,  // measure 56
0000
0000
0001
0000
,  // measure 57
1000
0000
0020
0000
,  // measure 58
0000
0000
0000
0000
,  // measure 59
0030
0000
0000
0000
;
