#TITLE:Deadbeat Boyfriend;
#SUBTITLE:;
#ARTIST:Lucky Princess;
#TITLETRANSLIT:;
#SUBTITLETRANSLIT:;
#ARTISTTRANSLIT:;
#CREDIT:;
#BANNER:bn.png;
#BACKGROUND:bg.png;
#LYRICSPATH:;
#CDTITLE:;
#MUSIC:Deadbeat Boyfriend.mp3;
#OFFSET:-0.019;
#SAMPLESTART:60.000;
#SAMPLELENGTH:12.000;
#SELECTABLE:YES;
#BPMS:0.000=160.000;
#STOPS:;
#BGCHANGES:0.000=movie 2.avi=1.000=1=0=0,
99999=-nosongbg-=1.000=0=0=0 // don't automatically add -songbackground-
;

//---------------dance-single - ----------------
#NOTES:
     dance-single:
     :
     Hard:
     8:
     0.438,0.559,0.125,0.089,0.170:
0000
0000
0000
0000
,
0000
0000
0000
0000
,
0000
0000
0000
0000
,
0000
0000
0000
0000
,
0000
0000
0000
0000
,
0000
0000
0000
0000
,
0000
0000
0000
0000
,
0000
0000
0000
0000
,
0001
0000
1000
0000
0010
0000
0000
0100
0000
0010
0000
1000
0100
0000
1000
0000
,
0001
0000
0100
0000
0010
0000
0000
0100
0000
0010
0000
1000
0000
0001
0000
0010
,
0100
0000
0100
0000
0010
0000
0000
0001
0000
1000
0000
0001
1000
0000
0010
0000
,
1000
0100
0001
0100
0010
0001
0100
0000
,
0010
0000
0100
0000
0001
0000
0000
1000
0000
0010
0000
1000
0010
0000
0100
0000
,
0001
0000
0001
0000
0010
0000
0000
0100
0000
1000
0000
0010
0000
0100
0000
0001
,
1000
0000
0100
0000
0010
0000
0000
0100
0000
1000
0000
1000
0000
0001
0000
1000
,
0100
0100
0100
0000
,
0010
0000
0001
0100
0010
0000
0100
1000
,
0100
0000
0100
0010
1000
0000
1000
0100
,
0001
0000
0001
0010
0100
0000
0010
0000
,
0012
0010
0013
0000
,
0000
0001
0000
1000
0010
0000
0100
1000
,
0100
0000
0000
1000
0100
0000
0010
1000
,
0001
0000
0001
0010
1000
0000
0010
0000
,
0110
1001
0110
0000
,
0100
0001
0010
0100
,
0010
0001
0100
0000
1000
0100
0010
1000
,
0001
1000
0010
1000
,
0200
1300
0200
0310
,
0010
0001
0100
0000
0010
0000
1000
0000
,
0001
1000
0100
0000
0100
0010
0001
0000
,
0001
0100
1000
0000
1000
0100
0010
0000
,
0010
1000
0010
1000
0010
1000
0100
0010
,
0000
0001
0010
0100
0010
0001
1000
0010
,
0200
0000
0000
0000
0300
0010
0100
0010
,
0000
0010
0000
1000
0000
0001
0000
0010
,
0100
1000
0001
0010
0000
0001
0100
0010
,
0000
0100
0000
0001
0000
1000
0000
0100
,
0000
0001
0000
0100
0000
0010
0000
0011
,
0000
1100
0000
0101
0000
1010
0000
2002
,
0000
0000
0000
0000
3003
0001
0001
0100
,
0010
0000
1000
0000
0100
0000
0010
0100
,
0000
0100
0100
0010
0000
0010
0100
1000
,
0001
0100
0010
0000
1000
0000
0001
0000
,
0010
0100
0000
1100
0000
1000
0010
0001
,
0010
0000
0110
0000
0010
0000
1000
0001
,
0000
0001
0010
0100
0000
0100
1000
0001
,
0000
0001
1000
0010
0200
0000
1000
0000
,
0010
0020
0000
0000
0330
0100
0001
0010
,
0000
0100
0010
0100
0020
0000
0001
0000
,
0100
0200
0000
0000
0000
0000
0330
0000
,
0010
0000
0001
0100
0010
0000
0000
0000
,
0000
0000
0000
0000
,
0100
0000
0010
1000
0100
0000
1000
0000
,
0000
0000
0000
0000
,
0000
1000
0000
0001
0100
0000
0000
0000
,
0000
0000
0000
0000
,
0100
0000
0010
1000
0010
0000
1000
0000
,
0001
0010
0100
0000
,
0010
0000
0001
0000
0000
1000
0000
0000
0001
0000
0000
1000
0000
0000
0001
0000
,
0000
0000
0100
0000
0000
0010
0000
0000
0100
0000
0000
0010
0000
0000
0100
0000
,
0000
0000
0001
0000
0000
0100
0000
0000
0010
0000
0000
1000
0000
0000
0100
0000
,
0000
0000
1000
0000
0000
0100
0000
0000
0010
0000
0000
0001
0000
0000
0010
0000
,
0000
0000
0100
0000
0000
0100
0000
0000
0010
0000
0000
0010
0000
0000
0100
0000
,
0000
0000
1000
0000
0000
1000
0000
0000
0001
0000
0000
0001
0000
0000
0100
0000
,
0000
0000
0010
0000
0000
0010
0000
0000
0100
0000
0000
0100
0000
0000
0010
0000
,
1010
0011
1001
0000
,
0001
0100
0100
0001
,
0001
1000
1000
0100
,
0100
1000
1000
0010
,
0100
0001
0010
0000
,
0000
0010
0000
0001
0010
0000
0100
1000
,
0100
0000
0000
1000
0100
0000
1000
0100
,
0010
0000
0010
0100
1000
0000
0001
0000
,
1000
0100
1000
0000
;

//---------------dance-single - ----------------
#NOTES:
     dance-single:
     :
     Medium:
     5:
     0.346,0.427,0.152,0.036,0.000:
0000
0000
0000
0000
,
0000
0000
0000
0000
,
0000
0000
0000
0000
,
0000
0000
0000
0000
,
0000
0000
0000
0000
,
0000
0000
0000
0000
,
0000
0000
0000
0000
,
0000
0000
0000
0000
,
0001
0100
0001
0000
0100
0000
0110
0000
,
0010
1000
0010
0000
0100
0000
0110
0000
,
0010
1000
0010
0000
1000
0000
1010
0000
,
1000
0100
0010
0001
,
0010
0100
1000
0000
0100
0000
1100
0000
,
0100
0010
1000
0000
0010
0000
0110
0000
,
0010
1000
0001
0000
0010
0000
0100
0000
,
1001
0000
0000
0000
,
0001
0000
1000
0001
1000
0000
0001
1000
,
0001
0000
1000
0001
1000
0000
0001
1000
,
0001
0000
1000
0001
1000
0000
0001
0000
,
1000
1000
1000
0000
,
0000
0010
0000
0100
0010
0000
0010
0100
,
0010
0000
0000
0100
0010
0000
0100
0010
,
0100
0000
0010
0100
0010
0000
0100
0000
,
0110
1001
0110
0000
,
0010
1000
0010
1000
,
0001
0000
0010
0000
0100
1000
0100
0000
,
1000
0010
0100
0100
,
0010
1000
0001
0010
,
0100
1000
0010
0000
0000
0000
0100
0000
,
0010
1000
0001
0010
,
0100
0010
0001
0100
,
0020
0000
0000
0000
0000
0000
0000
0030
,
0100
0001
1000
0100
,
0020
0000
0030
0100
,
1000
0100
1000
0010
,
0100
0000
0100
0000
0100
0000
0010
1000
,
0001
1000
0001
0010
,
0001
1000
0010
0100
,
0001
0001
1000
1000
,
0220
0000
0330
0000
,
0010
0000
1000
0000
0010
0000
0100
0010
,
0000
1000
0001
1000
0000
0001
0100
0000
,
0010
0100
0001
1000
,
0100
0010
0000
0011
0000
0001
0010
0100
,
1000
0000
0100
0000
1000
0000
0100
1000
,
0000
0010
0100
0001
0000
1000
0001
0100
,
0000
0001
0100
0000
0010
0000
0010
0000
,
0100
0010
0000
0000
0000
0100
0010
1000
,
0000
0010
1000
0000
0001
0000
0001
0000
,
1000
0100
0000
0000
0000
0000
0000
0000
,
1000
0000
0001
0100
0001
0000
0000
0000
,
0000
0000
0000
0000
,
1000
0000
0001
1000
0001
0000
1000
0000
,
0000
0000
0000
0000
,
0000
0010
0000
0100
0010
0000
0000
0000
,
0000
0000
0000
0000
,
1000
0000
0001
1000
0001
0000
1000
0000
,
1001
1001
1001
0000
,
0001
0001
1000
1000
,
0010
0000
0100
0000
0001
0000
0010
0100
,
1000
0100
1000
0010
,
0100
0000
0001
0000
1000
0001
1000
0001
,
1000
0010
0100
0001
,
0010
0000
0100
0000
0010
0000
0001
0010
,
0001
0010
0100
1000
,
1100
0101
1001
0000
,
0001
0000
0100
0000
,
1000
0000
0100
0000
,
0010
0000
1000
0000
,
0001
0001
0001
0000
,
1000
0000
0001
0000
,
0100
0000
0010
0000
,
1000
0000
0001
0000
,
0010
0100
0100
0000
;

//---------------dance-single - ----------------
#NOTES:
     dance-single:
     :
     Easy:
     4:
     0.239,0.427,0.107,0.018,0.000:
0000
0000
0000
0000
,
0000
0000
0000
0000
,
0000
0000
0000
0000
,
0000
0000
0000
0000
,
0000
0000
0000
0000
,
0000
0000
0000
0000
,
0000
0000
0000
0000
,
0000
0000
0000
0000
,
0001
0100
0010
0010
,
0100
0010
1000
1000
,
0001
1000
0010
0010
,
1100
0101
1100
0101
,
0001
0001
0100
0010
,
1000
1000
0010
0100
,
0001
0001
1000
0010
,
0100
0000
0000
0000
,
0001
0000
1000
0000
,
0010
0000
1000
0000
,
0010
0000
1000
0000
,
0001
0001
0001
0000
,
0100
0000
0001
0000
,
0010
0000
0001
0000
,
1000
0000
0001
0000
,
0100
0100
0100
0000
,
0010
0000
1000
0000
,
0001
1000
0100
0000
,
1000
0000
0010
0000
,
0100
0001
0010
0001
,
1000
1000
0000
0001
,
0100
0000
0010
0000
,
0100
0001
1000
0001
,
2000
0000
0000
3000
,
0100
0010
0001
0010
,
0200
0000
0300
0000
,
0010
0001
1000
0010
,
1000
1000
0001
0100
,
0010
0000
0100
0000
,
0001
0000
1000
0000
,
0001
1000
0001
1000
,
0010
0000
0000
0000
,
0100
0010
1000
0001
,
0010
0001
1000
0010
,
0100
0001
0010
0001
,
1000
0001
0100
0001
,
0010
0010
0100
1000
,
0100
1000
0010
0100
,
0001
1000
0001
0001
,
1001
0000
0000
0001
,
1000
0010
0100
0100
,
1001
0000
0000
0000
,
1000
1000
1000
0000
,
0000
0000
0000
0000
,
0001
0100
0001
0100
,
0000
0000
0000
0000
,
0010
0100
0001
0000
,
0000
0000
0000
0000
,
1000
0001
0100
0010
,
1001
1001
1001
0000
,
0001
0000
0100
0000
,
0010
0000
1000
0000
,
0100
0000
1000
0000
,
0010
0000
0100
0001
,
1000
0000
0001
0000
,
0010
0000
0001
0000
,
0100
0000
0010
0000
,
1001
1001
1001
0000
,
0001
0000
0000
0000
,
0100
0000
0000
0000
,
0010
0000
0000
0000
,
1000
1000
1000
0000
,
0001
0000
0000
0000
,
1000
0000
0000
0000
,
0100
0000
0010
0000
,
1000
0001
1000
0000
;

//---------------dance-single - ----------------
#NOTES:
     dance-single:
     :
     Beginner:
     1:
     0.111,0.197,0.009,0.000,0.000: // measure 1
0000
0000
0000
0000
,  // measure 2
0000
0000
0000
0000
,  // measure 3
0000
0000
0000
0000
,  // measure 4
0000
0000
0000
0000
,  // measure 5
0000
0000
0000
0000
,  // measure 6
0000
0000
0000
0000
,  // measure 7
0000
0000
0000
0000
,  // measure 8
0000
0000
0000
0000
,  // measure 9
0010
0000
0000
0000
,  // measure 10
0100
0000
0000
0000
,  // measure 11
0001
0000
0000
0000
,  // measure 12
1000
0000
0001
0000
,  // measure 13
0100
0000
0000
0000
,  // measure 14
0001
0000
0000
0000
,  // measure 15
0010
0000
0000
0000
,  // measure 16
1001
0000
0000
0000
,  // measure 17
0100
0000
0000
0000
,  // measure 18
0010
0000
0000
0000
,  // measure 19
1000
0000
0000
0000
,  // measure 20
0100
0100
0100
0000
,  // measure 21
1000
0000
0000
0000
,  // measure 22
0010
0000
0000
0000
,  // measure 23
0100
0000
0000
0000
,  // measure 24
0001
0001
0001
0000
,  // measure 25
1000
0000
0000
0000
,  // measure 26
0001
0000
0000
0000
,  // measure 27
0100
0000
0000
0000
,  // measure 28
0001
0000
0000
0000
,  // measure 29
0010
0000
0000
0000
,  // measure 30
0001
0000
0100
0000
,  // measure 31
0010
0000
0000
0000
,  // measure 32
1000
0000
0000
0000
,  // measure 33
1000
0000
0001
0000
,  // measure 34
0100
0000
0000
0000
,  // measure 35
0010
0000
0000
0000
,  // measure 36
1000
0000
0000
0000
,  // measure 37
0100
0000
0000
0000
,  // measure 38
1000
0000
0000
0000
,  // measure 39
0001
0000
0100
0000
,  // measure 40
0010
0000
0000
0000
,  // measure 41
0100
0000
0000
0000
,  // measure 42
0001
0000
0000
0000
,  // measure 43
1000
0000
0001
0000
,  // measure 44
0100
0100
0100
0000
,  // measure 45
0010
0000
0000
0000
,  // measure 46
1000
0000
0000
0000
,  // measure 47
0001
1000
0001
0001
,  // measure 48
0001
0000
0000
0000
,  // measure 49
0001
1000
0001
0001
,  // measure 50
0001
0000
0000
0000
,  // measure 51
0100
0000
0000
0000
,  // measure 52
0000
0000
0000
0000
,  // measure 53
0010
0000
0000
0000
,  // measure 54
0000
0000
0000
0000
,  // measure 55
1000
0000
0000
0000
,  // measure 56
0000
0000
0000
0000
,  // measure 57
0100
0000
0000
0000
,  // measure 58
1000
1000
1000
0000
,  // measure 59
0001
0000
0000
0000
,  // measure 60
0100
0000
0000
0000
,  // measure 61
0010
0000
0000
0000
,  // measure 62
0100
0000
0000
0000
,  // measure 63
0001
0000
0000
0000
,  // measure 64
1000
0000
0000
0000
,  // measure 65
0100
0000
0000
0000
,  // measure 66
1000
1000
1000
0000
,  // measure 67
0001
0000
0000
0000
,  // measure 68
0100
0000
0000
0000
,  // measure 69
0010
0000
0000
0000
,  // measure 70
0100
0000
0000
0000
,  // measure 71
0010
0000
0000
0000
,  // measure 72
1000
0000
0000
0000
,  // measure 73
0001
0000
0000
0000
,  // measure 74
0100
0100
0100
0000
;
