#TITLE:Day To Live;
#SUBTITLE:;
#ARTIST:Daiki Kasho;
#TITLETRANSLIT:;
#SUBTITLETRANSLIT:;
#ARTISTTRANSLIT:;
#GENRE:PROGRESSIVE ROCK;
#CREDIT:;
#BANNER:bn.png;
#BACKGROUND:bg.png;
#LYRICSPATH:;
#CDTITLE:;
#MUSIC:Day To Live.mp3;
#OFFSET:-0.031;
#SAMPLESTART:77.640;
#SAMPLELENGTH:12.000;
#SELECTABLE:YES;
#BPMS:0.000=68.015
,8.000=136.030
,120.000=34.008
,124.000=136.025
,220.000=68.015
;
#STOPS:;
#BGCHANGES:;
#KEYSOUNDS:;
#ATTACKS:;

//---------------dance-single - ----------------
#NOTES:
     dance-single:
     :
     Hard:
     8:
     0.493,0.581,0.304,0.161,0.072,353.000,36.000,19.000,0.000,0.000,0.000,0.493,0.581,0.304,0.161,0.072,353.000,36.000,19.000,0.000,0.000,0.000:
0000
0000
0000
0000
,
0000
0000
0000
0000
,
1000
0001
0100
0001
0010
0100
0010
0001
,
1000
0001
0100
0010
1000
0100
1000
0010
,
0100
1000
0100
0002
0000
0013
0100
0010
,
0001
2000
0000
0100
0000
0010
0000
3001
,
1000
0010
1000
0001
1000
0100
0010
0100
,
1000
0001
0100
0001
0010
0100
0010
0001
,
1000
0010
0001
0020
0000
0130
0001
0100
,
1000
0200
0000
0010
0000
1000
0000
0310
,
0110
0010
1000
0001
,
0010
1000
0010
0001
,
0100
0010
1000
0001
,
0010
0100
1000
0100
,
1000
0010
0100
0001
,
1000
0100
1000
0010
,
0100
0100
0010
0010
,
0100
0001
1000
0100
,
0010
0000
0000
0100
0000
0000
1000
0000
0010
0000
0000
0100
0000
0000
0010
0000
,
0100
0000
0000
0001
0000
0000
1000
0000
0100
0000
0000
1000
0000
0000
0010
0000
,
0100
0000
0000
0001
0000
0000
0010
0000
0100
0000
0000
0010
0000
0000
0001
0000
,
1000
0000
0000
0100
0000
0000
1000
0000
0010
0000
0000
0100
0000
0000
0010
0000
,
0100
0000
0000
0001
0000
0000
0010
0000
0100
0000
0000
1000
0000
0000
0010
0000
,
0100
0000
0000
0001
0000
0000
1000
0000
0100
0000
0000
0010
0000
0000
0010
0000
,
0100
0000
0000
0010
0000
0000
0010
0000
0001
0000
0000
1000
0000
0000
0010
0000
,
1000
0000
0000
0010
0000
0000
0100
0000
0001
0000
0010
0000
0100
0000
1000
0000
,
1100
1001
0101
0000
0100
0001
1001
0011
,
0000
0000
0001
0000
0010
0000
0100
0000
0000
0000
0100
0000
1000
0000
0010
0100
,
0010
0110
1001
0000
0001
0010
0011
1010
,
0000
0000
0010
0000
1000
0000
0001
0000
0000
0000
0001
0000
0100
0000
1000
0100
,
0020
2030
3200
0302
0203
2300
3020
0230
,
0301
0100
0010
1000
0001
0100
0010
1000
,
0100
1000
0001
1000
0001
0010
0100
0010
,
0001
1000
0100
1000
0001
0100
0001
0010
,
0001
1000
0100
1000
0010
0100
0001
0010
,
0100
0010
0001
1000
0001
0100
0001
0010
,
0100
0010
0001
1000
0100
1000
0010
0100
,
0001
1000
0001
0010
0001
0100
0001
1000
,
1000
0001
1000
0010
1000
0100
1000
0010
,
0100
0200
0000
0310
1000
1100
0000
0011
,
0000
1001
0000
0101
0000
1010
0000
1100
,
0000
0000
0010
0011
0000
0000
0010
0110
,
0000
1001
0000
0101
0000
1010
0000
1100
,
0100
1000
0010
0100
0001
1000
0100
0010
,
0002
0000
0010
0000
0100
0000
1003
0001
,
0100
1000
0100
0001
0010
1000
0010
0001
,
0110
0010
0100
1100
0100
0010
0110
0100
,
1000
1000
0100
0100
0010
0001
0100
0010
,
0100
0100
0010
0010
0100
0010
0001
0010
,
0100
0100
0010
0010
1000
0001
0010
0100
,
1000
1000
0001
0001
0010
0100
1000
0010
,
0001
0001
0010
0010
0100
0010
1000
0001
,
0100
0100
0001
0010
0100
0010
0001
1000
,
0001
0100
0010
0200
0000
1300
0001
0011
,
0000
0110
0000
2001
0000
0000
0010
0020
,
3000
0030
0101
0000
0011
0000
0110
0010
,
1001
0000
0101
0000
1010
0000
1100
0100
,
2002
3003
0000
0000
;

//---------------dance-single - ----------------
#NOTES:
     dance-single:
     :
     Medium:
     6:
     0.318,0.327,0.101,0.017,0.000,249.000,12.000,2.000,0.000,0.000,0.000,0.318,0.327,0.101,0.017,0.000,249.000,12.000,2.000,0.000,0.000,0.000:
0000
0000
0000
0000
,
0000
0000
0000
0000
,
1000
0000
0001
0100
0010
0000
0100
0010
,
0000
0010
1000
0000
0001
0000
1000
0000
,
0100
1000
0010
0100
0000
0100
0010
1000
,
0001
0010
0000
0100
0000
0010
0000
0010
,
0001
0000
0100
0010
0000
0010
1000
0000
,
1000
0100
0000
0100
0010
0000
0100
0000
,
0100
1000
0010
0100
0000
0100
0010
1000
,
0001
0010
0000
0001
0000
0100
0000
0010
,
1000
1000
0001
0001
,
1000
0001
1000
0001
,
0010
0010
0100
0100
,
0010
0100
0010
0100
,
1000
0010
0100
0001
,
0010
1000
0010
0001
,
0100
1000
0100
0001
,
0010
0100
1000
0100
,
1000
0000
0010
0000
0101
0000
0000
0001
,
0100
0000
0010
0000
1010
0000
0000
1000
,
0100
0000
0010
0000
0011
0000
0000
0001
,
0100
0000
0010
0000
1001
0000
0000
0001
,
0010
0000
1000
0000
1010
0000
0000
1000
,
0010
0000
0001
0000
0110
0000
0000
0100
,
0010
0000
1000
0000
1100
0000
0000
1000
,
0001
0000
0010
0000
0010
0001
0100
0010
,
1000
0001
0100
0000
0000
0000
0100
0110
,
0000
0010
0100
0010
0000
0100
0010
0100
,
0010
1000
0100
0000
0100
0000
0010
0011
,
0000
0010
0010
0001
0000
0100
0000
0000
,
0010
0100
0001
1000
0100
0010
0001
0100
,
0001
0000
1000
0010
0100
0000
0010
1000
,
0000
1000
0100
0000
1000
0000
0010
0000
,
0100
0000
0010
1000
0000
0001
0000
0010
,
0000
0001
0000
0100
0000
0010
0000
1000
,
0100
0010
0001
0000
0001
0100
0010
0100
,
0000
0010
0000
1000
0100
0000
1000
0000
,
0001
0000
0001
0100
0000
0010
0000
1000
,
0000
0100
0000
0010
0000
0100
1000
0010
,
0100
0001
0000
0001
0010
0100
0000
1100
,
0000
0100
0000
0110
0000
0010
0000
0011
,
0000
0000
0001
1000
0000
0000
1000
0001
,
0000
1000
0000
0100
0000
0010
0000
0100
,
0010
0001
0100
0000
0010
0000
1000
0000
,
0001
0100
0010
0000
1000
0000
0001
0000
,
0010
0100
1000
0100
,
0010
0001
0100
0010
1000
0100
0010
0001
,
1000
0000
0010
0100
0000
0000
0010
0000
,
0000
1000
0000
0000
0100
0000
1000
0000
,
0010
0000
0100
0010
0000
0000
1000
0000
,
0000
0001
0000
0000
0010
0000
0001
0000
,
0100
0000
0001
0100
0000
0000
1000
0000
,
0000
0100
0000
0000
0010
0000
1000
0000
,
0100
0000
1000
0100
0000
0000
0010
0001
,
0000
0100
0000
1000
0000
0000
2000
0200
,
0000
3300
0000
0000
;

//---------------dance-single - ----------------
#NOTES:
     dance-single:
     :
     Easy:
     4:
     0.219,0.279,0.101,0.101,0.000,157.000,12.000,12.000,0.000,0.000,0.000,0.219,0.279,0.101,0.101,0.000,157.000,12.000,12.000,0.000,0.000,0.000:
0000
0000
0000
0000
,
0000
0000
0000
0000
,
1000
0000
0000
0001
0000
0000
0100
0000
,
0000
0001
0000
0000
0010
0000
0001
0000
,
0100
0000
0000
0100
0000
0000
0010
0000
,
1000
0000
0000
0001
0000
1000
0000
0000
,
0100
0000
0000
0100
0000
0000
0010
0000
,
0000
0001
0000
0000
0100
0000
0010
0000
,
1000
0000
0000
1000
0000
0000
0001
0000
,
1000
0000
0000
0100
0000
1000
0000
0000
,
1000
0000
0010
0000
,
0100
0000
0001
0000
,
1000
0000
0010
0000
,
0100
0000
0010
0000
,
1000
0000
0001
0000
,
0010
0000
1000
0000
,
0010
0000
0001
0000
,
0100
0000
0010
0000
,
1000
1000
0001
0001
,
0100
0100
0010
0010
,
0100
0100
0010
1000
,
0001
0001
1000
0100
,
0010
0010
0100
1000
,
0010
0010
0100
0001
,
1000
1000
0010
0100
,
0001
0001
0010
0100
,
1000
1100
0100
0110
,
0010
0011
0001
1001
,
0001
0011
0010
0110
,
0100
1100
1000
0010
,
0100
0000
0000
0000
,
2002
0000
0000
0000
,
0000
0000
0000
3003
,
0000
0001
0100
0010
,
1000
0100
0010
0001
,
0220
0000
0000
0000
,
0000
0000
0000
0330
,
0010
0001
0100
1000
,
0100
0100
0100
0100
,
0220
0330
0010
0000
,
1000
0001
0010
0010
,
0001
0000
1000
0000
,
0010
1000
0100
0010
,
0001
0000
0000
0000
0000
0010
0000
0000
,
0020
0000
0000
0000
0030
0000
0001
0020
,
0000
0000
0000
0100
,
0130
0000
0000
1100
0000
0000
0011
0000
,
0001
0001
0001
0001
,
1000
1000
1000
1000
,
0020
0100
0100
0100
,
0230
0010
0010
0010
,
0310
0000
0000
1000
0000
0000
0100
0000
,
0000
0001
0000
0000
0100
0000
0010
0000
,
0001
0000
0000
1000
0000
0000
0010
1000
,
0000
0100
0000
0010
0000
0000
0020
0002
,
0033
0000
0000
0000
;

//---------------dance-single - ----------------
#NOTES:
     dance-single:
     :
     Beginner:
     1:
     0.088,0.140,0.000,0.042,0.000,68.000,0.000,5.000,0.000,0.000,0.000,0.088,0.140,0.000,0.042,0.000,68.000,0.000,5.000,0.000,0.000,0.000: // measure 0
0000
0000
0000
0000
,  // measure 1
0000
0000
0000
0000
,  // measure 2
1000
0000
0000
0001
,  // measure 3
0000
0000
1000
0000
,  // measure 4
0010
0000
0000
0000
,  // measure 5
0010
0000
0000
0000
,  // measure 6
0100
0000
0000
0010
,  // measure 7
0000
0000
1000
0000
,  // measure 8
0001
0000
0000
0000
,  // measure 9
0001
0000
0000
0000
,  // measure 10
1000
0000
0000
0000
,  // measure 11
0010
0000
0000
0000
,  // measure 12
0100
0000
0000
0000
,  // measure 13
0100
0000
0000
0000
,  // measure 14
0010
0000
0000
0000
,  // measure 15
1000
0000
0000
0000
,  // measure 16
0001
0000
0000
0000
,  // measure 17
0001
0000
0000
0000
,  // measure 18
1000
0000
0000
0000
,  // measure 19
0001
0000
0000
0000
,  // measure 20
0100
0000
0000
0000
,  // measure 21
0010
0000
0000
0000
,  // measure 22
1000
0000
0000
0000
,  // measure 23
0010
0000
0000
0000
,  // measure 24
0100
0000
0000
0000
,  // measure 25
0001
0000
0000
0000
,  // measure 26
0100
0100
0100
0000
,  // measure 27
0010
0010
0010
0000
,  // measure 28
1000
1000
1000
0000
,  // measure 29
0001
0001
0001
0000
,  // measure 30
2000
0000
0000
0000
,  // measure 31
0020
0000
0000
0000
,  // measure 32
0000
0000
0000
3030
,  // measure 33
0010
0000
0000
0000
,  // measure 34
0100
0000
0000
0000
,  // measure 35
0002
0000
0000
0000
,  // measure 36
0000
0000
0000
0003
,  // measure 37
0001
0000
0000
0000
,  // measure 38
1000
0000
0000
0000
,  // measure 39
0010
0000
0100
0000
,  // measure 40
0010
0000
0000
0000
,  // measure 41
1000
0000
1000
0000
,  // measure 42
0001
0000
0000
0000
,  // measure 43
1000
0000
0000
0000
,  // measure 44
0010
0000
0000
0000
,  // measure 45
0200
0300
0000
0000
,  // measure 46
0010
0000
1000
0000
,  // measure 47
0001
0000
0000
1000
,  // measure 48
0000
0000
0010
0000
,  // measure 49
0010
0000
0000
0000
,  // measure 50
0100
0000
0000
0000
,  // measure 51
0001
0000
0000
0001
,  // measure 52
0000
0000
1000
0000
,  // measure 53
0010
0000
0000
0000
,  // measure 54
1000
0000
0001
0000
,  // measure 55
0020
0030
0000
0000
;
