#TITLE:DUB I DUB;
#SUBTITLE:(Metal Cover);
#ARTIST:ReinXeed;
#TITLETRANSLIT:;
#SUBTITLETRANSLIT:;
#ARTISTTRANSLIT:;
#CREDIT:;
#BANNER:;
#BACKGROUND:;
#LYRICSPATH:;
#CDTITLE:;
#MUSIC:DUB I DUB (Metal Cover).mp3;
#OFFSET:-0.013;
#SAMPLESTART:13.220;
#SAMPLELENGTH:12.000;
#SELECTABLE:YES;
#BPMS:0.000=145.000;
#STOPS:;
#BGCHANGES:;

//---------------dance-single - ----------------
#NOTES:
     dance-single:
     :
     Hard:
     7:
     0.406,0.420,0.140,0.050,0.030:
0000
0000
0000
0000
,
0000
0000
0000
0000
,
0000
0000
0000
0000
,
0000
0000
0000
0000
,
1001
0000
0100
0000
,
0110
0000
0010
1000
,
1001
0000
0100
0000
,
0101
0000
0001
0000
0100
0010
0100
0001
,
0010
0000
1100
0000
1000
0100
0010
0000
,
0100
1100
1000
0001
,
0100
0000
0110
0000
0010
1000
0001
0000
,
1000
0001
0100
0000
0010
1000
0010
0000
,
0100
0000
0101
0000
0001
0010
0100
0000
,
0010
0011
0001
0100
,
0010
0000
0110
0000
0010
1000
0100
0000
,
0010
0000
0001
0000
0001
0100
1000
0000
,
0200
0000
0000
0000
0000
0000
0000
0310
,
2000
0000
0000
3000
,
0001
1000
0100
1000
,
0010
0100
0010
1000
,
0001
0100
0010
0000
0100
0010
1000
0000
,
1000
0001
0100
0000
0001
0010
0100
0000
,
0010
0001
0010
1000
,
0010
0100
1000
0100
,
1000
0010
0100
0000
0010
0100
0010
0000
,
0100
0001
0100
0000
0001
0010
0001
0000
,
0001
0001
0100
0000
0010
0000
1000
0000
,
0010
0010
0100
0000
0010
0000
1000
0000
,
0001
0001
1000
0000
0100
0000
1000
0000
,
1000
0100
0010
0001
1000
0100
0010
0001
,
0100
0000
0010
0000
0100
0010
1000
0000
,
0001
0000
1000
0000
0100
1000
0010
0000
,
0100
0010
1000
0001
,
0011
0110
1100
1001
,
0001
0100
1000
0100
0010
0100
0010
0000
,
0100
0010
1000
0010
1000
0000
0001
0000
,
1000
0100
0010
0100
1000
0100
1000
0000
,
1000
0100
0010
0001
,
1000
0001
1000
0001
0100
0100
0100
0000
,
0010
1000
0010
1000
0010
0000
0100
0000
,
0001
0010
0100
0010
0001
0001
0001
0000
,
1000
0001
0100
0001
,
0010
0000
0000
0100
0000
0000
0010
0000
0001
0000
0010
0000
0001
0000
0000
0000
,
0001
0000
0000
0100
0000
0000
0010
0000
0100
0000
0000
0000
0010
0000
0000
0000
,
1000
0000
0000
0010
0000
0000
0100
0000
0010
0000
1000
0000
0010
0000
0000
0000
,
1000
0100
0010
0001
,
1000
0000
0000
0001
0000
0000
0100
0000
0010
0000
0100
0000
0010
0000
0000
0000
,
0100
0000
0000
0010
0000
0000
1000
0000
0100
0000
0000
0000
1000
0000
0000
0000
,
0100
0000
0000
0010
0000
0000
0100
0000
1000
0000
0010
0000
0100
0000
0000
0000
,
0010
1000
0001
0010
0000
0200
0000
0000
,
0000
0000
0000
0000
0000
0000
0000
0320
,
0002
0000
0000
0033
,
0001
1000
0010
1000
,
0100
0010
0100
1000
,
0010
0100
0001
0010
,
0001
0100
0010
1000
,
0010
0100
0001
0100
,
0010
1000
0010
1000
,
0100
1000
0100
0010
,
0001
0010
0100
1000
0100
0010
0001
0010
;

//---------------dance-single - ----------------
#NOTES:
     dance-single:
     :
     Medium:
     5:
     0.342,0.360,0.090,0.040,0.000:
0000
0000
0000
0000
,
0000
0000
0000
0000
,
0000
0000
0000
0000
,
0000
0000
0000
0000
,
1001
0000
0010
0000
,
1001
0000
0100
0100
,
1001
0000
0010
0000
,
1001
0000
0001
1000
,
0010
0000
1000
0000
0010
1000
0010
0000
,
0001
0000
0010
0000
0001
0010
0001
0000
,
0100
0000
0010
0000
0100
0010
0100
0000
,
0010
1000
0001
0010
,
0100
0000
1000
0000
0100
1000
0100
0000
,
1000
0000
0010
0000
0100
0010
0100
0000
,
0010
0000
1000
0000
0001
0010
0001
0000
,
0001
0010
0100
1000
,
2002
0000
0000
0000
,
3003
0000
0000
0000
,
0100
0000
0010
0000
,
1000
0010
0100
0010
,
1000
0000
0001
1000
,
0001
0010
0001
0100
,
0010
0100
0010
1000
,
0001
0010
1000
0010
,
0001
0100
0001
0001
,
1000
0000
1000
0000
0010
0100
0010
0000
,
0100
0010
0100
0000
0010
0000
1000
0000
,
0001
0001
1000
0010
,
0100
0001
0100
0000
0010
0000
0100
0000
,
0010
1000
0001
0010
,
0100
1000
0100
0000
1000
0000
0010
0000
,
0100
0010
0100
0000
0010
0000
1000
0000
,
0001
0010
0100
0000
0100
1000
0010
0000
,
0100
0010
0100
0010
,
1000
0000
0001
0000
1000
0001
1000
0000
,
0010
0100
0010
0010
,
0100
0000
0001
0000
0100
0001
0100
0000
,
0010
1000
0100
0010
,
0001
0000
0010
0000
0001
0010
0001
0000
,
0010
0100
1000
1000
,
0100
0000
1000
0000
0010
0100
0010
0000
,
0100
0010
1000
0001
,
1000
0000
0001
0000
0100
0010
1000
0000
,
0100
0010
0011
0011
,
0001
0000
0100
0000
0010
1000
0001
0000
,
1000
0100
0001
0100
,
1000
0000
0010
0000
0100
0001
0010
0000
,
0100
1000
1100
0011
,
0001
0000
0100
0000
0010
1000
0001
0000
,
0100
0010
1000
0200
,
0000
0000
0000
0000
,
0020
0000
0000
0330
,
0010
0010
0001
0001
,
1000
0001
1000
0001
,
0100
0100
0010
0010
,
0100
0001
0100
0001
,
0100
0010
1000
0100
,
0001
0100
1000
0010
,
0001
0010
0100
0010
,
1000
0001
1000
0001
1000
0001
1000
0001
;

//---------------dance-single - ----------------
#NOTES:
     dance-single:
     :
     Easy:
     3:
     0.257,0.300,0.060,0.060,0.000: // measure 1
0000
0000
0000
0000
,  // measure 2
0000
0000
0000
0000
,  // measure 3
0000
0000
0000
0000
,  // measure 4
0000
0000
0000
0000
,  // measure 5
1001
0000
0010
0000
,  // measure 6
1001
0000
0100
0100
,  // measure 7
1001
0000
0010
0000
,  // measure 8
1001
0010
1001
0010
,  // measure 9
0001
0100
0001
0001
,  // measure 10
1000
0001
1000
0010
,  // measure 11
1000
0001
1000
1000
,  // measure 12
0100
0010
0002
0000
,  // measure 13
0013
0001
0010
0010
,  // measure 14
0100
1000
0010
0010
,  // measure 15
0100
0010
1000
1000
,  // measure 16
0001
1000
0010
0200
,  // measure 17
0000
0000
0000
0000
,  // measure 18
0002
0000
0000
0303
,  // measure 19
0001
0000
1000
0000
,  // measure 20
0010
1000
0100
1000
,  // measure 21
0010
0000
0100
0000
,  // measure 22
0001
0001
1000
1000
,  // measure 23
0010
0000
0100
0000
,  // measure 24
0001
0010
0001
0100
,  // measure 25
0010
0000
0100
0000
,  // measure 26
0010
1000
0010
0000
,  // measure 27
0100
0100
0000
0010
,  // measure 28
0010
1000
0001
0000
,  // measure 29
1000
1000
0000
0000
,  // measure 30
1000
0100
0010
0001
,  // measure 31
0100
0000
0010
0000
,  // measure 32
1000
0000
0001
0000
,  // measure 33
0010
0001
0100
1000
,  // measure 34
0100
0010
1000
0000
,  // measure 35
0001
1000
0001
0001
,  // measure 36
1000
0001
0100
0100
,  // measure 37
0001
1000
0001
0001
,  // measure 38
0010
0100
1000
0010
,  // measure 39
0100
0010
0100
0100
,  // measure 40
0010
0100
0001
0001
,  // measure 41
0100
0010
0100
0100
,  // measure 42
0010
1000
0001
0010
,  // measure 43
0001
1000
0100
0100
,  // measure 44
1000
0001
0100
0100
,  // measure 45
0001
1000
0100
0100
,  // measure 46
1001
0000
0000
0000
,  // measure 47
1000
0001
0010
0010
,  // measure 48
0001
1000
0010
0010
,  // measure 49
1000
0001
0010
0010
,  // measure 50
0001
1000
0010
0200
,  // measure 51
0000
0000
0000
0000
,  // measure 52
0020
0000
0000
0330
,  // measure 53
0010
1000
0001
0010
,  // measure 54
0000
0000
0000
0000
,  // measure 55
0010
0100
1000
0001
,  // measure 56
0000
0000
0000
0000
,  // measure 57
1000
0001
0100
0100
,  // measure 58
0000
0000
0000
0000
,  // measure 59
0010
1000
0001
0001
,  // measure 60
0200
0000
0000
0000
0000
0000
0000
0300
;
