#TITLE:Cryin' In The Rain;
#SUBTITLE:;
#ARTIST:ItaloBrothers;
#TITLETRANSLIT:;
#SUBTITLETRANSLIT:;
#ARTISTTRANSLIT:;
#CREDIT:;
#BANNER:bn.png;
#BACKGROUND:bg.png;
#LYRICSPATH:;
#CDTITLE:;
#MUSIC:Cryin' In The Rain.mp3;
#OFFSET:0.007;
#SAMPLESTART:69.980;
#SAMPLELENGTH:12.000;
#SELECTABLE:YES;
#BPMS:0.000=135.160,128.000=67.590,144.000=135.180;
#STOPS:;
#BGCHANGES:;

//---------------dance-single - ----------------
#NOTES:
     dance-single:
     :
     Hard:
     8:
     0.415,0.435,0.079,0.118,0.418:
0000
0000
0000
0000
,
0000
0000
0000
0000
,
0000
0000
0000
0000
,
0000
0000
0000
0000
,
0000
0000
0000
0000
,
0000
0000
0000
0000
,
0000
0000
0000
0000
,
0000
0000
0000
0000
,
1000
0000
0001
0000
0100
0000
0010
0000
1000
0000
1000
0001
0000
0001
0000
0001
,
0000
0000
0000
0001
0100
0000
0010
0000
0010
0000
0100
0010
0000
0010
0000
0010
,
0000
0000
0000
0100
0001
0000
1000
0000
0001
0000
0001
0010
0000
0010
0000
0010
,
0000
0000
0000
0100
1000
0000
0010
0000
0100
0000
0001
0000
1000
0100
0000
1000
,
0000
0000
1000
0000
0010
0000
0100
0000
0001
0000
0010
0100
0000
0100
0000
0100
,
0000
0000
0000
0100
0010
0000
0001
0000
1000
0000
0001
0010
0000
0010
0000
0010
,
0000
0000
0000
0100
1000
0000
0010
0000
1000
0000
0010
1000
0000
1000
0000
1000
,
0000
0000
0000
1000
0100
0000
0010
0000
0001
0000
0100
0000
0010
1000
0000
0001
,
0010
0000
0000
0001
0000
0000
0100
0000
0010
0000
0000
1000
0000
0000
0001
0000
,
0010
0000
0000
0100
0000
0000
1000
0000
0100
0000
0000
1000
0000
0000
0010
0000
,
0100
0000
0000
0001
0000
0000
1000
0000
0010
0000
0000
0100
0000
0000
0100
0000
,
2002
0000
3003
0000
0000
0000
0000
0001
,
0100
0000
0000
0010
0000
0000
1000
0000
0001
0000
0000
0010
0000
0000
0100
0000
,
1000
0000
0000
0100
0000
0000
1000
0000
0010
0000
0000
0000
0200
0000
0000
0000
,
0300
0000
0000
0000
0000
0000
0100
0000
0010
0000
0000
0010
0000
0000
1000
0000
,
0000
0001
0000
0010
0100
0000
1001
0000
,
0001
0100
0010
0000
0100
0000
0001
0000
,
1000
0001
0100
0000
0010
0000
0001
0000
,
0001
0010
1000
0000
1000
0010
0001
0000
,
0001
0100
0010
1000
0100
0000
1100
0000
,
1000
0000
0000
0010
0000
0000
0100
0000
0000
0000
0001
0000
0000
0000
1000
0000
,
0000
0010
0000
0000
0100
0001
0000
2000
,
0000
3100
0000
0200
0000
0310
0000
2002
,
0000
0000
0000
0000
0000
0000
0000
3003
,
0101
0000
0001
0100
0000
0100
0000
0001
0000
0000
0000
0000
0000
0000
0000
1000
,
0100
0000
1000
0010
0000
0010
0000
0000
0100
0000
0010
1000
0000
0001
0000
0011
,
0000
0000
0000
0000
0000
0000
0001
0010
0000
0000
0100
1000
0000
0001
0000
0200
,
0000
0000
0000
0000
0000
0000
0000
0000
0300
0000
0000
0000
0000
0000
0010
0000
1000
0000
0000
0001
0000
0000
0010
0000
0001
0000
0000
0100
0000
0000
0010
0000
,
1010
0010
1000
0000
0100
1000
0010
0000
,
0100
0001
0010
0000
0001
0000
1000
0000
,
0001
0100
0010
2000
0000
3100
0000
0000
,
1000
0100
0010
0001
0010
0100
1000
0001
,
0100
0000
0010
0000
1000
0000
0001
0020
,
0000
0000
0100
0230
0000
1000
0000
2000
,
0000
3300
1000
0000
1000
0000
0001
0000
,
0100
0000
0010
1000
0001
0010
0100
1000
,
0000
0000
0001
0000
0100
0000
0010
0000
1000
0000
0010
0100
0000
0100
0000
0100
,
0000
0000
0000
0010
1000
0000
0001
0000
0010
0000
0001
1000
0000
1000
0000
1000
,
0000
0000
0000
0010
0100
0000
0001
0000
1000
0000
0100
0010
0000
0010
0000
0010
,
0000
0000
0000
0010
0001
0000
0100
0000
0010
0000
1000
0000
0001
0010
0000
0011
,
0000
0000
0001
0000
0100
0000
0010
0000
1000
0000
0001
1000
0000
1000
0000
1000
,
0000
0000
0010
0000
1000
0000
0100
0000
0010
0000
0001
0100
0000
0100
0000
0100
,
0000
0000
0000
0010
0100
0000
0001
0000
1000
0000
0100
0010
0000
0010
0000
0010
,
0000
0000
0000
0010
0001
0000
0100
0000
0001
1000
0010
0000
0100
1000
0000
0001
;

//---------------dance-single - ----------------
#NOTES:
     dance-single:
     :
     Medium:
     5:
     0.270,0.358,0.030,0.049,0.000:
0000
0000
0000
0000
,
0000
0000
0000
0000
,
0000
0000
0000
0000
,
0000
0000
0000
0000
,
0000
0000
0000
0000
,
0000
0000
0000
0000
,
0000
0000
0000
0000
,
0000
0000
0000
0000
,
1000
0000
0001
0000
0100
0000
0001
0100
,
0001
0000
0100
0000
0010
0000
1000
0010
,
1000
0000
0010
0000
0100
0000
0010
0100
,
0001
0000
1000
0000
1000
0000
1000
0001
,
1000
0000
0010
0000
1000
0000
0010
1000
,
0010
0000
0100
0000
0010
0000
1000
0001
,
0010
0000
0001
0000
0100
0000
1000
0100
,
0010
0000
0100
0000
0010
0000
1000
0001
,
0100
0100
0010
0010
,
1000
1000
0001
0001
,
1000
0001
0100
0010
,
1010
0000
0000
0000
,
0010
0010
0100
0100
,
0001
0001
1000
1000
,
0100
1000
0010
0100
,
0001
0100
1000
0100
,
0010
0000
1000
0000
0010
1000
0010
0000
,
0100
0000
0001
0000
0010
0100
0010
0000
,
0010
0001
0100
1000
,
0100
0010
0001
1000
,
0100
1000
0010
0100
,
0010
0000
1000
0000
0001
0010
0001
0000
,
0100
1000
0100
0010
,
1000
0000
0000
0000
0001
0200
0000
0000
,
0310
1000
0100
0000
,
1000
0001
0100
0000
0001
1000
0100
0010
,
0001
0000
0001
0100
,
0010
0000
0100
0010
,
0100
0000
0010
1000
0000
0001
0000
0010
,
0000
0000
0000
0000
,
0010
0000
0001
0100
0000
0110
0000
0000
,
0010
0000
1000
0010
0000
0100
0000
0020
,
0000
0000
0030
0000
0000
0000
0100
0010
,
0000
0000
1000
0001
0000
0010
0000
0200
,
0000
0000
0000
0000
0000
0000
1000
2000
,
0000
0000
0000
3300
,
1100
0000
0100
0000
1000
0000
0100
1000
,
0010
0000
0100
0000
0010
0000
1000
0010
,
1000
0000
0010
0000
0100
0001
0100
0000
,
0010
1000
0001
0010
0100
1000
0100
0010
,
0001
0000
1000
0000
0001
0000
0100
0001
,
0100
0000
0010
0000
1000
0000
0100
0010
,
0100
0010
0001
0100
,
0010
0000
0100
0000
0001
1000
0001
0020
,
0030
0000
0000
0000
;

//---------------dance-single - ----------------
#NOTES:
     dance-single:
     :
     Easy:
     2:
     0.148,0.230,0.039,0.020,0.000:
0000
0000
0000
0000
,
0000
0000
0000
0000
,
0000
0000
0000
0000
,
0000
0000
0000
0000
,
0000
0000
0000
0000
,
0000
0000
0000
0000
,
0000
0000
0000
0000
,
0000
0000
0000
0000
,
0001
0000
1000
0000
,
0010
0000
1000
0000
,
0100
0000
1000
0000
,
0001
0000
0100
0010
,
0100
0000
0010
0000
,
1000
0000
0001
0000
,
0001
0000
0010
0000
,
0001
0000
0100
0010
,
1000
0000
0001
0000
,
1000
0000
0001
0000
,
1000
0000
0001
0000
,
0100
0000
0000
0000
,
0010
0000
0100
0000
,
0010
0000
0100
0000
,
0001
0000
1000
0000
,
0010
1000
0100
1000
,
0010
0000
0100
0000
,
0001
0000
1000
0000
,
0100
1000
0100
0010
,
0001
0000
0000
0000
,
0001
0000
1000
0000
,
1000
0000
0100
0000
,
1000
0010
0100
0001
,
0020
0000
0000
0030
,
0110
0000
0000
0000
,
0001
0000
1000
0000
,
0010
0000
0100
0001
,
0010
0000
0000
0000
,
1100
0100
1000
0010
,
0100
0000
0000
0000
,
0010
1000
0001
0010
,
0001
0001
1000
1000
,
0001
0000
0000
0001
,
0100
0010
0100
0001
,
1000
0000
0000
0000
,
0100
0000
1000
0000
,
1010
0010
1000
0010
,
0100
0000
0000
0000
,
0100
0000
0010
0000
,
1000
0001
0010
0001
,
0100
0000
0000
0000
,
0001
0000
1000
0000
,
0020
0000
0000
0000
,
0130
0000
0000
0000
,
1001
0000
0000
0000
;

//---------------dance-single - ----------------
#NOTES:
     dance-single:
     :
     Beginner:
     1:
     0.077,0.128,0.030,0.010,0.000: // measure 1
0000
0000
0000
0000
,  // measure 2
0000
0000
0000
0000
,  // measure 3
0000
0000
0000
0000
,  // measure 4
0000
0000
0000
0000
,  // measure 5
0000
0000
0000
0000
,  // measure 6
0000
0000
0000
0000
,  // measure 7
0000
0000
0000
0000
,  // measure 8
0000
0000
0000
0000
,  // measure 9
1000
0000
0000
0000
,  // measure 10
0001
0000
0000
0000
,  // measure 11
0100
0000
0000
0000
,  // measure 12
0010
0000
0000
0000
,  // measure 13
0100
0000
0000
0000
,  // measure 14
0001
0000
0000
0000
,  // measure 15
1000
0000
0000
0000
,  // measure 16
0100
0000
0100
0000
,  // measure 17
0100
0000
0000
0000
,  // measure 18
0010
0000
0000
0000
,  // measure 19
0001
0000
0000
0000
,  // measure 20
1000
0000
0000
0000
,  // measure 21
1000
0000
0000
0000
,  // measure 22
0010
0000
0000
0000
,  // measure 23
0000
0000
0100
0000
,  // measure 24
0100
0000
0001
0001
,  // measure 25
0001
0000
0000
0000
,  // measure 26
1000
0000
0000
0000
,  // measure 27
0100
0000
1000
0000
,  // measure 28
1000
0000
0000
0000
,  // measure 29
0001
0000
0000
0000
,  // measure 30
0100
0000
0000
0000
,  // measure 31
0010
0000
0010
0000
,  // measure 32
0010
0000
0000
0000
,  // measure 33
1001
0000
0000
0000
,  // measure 34
1000
0000
1000
0000
,  // measure 35
1000
0000
0000
0000
,  // measure 36
0000
0000
0000
0000
,  // measure 37
0001
0000
0000
0000
,  // measure 38
0000
0000
0000
0000
,  // measure 39
1000
0000
1000
0000
,  // measure 40
1000
0000
0000
0000
,  // measure 41
0100
0000
0000
0000
,  // measure 42
0010
0000
0010
0000
,  // measure 43
0010
0000
0000
0000
,  // measure 44
0001
0000
1000
0000
,  // measure 45
1001
0000
0000
0000
,  // measure 46
0000
0000
0000
0000
,  // measure 47
0001
0000
0000
0000
,  // measure 48
1000
0000
0000
0000
,  // measure 49
0100
0000
0000
0000
,  // measure 50
1000
0000
1000
0000
,  // measure 51
2000
0000
0000
0000
,  // measure 52
3000
0000
0000
0000
,  // measure 53
1001
0000
0000
0000
;
