#TITLE:Cool;
#SUBTITLE:;
#ARTIST:MACHOMAN;
#TITLETRANSLIT:;
#SUBTITLETRANSLIT:;
#ARTISTTRANSLIT:;
#GENRE:BUBBLEGUM DANCE;
#CREDIT:;
#BANNER:bn.png;
#BACKGROUND:bg.png;
#LYRICSPATH:;
#CDTITLE:;
#MUSIC:Cool.mp3;
#OFFSET:0.000;
#SAMPLESTART:34.800;
#SAMPLELENGTH:12.000;
#SELECTABLE:YES;
#BPMS:0.000=143.000
,112.000=71.500
,129.000=143.000
;
#STOPS:16.000=1.259
,31.000=0.420
,128.000=0.839
,142.500=0.839
;
#BGCHANGES:;
#KEYSOUNDS:;
#ATTACKS:;

//---------------dance-single - ----------------
#NOTES:
     dance-single:
     :
     Hard:
     7:
     0.428,0.457,0.294,0.092,0.017,311.000,35.000,11.000,0.000,0.000,0.000,0.428,0.457,0.294,0.092,0.017,311.000,35.000,11.000,0.000,0.000,0.000:
0000
0000
0000
0000
,
0000
0000
0000
0000
,
0000
0000
0000
0000
,
0000
0000
0000
0000
,
0000
0000
0100
0001
0000
1000
0000
0100
,
0000
0001
0000
0100
0000
0010
0100
0001
,
0010
0100
1000
0000
0110
0000
0100
0000
,
0011
0000
1000
0001
0200
0000
0310
0000
,
1000
0001
0100
0000
0010
1000
0001
0000
,
1000
0001
0100
0001
0010
0100
1000
0000
,
1100
0000
0000
0000
1000
0100
0001
0000
,
0100
1000
0010
0100
0001
0010
0001
0000
,
0100
0101
0100
1010
,
1000
0001
0010
0000
0100
0001
0100
0000
,
0010
1000
0001
0010
1000
0010
0001
0000
,
0001
0100
0010
1000
0100
0001
0100
1000
,
0010
0010
1000
0000
0100
0100
0010
0000
,
0010
0001
0010
1000
0010
0000
0000
0000
,
0001
0100
0010
0000
0100
0010
1000
0001
,
0010
1000
0010
0001
0100
1000
0100
0001
,
1001
0000
0110
0000
,
1000
0001
0010
0001
0100
0000
0000
0000
,
0010
1000
0100
0010
,
0100
0000
1000
0000
0010
0100
0001
0000
,
1100
0000
0101
0000
,
0001
1000
0100
1000
0001
0000
0000
0000
,
0010
0000
1000
0000
0001
1000
0100
0000
,
1000
0100
0010
0001
1100
0000
0011
0000
,
1001
0000
0100
0000
0010
1000
0100
0000
,
1000
1000
0010
0000
0100
0000
0101
0000
,
0001
1000
0010
0000
0100
0010
1000
0000
,
0001
0001
0100
0000
0010
1000
0100
0000
,
0000
0000
1000
0001
0011
0000
0000
0000
0000
0000
0000
0000
0011
0000
0000
0000
,
0000
0000
0001
0010
0100
0010
0001
0000
,
0001
0001
0001
0001
,
0001
0100
0000
0010
1000
0001
1000
0000
,
1100
0000
0010
0000
0101
0000
0001
1000
,
0100
0010
0002
0010
0013
0000
0000
0100
,
0000
0100
0000
0010
0000
0010
0000
0001
,
1000
0100
0000
0000
0001
0100
1100
0000
,
0010
0000
1001
0000
0100
0000
1000
1000
,
0001
0010
0100
0000
0000
0000
0010
0001
,
0100
0000
0100
0010
1000
0000
0001
0000
,
0001
1000
1000
0101
,
0000
0000
1010
0000
0000
0000
1000
0001
,
0010
0100
1000
0000
0000
0000
0010
0000
,
1000
0100
0001
0100
,
1000
0000
0100
0000
0001
0010
0011
0000
,
0010
1000
1100
0000
1001
0000
0010
0010
,
1000
0001
0010
0000
0000
0000
0100
1000
,
0010
0100
0002
0000
0013
0000
0001
0100
,
0010
0000
0100
0010
1000
0000
1001
0000
,
0010
1000
1010
0000
1000
0000
1000
1000
,
0001
0001
0010
0000
0000
0000
0100
1000
,
0010
0100
0001
0010
0100
0000
0001
0010
,
0100
0000
0001
0010
0100
0010
1001
0000
,
0010
0000
1001
0000
0100
0000
0001
0001
,
1000
1000
0200
0000
0300
0000
0010
0001
,
0100
0000
0010
0000
1000
0000
0100
1000
0000
0000
0000
0000
0010
0000
0001
0000
,
0100
0000
0010
0000
1000
0000
0001
0100
0000
0000
0000
0000
0220
0000
0000
0000
,
0330
0000
2002
0000
3003
0000
0010
0100
,
1000
0001
0020
0000
0030
0000
0001
1000
,
0100
0000
0010
0000
0001
0000
0100
1000
0000
0000
0000
0000
1010
0000
0000
0000
,
0011
1100
0101
2002
,
3003
0000
0000
0000
;

//---------------dance-single - ----------------
#NOTES:
     dance-single:
     :
     Medium:
     6:
     0.366,0.322,0.218,0.210,0.000,254.000,26.000,25.000,0.000,0.000,0.000,0.366,0.322,0.218,0.210,0.000,254.000,26.000,25.000,0.000,0.000,0.000:
0000
0000
0000
0000
,
0000
0000
0000
0000
,
0000
0000
0000
0000
,
0000
0000
0000
0000
,
0000
0000
0001
1000
0000
0010
0000
0100
,
0000
0010
0000
1000
0000
1000
0100
0000
,
0010
0000
0100
1000
0000
0001
0000
0100
,
0000
0010
1000
0000
0001
0000
0101
0000
,
0001
0000
1000
0000
0010
1000
0010
0000
,
0100
0000
0010
0000
0100
0010
0100
0000
,
0010
0000
1000
0000
1000
0001
0010
0000
,
0001
0100
1000
0000
1000
0100
0001
0000
,
0001
0000
0010
0000
0010
0100
1000
0000
,
0100
1000
0010
0000
0100
0001
1000
0000
,
0001
0000
0001
0000
0001
0100
0010
0000
,
0100
0000
0100
0000
0100
0010
1000
0000
,
0001
1000
0001
0000
1000
0001
1000
0000
,
0001
0100
0001
0000
,
0001
0100
1000
0100
,
0110
1001
1010
1100
,
0210
0310
0120
0130
,
0100
0010
0002
0003
,
0001
0100
1000
0100
,
0010
0100
0001
0100
,
1020
1030
2010
3010
,
0010
1000
0200
0300
,
0010
0000
0001
0000
0001
0100
0010
0000
,
0100
0001
1000
0100
,
0010
0000
0100
0000
0100
1000
0010
0000
,
0100
0000
0001
0000
0001
1000
0100
0000
,
1000
0000
0010
0000
0100
0010
1000
0000
,
0001
0000
1000
0000
1000
0001
0010
0100
,
1000
0010
1001
0010
,
1001
0000
0001
0000
0100
0010
1000
0000
,
1000
1000
1000
1000
,
1000
0000
0000
0000
1000
0010
0100
0000
,
0101
0100
1010
1000
,
0001
0010
0100
0000
0100
0000
0100
0000
,
0100
0100
0100
0010
,
0001
0000
0100
0000
0010
1000
1002
0000
,
1003
2001
3001
0001
,
0100
0020
0030
0100
,
0010
1000
0100
0010
,
0100
1000
0001
0102
,
0013
0102
0013
0001
,
0100
0020
0030
0100
,
0010
1000
1000
0001
,
0001
0000
1000
0000
0010
0100
0201
0000
,
0310
0120
1030
1000
,
0100
0020
0030
0100
,
1000
0020
0130
0100
,
0010
2000
3001
1002
,
0103
2001
3100
1000
,
0010
0200
0300
0010
,
1000
0200
0310
0020
,
0130
0020
0130
0011
,
0000
1100
0000
1000
,
0001
0100
0010
0000
0000
0000
0100
0000
,
0010
0000
0100
0010
0100
0000
0001
0000
,
1000
0000
0001
1000
0001
0000
0101
0000
,
0000
1010
0000
1000
,
0100
0010
0000
0100
,
1000
0000
0010
0100
0001
0000
1000
0000
,
0001
0100
0010
2002
,
3003
0000
0000
0000
;

//---------------dance-single - ----------------
#NOTES:
     dance-single:
     :
     Easy:
     3:
     0.197,0.241,0.134,0.109,0.000,135.000,16.000,13.000,0.000,0.000,0.000,0.197,0.241,0.134,0.109,0.000,135.000,16.000,13.000,0.000,0.000,0.000:
0000
0000
0000
0000
,
0000
0000
0000
0000
,
0000
0000
0000
0000
,
0000
0000
0000
0000
,
0000
1000
0000
0010
,
0000
1000
0000
0010
,
1000
0100
0000
0010
,
0000
0100
0010
0011
,
0001
0000
1000
0000
,
0010
0010
1000
0000
,
0100
0000
0010
0001
,
0200
0000
0000
0300
,
0010
0000
1000
0000
,
0002
0000
0000
0003
,
1000
0001
0100
0000
,
0001
1000
0010
0000
,
0100
0000
0100
0000
,
0100
0010
1000
0000
,
0001
0000
0001
0000
,
0001
0001
0001
0001
,
1000
0000
1000
0000
,
1000
1000
1000
0000
,
0010
0000
0100
0000
,
0001
0000
0010
0000
,
0100
0000
0100
0000
,
0100
0100
0100
0000
,
1000
0000
0010
0000
,
0100
0001
0010
0100
,
1000
0000
0000
0000
0000
0000
1000
0001
,
0100
0000
0001
0100
,
0110
0000
0000
0000
0000
0000
0010
1000
,
0200
0000
0000
0000
0000
0000
0000
0300
,
0000
0100
0000
0100
,
0000
0100
0100
0200
,
0000
0000
0000
0000
,
0300
0000
0000
0110
,
0000
0010
0000
0010
,
0010
0020
0000
0000
,
0000
0000
0000
0000
,
0030
0000
0001
1000
,
0000
1000
0000
1000
,
1000
1000
0000
0002
,
0000
0000
0000
0020
,
0000
0000
0033
0010
,
0000
0010
0000
0010
,
0010
0010
0000
0200
,
0000
0000
0000
2000
,
0000
0000
3300
1100
,
0000
1000
0000
0010
,
0100
0001
0000
2000
,
0000
0000
0000
0020
,
0000
0000
3030
0110
,
0000
0010
0000
0100
,
0100
0100
0000
0020
,
0000
0000
0000
2000
,
0000
0000
3030
1010
,
0000
1010
0000
1010
,
0101
1001
0000
0001
,
1000
0100
0100
1000
,
0001
0010
0010
0011
,
0000
1010
0000
1010
,
1100
0110
0000
0100
,
1000
0010
0010
0100
,
0001
0010
0100
1100
;

//---------------dance-single - ----------------
#NOTES:
     dance-single:
     :
     Beginner:
     1:
     0.126,0.187,0.025,0.000,0.000,102.000,3.000,0.000,0.000,0.000,0.000,0.126,0.187,0.025,0.000,0.000,102.000,3.000,0.000,0.000,0.000,0.000: // measure 0
0000
0000
0000
0000
,  // measure 1
0000
0000
0000
0000
,  // measure 2
0000
0000
0000
0000
,  // measure 3
0000
0000
0000
0000
,  // measure 4
0000
0001
0000
0000
,  // measure 5
0000
0000
0000
1000
,  // measure 6
0000
0100
0000
0000
,  // measure 7
0000
1000
0000
0110
,  // measure 8
0010
0000
0000
0000
,  // measure 9
0100
0000
0000
0000
,  // measure 10
0001
0000
0000
0000
,  // measure 11
1000
0000
1000
0000
,  // measure 12
1000
0000
0000
0000
,  // measure 13
0001
0000
0000
0000
,  // measure 14
0010
0000
0000
0000
,  // measure 15
0001
0000
0000
0000
,  // measure 16
0100
0000
0100
0000
,  // measure 17
0100
0000
0010
0000
,  // measure 18
0100
0000
0010
0000
,  // measure 19
1000
1000
1000
0000
,  // measure 20
0001
0000
0001
0000
,  // measure 21
0001
0000
0000
0000
,  // measure 22
1000
0000
0000
0000
,  // measure 23
0010
0000
0000
0000
,  // measure 24
0100
0000
0100
0000
,  // measure 25
0100
0100
0100
0000
,  // measure 26
0100
0000
0000
0000
,  // measure 27
0010
0000
0000
0000
,  // measure 28
1000
0000
0000
0000
,  // measure 29
0000
0000
0001
0001
,  // measure 30
0001
0000
0000
1000
,  // measure 31
1000
0000
0000
0000
,  // measure 32
0000
0010
0000
0010
,  // measure 33
0000
0010
0010
0010
,  // measure 34
0000
0000
0000
0000
,  // measure 35
0000
0000
0000
1000
,  // measure 36
0000
1000
0000
1000
,  // measure 37
1000
1000
0000
0000
,  // measure 38
0000
0000
0000
0000
,  // measure 39
0000
0000
0000
0001
,  // measure 40
0000
0001
0000
0001
,  // measure 41
0001
0001
0000
0100
,  // measure 42
0000
0000
0000
0010
,  // measure 43
0000
0000
0000
1000
,  // measure 44
0000
1000
0000
1000
,  // measure 45
1000
1000
0000
0001
,  // measure 46
0000
0001
0000
0000
,  // measure 47
0000
0000
0100
0100
,  // measure 48
0000
0010
0000
1000
,  // measure 49
1000
1000
0000
0001
,  // measure 50
0000
0000
0000
1000
,  // measure 51
0000
0000
0000
0010
,  // measure 52
0000
0010
0000
0010
,  // measure 53
0010
0010
0000
0100
,  // measure 54
0000
0010
0000
0010
,  // measure 55
0000
0010
0010
0110
,  // measure 56
0000
0100
0000
0010
,  // measure 57
0010
0010
0000
1000
,  // measure 58
0000
0000
0000
0001
,  // measure 59
0000
0000
0000
0010
,  // measure 60
0000
0010
0000
0010
,  // measure 61
0010
0010
0000
0100
,  // measure 62
0000
1000
0000
0001
,  // measure 63
0001
1000
1000
1001
;
