#TITLE:Come On Come On;
#SUBTITLE:;
#ARTIST:Mike McPower;
#TITLETRANSLIT:;
#SUBTITLETRANSLIT:;
#ARTISTTRANSLIT:;
#CREDIT:;
#BANNER:bn.png;
#BACKGROUND:bg.png;
#LYRICSPATH:;
#CDTITLE:;
#MUSIC:Come On Come On.mp3;
#OFFSET:-0.018;
#SAMPLESTART:41.120;
#SAMPLELENGTH:12.000;
#SELECTABLE:YES;
#BPMS:0.000=140.000;
#STOPS:160.000=1.286
;
#BGCHANGES:;

//---------------dance-single - ----------------
#NOTES:
     dance-single:
     :
     Hard:
     7:
     0.435,0.480,0.298,0.053,0.000:
0000
0000
0000
0000
,
0000
0000
0000
0000
,
0000
0000
0000
0000
,
0000
0000
0000
0000
,
0000
0000
0000
0000
,
0000
0000
0000
0000
,
0000
0000
0000
0000
,
0000
0000
0000
0000
,
0101
0000
0001
0100
1000
0000
1000
0100
,
0000
0010
1000
0010
1000
0010
1000
0001
,
0010
0000
0001
1000
0100
0000
1000
0010
,
0000
0100
0001
0010
0001
0010
0100
1000
,
0001
0000
0001
1000
0010
0000
0100
0001
,
0000
0001
0010
0100
0010
0100
1000
0010
,
0100
0000
0010
1000
0001
0000
0001
0010
,
0000
0100
1000
0001
0100
0001
0010
0001
,
1001
0000
0101
0000
1001
0000
0001
0100
,
0000
0100
0010
1000
0100
0000
0100
0010
,
0011
0000
1100
0000
1001
0000
0100
0100
,
0000
0010
1000
0100
1000
0100
1000
0001
,
0101
0000
1010
0000
0101
0000
0001
0001
,
0000
0001
0010
0100
0010
0001
0100
1000
,
1100
0000
0110
0000
1001
0000
0001
0001
,
0000
0001
0100
0010
1000
0100
0010
0001
,
1000
0010
1000
0001
,
0010
0001
1000
0010
,
1000
0001
0100
0001
,
1000
0100
0100
0100
,
1000
0010
0100
0001
,
0010
0100
1000
0010
,
0100
0100
0010
0010
,
1000
0001
1000
0001
,
1001
0000
0001
0100
0020
0000
0100
0130
,
0000
0010
1000
0010
1000
0010
1000
0010
,
1000
0000
1000
0100
0020
0000
0100
0130
,
0000
0010
0001
0010
1000
0010
0010
0000
,
0011
0000
0001
0010
0100
0000
0100
0010
,
0000
0010
0001
1000
0001
1000
0001
1000
,
0001
0000
0001
0100
0020
0000
1000
1030
,
0000
1000
0100
0010
0001
1000
0100
0010
,
1001
0110
0101
1100
,
0100
0010
0000
0100
1000
0010
0100
0000
,
0100
0001
0011
0000
1100
0000
1001
0000
,
0001
0100
0000
0100
0010
1000
0010
1000
,
0010
0100
0001
0000
0011
0000
1001
0000
,
0001
0100
0000
0100
0010
1000
0100
0000
,
0100
0010
0011
0000
1100
0000
1001
0000
,
0001
0001
0000
0001
0100
0010
0100
0010
,
1000
0001
0010
0000
0001
0000
0100
0000
,
0010
0000
1000
0010
0100
0010
0100
0000
,
0010
1000
0001
0000
0001
0000
0100
0000
,
0010
0000
1000
0010
0100
0001
0010
1000
,
0010
0001
2002
0000
0000
0000
0000
0000
,
3003
0000
0000
0000
;

//---------------dance-single - ----------------
#NOTES:
     dance-single:
     :
     Medium:
     5:
     0.330,0.395,0.075,0.043,0.000:
0000
0000
0000
0000
,
0000
0000
0000
0000
,
0000
0000
0000
0000
,
0000
0000
0000
0000
,
0000
0000
0000
0000
,
0000
0000
0000
0000
,
0000
0000
0000
0000
,
0000
0000
0000
0000
,
1001
0000
0001
0000
0100
0000
0010
1000
,
0000
0010
0100
0000
0100
0000
0100
0000
,
0010
0000
1000
0000
0001
0000
0010
0100
,
0000
0100
0010
0000
0010
0000
0010
0000
,
0001
0000
0100
0000
0010
0000
1000
0001
,
0000
0001
0010
0000
0010
0000
0010
0000
,
0001
0000
0100
0000
0010
0000
1000
0001
,
0000
0100
0010
0100
0010
0100
0010
0100
,
0010
0000
1000
0000
0010
0000
0100
0001
,
0000
0001
0010
0100
1000
0000
1100
0000
,
1000
0000
0100
0000
1000
0000
0010
0100
,
0000
0001
0100
0000
0100
0000
0100
0000
,
0110
0000
0001
0000
1000
0000
0100
1000
,
0000
0100
1000
0000
0010
0000
0100
0000
,
0001
0000
1000
0000
0100
0000
1000
0010
,
0000
0100
0001
0000
0001
0000
0001
0000
,
1001
1000
0001
1000
,
0001
1000
0001
1000
,
0010
0100
0010
0100
,
0010
0100
0010
0200
,
0301
1000
0001
1000
,
0001
1000
0001
1000
,
0100
0010
0100
0010
,
0100
0010
0100
0010
,
1001
0000
0001
1000
0001
0000
0100
0001
,
0000
0001
0100
0000
0100
0000
0100
0000
,
0010
0000
1000
0010
0100
0000
0100
0010
,
0000
0100
0010
2000
,
3001
0000
1000
0100
1000
0000
0100
0010
,
0000
0010
0001
0000
0100
0000
1000
0000
,
0100
0000
0010
1000
0001
0000
0001
0010
,
0000
0001
0010
0100
1000
0001
0010
0100
,
1000
0001
1000
0010
,
0100
0010
0000
0010
1000
0000
0001
0000
,
0010
0100
1000
0000
0100
0000
1000
0000
,
1000
0100
0000
0010
0001
0000
0001
0000
,
0001
0001
0100
0010
,
0100
0010
0000
0100
0001
0000
1000
0000
,
0100
1000
0100
0000
1000
0000
0010
0000
,
0100
0001
0000
0001
0010
0000
0010
0000
,
0010
0110
0100
1000
,
0100
0001
0100
0010
,
0001
0100
1000
0100
,
0010
1000
1000
1000
,
1000
2002
0000
0000
,
3003
0000
0000
0000
;

//---------------dance-single - ----------------
#NOTES:
     dance-single:
     :
     Easy:
     3:
     0.237,0.278,0.075,0.000,0.000:
0000
0000
0000
0000
,
0000
0000
0000
0000
,
0000
0000
0000
0000
,
0000
0000
0000
0000
,
0000
0000
0000
0000
,
0000
0000
0000
0000
,
0000
0000
0000
0000
,
0000
0000
0000
0000
,
1001
1000
0100
1000
,
0100
0100
0100
0100
,
0010
0001
0010
0001
,
0010
0010
0010
0010
,
0100
1000
0001
0100
,
0010
0010
0010
0010
,
0100
0001
1000
0100
,
1000
0000
1000
0000
,
1001
0001
1000
0100
,
1000
0100
0010
0001
,
0010
0100
0010
0001
,
1000
1000
1000
1000
,
0001
0100
0001
0010
,
0001
1000
0001
1000
,
0100
1000
0010
1000
,
0100
0100
0100
0100
,
1001
0000
0000
0000
,
1000
0000
0000
0000
,
0010
0000
0000
0000
,
0000
0100
0100
0100
,
0001
0000
1000
0000
,
0010
0000
0100
0000
,
0001
0001
1000
0100
,
1000
0000
0100
0000
,
0011
0010
0010
0000
,
0001
0001
0001
0000
,
1000
0010
1000
0000
,
0100
0100
0100
0010
,
0110
0010
1000
0000
,
1000
0001
0010
0000
,
0001
0100
1000
0000
,
1000
0100
0010
1000
,
1001
0001
1000
0100
,
1000
0010
0100
0100
,
0010
1000
0001
0010
,
0001
0100
0100
0100
,
0100
0010
1000
0010
,
0001
0010
1000
0010
,
0100
0001
1000
0100
,
1000
0010
0100
0010
,
0100
0100
0010
0000
,
1000
0000
0001
0000
,
0010
0001
0100
0000
,
0010
0000
1000
0001
,
1000
1001
0000
0000
;

//---------------dance-single - ----------------
#NOTES:
     dance-single:
     :
     Beginner:
     1:
     0.085,0.139,0.064,0.000,0.000: // measure 1
0000
0000
0000
0000
,  // measure 2
0000
0000
0000
0000
,  // measure 3
0000
0000
0000
0000
,  // measure 4
0000
0000
0000
0000
,  // measure 5
0000
0000
0000
0000
,  // measure 6
0000
0000
0000
0000
,  // measure 7
0000
0000
0000
0000
,  // measure 8
0000
0000
0000
0000
,  // measure 9
1001
0000
0000
0000
,  // measure 10
1000
0000
1000
0000
,  // measure 11
1000
0000
0000
0000
,  // measure 12
0001
0000
0001
0000
,  // measure 13
0001
0000
0000
0000
,  // measure 14
0010
0000
0010
0000
,  // measure 15
0010
0000
0000
0000
,  // measure 16
0100
0000
0100
0000
,  // measure 17
0110
0000
0000
0000
,  // measure 18
1000
0000
1000
0000
,  // measure 19
0001
0000
0000
0000
,  // measure 20
0100
0000
0100
0000
,  // measure 21
0010
0000
0000
0000
,  // measure 22
1000
0000
1000
0000
,  // measure 23
0100
0000
0000
0000
,  // measure 24
0100
0000
0100
0000
,  // measure 25
0110
0000
0000
0000
,  // measure 26
0000
0000
0000
0000
,  // measure 27
0001
0000
0000
0000
,  // measure 28
0000
0000
0000
0000
,  // measure 29
1000
0000
0000
0000
,  // measure 30
0000
0000
0000
0000
,  // measure 31
0010
0000
0000
0000
,  // measure 32
0000
0000
0000
0000
,  // measure 33
0110
0000
0000
0000
,  // measure 34
0000
0000
0000
0000
,  // measure 35
0100
0000
0000
0000
,  // measure 36
0000
0000
0000
0000
,  // measure 37
1001
0000
0000
0000
,  // measure 38
0000
0000
0000
0000
,  // measure 39
0001
0000
0000
0000
,  // measure 40
0000
0000
0000
0000
,  // measure 41
0000
0010
0000
0000
,  // measure 42
0000
0100
0000
0100
,  // measure 43
0000
0100
0000
0000
,  // measure 44
0000
0001
0000
0001
,  // measure 45
0000
0001
0000
0000
,  // measure 46
0000
1000
0000
1000
,  // measure 47
0000
1000
0000
0000
,  // measure 48
0000
0000
0010
0000
,  // measure 49
0010
0010
0000
0000
,  // measure 50
0000
0100
0000
0000
,  // measure 51
0000
0001
0000
0000
,  // measure 52
0000
1000
0000
0001
,  // measure 53
0000
1001
0000
0000
;
