#TITLE:クライマックス銭湯;
#SUBTITLE:;
#ARTIST:Dp.Honda;
#TITLETRANSLIT:Climax Bathhouse;
#SUBTITLETRANSLIT:;
#ARTISTTRANSLIT:;
#CREDIT:Pandemonium X;
#BANNER:[pop'n music] - Climax Bathhouse BN.png;
#BACKGROUND:[pop'n music] - Climax Bathhouse bg.png;
#LYRICSPATH:;
#CDTITLE:Pop'n Music.png;
#MUSIC:[pop'n music] - Climax Bathhouse.ogg;
#OFFSET:-0.462;
#SAMPLESTART:34.340;
#SAMPLELENGTH:12.000;
#SELECTABLE:YES;
#BPMS:0.000=170.000;
#STOPS:193.000=0.706
,257.500=1.059
;
#BGCHANGES:;

//---------------dance-single - ----------------
#NOTES:
     dance-single:
     :
     Hard:
     9:
     0.518,0.588,0.120,0.051,0.167:
0000
0000
0000
0000
,
0000
0000
0000
0000
,
0000
0000
0000
0000
,
0000
0000
0000
0000
,
1010
0000
0000
0000
,
0001
0000
0100
0000
,
0010
0000
0000
0000
,
1000
0001
1000
0001
1000
0001
1000
0001
,
0100
0000
0101
0000
0000
0001
0000
0100
,
0000
0010
0000
1000
0000
0010
0100
0010
,
1000
0000
1000
0000
0000
0001
1000
0001
,
0000
0100
0000
0100
0000
0100
0010
1000
,
1001
0000
0001
0000
0000
0100
0000
0001
,
0000
0100
0001
0010
0000
0010
0100
1000
,
0100
0000
1000
0000
0000
0100
0010
0001
,
0000
0001
0100
0010
1000
0001
0010
0100
,
1100
0000
0011
0000
0000
0001
0000
0010
,
0000
0100
0000
1000
0000
0100
0010
0001
,
1000
0000
0001
0000
0000
0100
0000
0100
,
0000
0001
0100
1000
0100
0010
0100
0010
,
1000
0000
1000
0000
0000
0010
0000
0100
,
0000
0001
0000
1000
0000
0001
1000
0100
,
1000
0000
0100
0000
0000
1000
0000
0100
,
1000
0100
0010
0001
0010
0100
1000
0001
,
0100
0001
0100
0000
0001
0100
0010
0000
,
0100
0010
1000
0000
0010
0100
0010
1000
,
0001
0010
0100
0000
0100
0010
0001
0000
,
0001
0100
0010
1000
0001
0100
0010
1000
,
0100
0010
0001
0000
0001
0100
0010
0000
,
0100
0010
1000
0010
0100
0010
0001
0010
,
0100
0010
1000
0000
1000
0001
0010
0000
,
0001
0010
0100
0000
0100
1000
0010
0000
,
0010
0100
0010
0100
0010
1000
0010
1000
,
0001
1000
0001
1000
0001
0100
0010
1000
,
0001
0100
0001
0100
0001
0010
0001
0010
,
0001
0010
0100
1000
0001
0010
0100
1000
,
0100
1000
0100
1000
0100
0010
0100
0010
,
0100
1000
0100
1000
0100
0010
0100
0010
,
0100
0010
0001
1000
0001
0100
0001
0010
,
0100
0010
0001
1000
0010
0100
0001
1000
,
0220
0000
0000
0000
,
0000
0000
0000
0000
,
0330
0000
0000
0000
,
0001
0100
0001
0100
0001
0100
0101
0000
,
2020
0000
0000
0000
,
0000
0000
0000
0000
,
3030
0000
0000
0000
,
0000
0000
0000
0000
,
0000
0000
1000
0010
,
0100
0100
0010
1000
,
0001
0000
1000
0001
0000
0001
1000
0000
0000
0100
0000
0000
,
1000
0000
0000
0100
0000
0000
0010
0000
0001
0010
0000
0010
,
0100
0000
0100
1000
0000
1000
0100
0000
0000
1000
0000
0000
,
0010
0100
0010
1000
,
0001
0000
0001
0100
0000
0010
1000
0000
0000
0010
0000
0000
,
0100
0010
0110
1001
,
0110
0000
0000
1001
0000
0000
1001
0000
0001
0100
0000
0100
,
0001
0000
0001
0100
0000
0100
0001
0000
0001
0100
0000
0100
,
0001
0000
0001
0100
0000
0100
0010
0000
0010
0100
0000
0100
,
0010
0000
0010
0100
0000
0100
0010
0000
0010
0100
0000
0100
,
0010
0000
0010
0100
0000
0010
1000
0000
1000
0010
0000
0010
,
1000
0000
1000
0010
0000
0010
1000
0000
1000
0100
0000
0100
,
0010
0000
0010
0001
0000
0001
1000
0000
1000
0001
0000
0001
,
1000
0000
1000
0001
0000
0001
1000
0000
0001
0100
0000
0100
,
0010
0000
0000
0000
0010
0000
1000
0000
0000
0000
0000
0000
0001
0000
0000
0100
0000
0000
0001
0000
0000
0100
0000
0000
,
0010
0100
0010
0100
0010
1000
0010
1000
,
0010
0100
0001
1000
0010
0100
0010
0100
,
0001
1000
0001
1000
0001
0010
0100
0010
,
0001
0100
1000
0100
0010
1000
0010
1000
,
0010
0100
0010
0100
0001
0100
0001
0100
,
0001
0010
0100
1000
0100
0100
1000
0010
,
0100
0100
0010
1000
0001
0001
0010
0100
,
1000
1000
0100
1000
0010
0010
0100
0100
,
0001
0001
1000
1000
0001
0010
0100
1000
,
0001
0010
0100
1000
2002
0000
0000
0000
,
0000
0000
0000
0000
,
0000
0000
3003
0000
;

//---------------dance-single - ----------------
#NOTES:
     dance-single:
     :
     Medium:
     6:
     0.399,0.490,0.248,0.043,0.000:
0000
0000
0000
0000
,
0000
0000
0000
0000
,
0000
0000
0000
0000
,
0000
0000
0000
0000
,
1000
0000
0000
0000
,
0001
0000
0100
0000
,
0010
0000
0000
0000
,
0100
0010
0100
0010
,
1000
0000
0001
0000
0000
1000
0000
0001
,
0000
0100
0000
0001
0000
1000
0100
0000
,
1000
0000
1000
0000
0000
0001
0000
0100
,
0000
0001
0000
0100
0000
0010
0100
0010
,
1000
0000
1000
0000
0000
0001
0000
1000
,
0000
0100
0000
0010
0000
0100
0000
1000
,
0100
0000
0100
0000
0000
1000
0000
0010
,
0000
0100
0010
0000
1000
0000
0001
0000
,
1001
0000
1001
0000
0000
0001
0000
1000
,
0000
0010
0000
0100
0000
0001
0010
0100
,
1000
0000
0100
0000
0000
1000
0000
0100
,
0000
1000
0010
0100
0010
0000
0100
0000
,
0001
0000
1000
0000
0000
0100
0000
0010
,
0000
0100
0000
1000
0000
0010
0100
0000
,
0001
0000
1000
0000
0000
0001
0000
0100
,
0001
0010
0100
1000
,
0001
0100
0010
0000
0100
0000
0110
0000
,
0010
1000
0100
0000
0010
0000
0110
0000
,
0010
0001
1000
0000
0001
0000
1001
0000
,
0001
1000
0010
0000
0100
0000
1001
0000
,
0001
0100
0010
0000
0100
0010
1000
0000
,
1000
1000
0100
0100
,
0010
0001
0010
0000
0001
0010
0001
0000
,
0010
0001
0010
0000
0001
0100
0010
0000
,
0100
0010
1000
0000
0001
0000
1010
0000
,
0001
0010
0100
0000
0100
0010
0001
0000
,
1000
0001
0100
0000
0010
0000
0110
0000
,
0100
0010
1000
0010
0100
0000
0110
0000
,
0010
1000
0001
0000
1000
0000
1100
0000
,
1000
0001
0100
0000
0001
0000
0101
0000
,
0001
0100
0010
0000
0100
0010
1000
0000
,
0010
0100
0001
1000
0100
0010
0001
0010
,
0002
0000
0000
0000
,
0000
0000
0000
0000
,
0003
0000
0000
0000
,
0000
0000
0000
0000
,
2002
0000
0000
0000
,
0000
0000
0000
0000
,
3003
0000
0000
0000
,
0000
0000
0000
0000
,
0000
0000
0100
0001
,
1000
0100
1000
0001
,
0100
0001
0001
0100
,
0010
0100
0001
0010
,
0010
0010
0100
1000
,
0100
0010
0100
1000
,
0010
0100
0010
1000
,
0001
0010
0100
0100
,
0100
0100
0110
0010
,
0001
0100
0110
0010
,
1000
0001
0101
0001
,
0101
0100
0110
0010
,
0110
0010
1010
0010
,
1000
0001
1100
0101
,
1100
0101
1001
0001
,
0101
0100
0110
0010
,
1010
0000
0011
0000
0001
1000
0010
0000
,
0100
0010
1000
0000
0010
0100
0001
0000
,
0001
0100
0010
1000
0100
0010
0001
0000
,
0001
0010
0001
0000
0001
0100
0010
0000
,
0100
0010
1000
0000
0001
1000
0010
0000
,
0100
0010
1000
0000
0010
0100
0001
0000
,
0100
0010
1000
0000
0010
0000
0100
0000
,
0001
1000
0100
0010
0001
0000
0010
0000
,
0001
0100
0001
0100
0010
0100
0001
0000
,
0001
0100
1000
0000
1000
0100
0010
1000
,
0001
0010
0100
1000
2002
0000
0000
0000
,
0000
0000
0000
0000
,
0000
0000
3003
0000
;

//---------------dance-single - ----------------
#NOTES:
     dance-single:
     :
     Easy:
     4:
     0.261,0.458,0.094,0.051,0.000:
0000
0000
0000
0000
,
0000
0000
0000
0000
,
0000
0000
0000
0000
,
0000
0000
0000
0000
,
1000
0000
0000
0000
,
0001
0000
0001
0000
,
0010
0000
0000
0000
,
0001
0000
0000
0000
,
0100
0000
0100
0000
,
0001
0000
1000
0001
,
0100
0000
0100
0000
,
0001
0000
1000
0100
,
1000
0000
0100
0000
,
1000
0000
0010
0010
,
0100
0000
0010
0000
,
0100
0000
0001
1000
,
1001
0000
0001
0000
,
1000
0000
0010
0100
,
0001
0000
0100
0000
,
0010
0010
0100
0001
,
1001
0000
1000
0000
,
0001
0000
0100
0001
,
0100
0000
0010
0000
,
0100
0100
0010
0010
,
1000
0000
0001
0000
,
0010
0000
0001
0010
,
0100
0000
0010
0000
,
0001
0000
1000
0001
,
0100
0000
0001
0000
,
0100
0001
0010
0100
,
1000
0000
0100
0000
,
1000
0000
0010
0100
,
0001
1000
0001
1000
,
0001
0100
0010
0100
,
0001
0100
0001
1000
,
0001
0010
0100
1000
,
0100
0010
0100
1000
,
0100
0010
0100
1000
,
0001
0001
1000
1000
,
0010
0010
0100
0100
,
2002
0000
0000
0000
,
0000
0000
0000
0000
,
3003
0000
0000
0000
,
0000
0000
0000
0000
,
0220
0000
0000
0000
,
0000
0000
0000
0000
,
0330
0000
0000
0000
,
0000
0000
0000
0000
,
0000
0000
0001
0000
,
0001
0000
0001
0000
,
0001
1000
0010
0000
,
0010
0000
1000
1000
,
0001
0001
0100
0000
,
0100
0000
0100
0000
,
0100
0001
1000
0000
,
1000
0000
1000
1000
,
0001
0001
0100
0001
,
0100
0001
0100
0010
,
0100
0010
1000
0010
,
1000
0010
1000
0100
,
1000
0100
0010
0100
,
0010
0100
1000
1000
,
1000
1000
0001
1000
,
0001
1000
0010
0100
,
0010
0100
0010
0010
,
0100
0100
0010
0010
,
0100
0010
1000
1000
,
0001
0001
1000
1000
,
0001
1000
0001
0001
,
0100
0100
0001
0001
,
0100
0100
0010
0010
,
1000
1000
0010
0010
,
1000
1000
0110
0010
,
1001
0010
0101
1100
,
1010
0011
2002
0000
,
0000
0000
0000
0000
,
0000
0000
0000
0000
0000
0000
0000
0000
0000
0000
0000
0000
0000
0000
0000
0000
0000
0000
0000
0000
0000
0000
0000
0000
0000
0000
0000
0000
0000
0000
0000
0000
0000
0000
0000
0000
0000
0000
0000
0000
0000
0000
0000
0000
0000
0000
0000
0000
0000
0000
0000
0000
0000
0000
0000
0000
0000
0000
0000
0000
0000
0000
0000
0000
0000
0000
0000
0000
0000
0000
0000
0000
0000
0000
0000
0000
0000
0000
0000
0000
0000
0000
0000
0000
0000
0000
0000
0000
0000
0000
0000
0000
0000
0000
0000
0000
0000
3003
0000
0000
0000
0000
0000
0000
0000
0000
0000
0000
0000
0000
0000
0000
0000
0000
0000
0000
0000
0000
0000
0000
0000
0000
0000
0000
0000
0000
0000
0000
0000
0000
0000
0000
0000
0000
0000
0000
0000
0000
0000
0000
0000
0000
0000
0000
0000
0000
0000
0000
0000
0000
0000
0000
0000
0000
0000
0000
0000
0000
0000
0000
0000
0000
0000
0000
0000
0000
0000
0000
0000
0000
0000
0000
0000
0000
0000
0000
0000
0000
0000
0000
0000
0000
0000
0000
0000
0000
0000
0000
0000
0000
0000
0000
;

//---------------dance-single - ----------------
#NOTES:
     dance-single:
     :
     Beginner:
     1:
     0.128,0.223,0.051,0.000,0.000:
0000
0000
0000
0000
,
0000
0000
0000
0000
,
0000
0000
0000
0000
,
0000
0000
0000
0000
,
0010
0000
0000
0000
,
0100
0000
0100
0000
,
0010
0000
0000
0000
,
1000
0000
0000
0000
,
0001
0000
0000
0000
,
1000
0000
0000
0000
,
0100
0000
0000
0000
,
1000
0000
1000
0000
,
0001
0000
0000
0000
,
0100
0000
0000
0000
,
0001
0000
0000
0000
,
1000
0000
1000
0000
,
0010
0000
0000
0000
,
0100
0000
0000
0000
,
0010
0000
0000
0000
,
1000
0000
0001
0000
,
0100
0000
0000
0000
,
0010
0000
0000
0000
,
0100
0000
0000
0000
,
0001
0000
1000
0000
,
0110
0000
0000
0000
,
0010
0000
0000
0000
,
1000
0000
0000
0000
,
0001
0000
1000
1000
,
0001
0000
0000
0000
,
0100
0000
0100
0000
,
0100
0000
0000
0000
,
0010
0000
1000
0000
,
1001
0000
0000
0000
,
0010
0000
0100
0000
,
0110
0000
0000
0000
,
0010
0000
1000
0000
,
1001
0000
0000
0000
,
0001
0000
1000
0000
,
0001
0100
0000
0100
,
0000
0100
0010
0100
,
0010
0000
0000
0000
,
0000
0000
0000
0000
,
0000
0000
0000
0000
,
0000
0000
0000
0000
,
1001
0000
0000
0000
,
0000
0000
0000
0000
,
0000
0000
0000
0000
,
0000
0000
0000
0000
,
0000
0000
0100
0000
,
0000
0000
0010
0000
,
0000
0000
1000
0000
,
0000
0000
0000
0001
,
0001
0001
1000
0000
,
0000
0000
0010
0000
,
0100
0000
0100
0000
,
0000
0000
0010
0000
,
0100
0000
0001
0000
,
0000
0000
1000
0000
,
0001
0000
0100
0000
,
0000
0000
0010
0000
,
1000
0000
0010
0000
,
0000
0000
0100
0100
,
0100
0100
0100
0000
,
0000
0000
0010
0000
,
1000
0000
0001
0000
,
0000
0000
1000
0000
,
0000
0000
0100
0000
,
0000
0000
1000
0000
,
0000
0000
0010
0000
,
0000
0100
0000
0010
,
0000
0100
0100
0000
,
0001
0000
1000
0000
,
1000
0000
0001
0001
,
0000
1000
0000
0010
,
0100
1000
1001
0000
;

//---------------dance-single - ----------------
#NOTES:
     dance-single:
     :
     Challenge:
     10:
     0.646,0.807,0.248,0.060,0.500: // measure 1
0000
0000
0000
0000
,  // measure 2
0000
0000
0000
0000
,  // measure 3
0000
0000
0000
0000
,  // measure 4
0000
0000
0000
0000
,  // measure 5
0001
0100
0001
0100
0000
0000
0000
0000
0000
0000
0000
0000
,  // measure 6
0010
1000
0010
1000
0000
0000
0001
1000
0001
1000
0000
0000
,  // measure 7
0010
0100
0010
0100
0000
0000
0000
0000
0000
0000
0000
0000
,  // measure 8
0100
0001
1000
0100
0010
0100
1000
0001
,  // measure 9
1001
0000
0110
0000
0000
0010
0000
0100
,  // measure 10
0000
0001
0100
1000
0000
1000
0100
0010
,  // measure 11
1000
0000
1010
0000
0000
1000
0100
0010
,  // measure 12
0000
0010
0000
0001
0000
0010
0001
0010
,  // measure 13
0011
0000
1100
0000
0000
1000
0000
0100
,  // measure 14
0000
1000
0010
0010
0000
0100
0010
1000
,  // measure 15
0001
0000
1001
0000
0000
0001
0100
1000
,  // measure 16
0000
1000
0100
0010
1000
0001
0010
1000
,  // measure 17
0010
0000
0110
0000
0000
0010
0000
0110
,  // measure 18
0000
0100
0000
0110
0000
0010
0001
1000
,  // measure 19
0010
0000
1010
0000
0000
1010
0000
0101
,  // measure 20
0000
0001
0100
1000
0100
0010
1000
0010
,  // measure 21
1000
0000
1010
0000
0000
0011
0000
1100
,  // measure 22
0000
0011
0000
0101
0000
0001
0100
0010
,  // measure 23
1000
0000
1001
0000
0000
0001
0000
1000
,  // measure 24
1000
0100
0010
0001
0010
0100
1000
0001
,  // measure 25
0100
0001
0100
0001
0100
0010
0100
0010
,  // measure 26
0100
0001
0100
0001
0001
0100
1000
0100
,  // measure 27
0010
0100
0010
0100
0010
1000
0010
0100
,  // measure 28
0010
1000
0001
0010
0100
1000
0100
1000
,  // measure 29
0100
0010
0100
0010
0100
1000
0100
1000
,  // measure 30
0100
0010
0001
0010
0100
1000
0100
0010
,  // measure 31
0001
1000
0001
1000
0001
0100
0001
0100
,  // measure 32
0010
0100
0010
0100
0001
0100
0010
0100
,  // measure 33
0001
1000
0001
1000
0100
1000
0100
1000
,  // measure 34
0100
0010
0100
0010
0100
1000
0010
0100
,  // measure 35
0001
0100
0001
0100
0001
0010
0001
0010
,  // measure 36
0001
0010
0100
1000
0001
0010
0100
1000
,  // measure 37
0100
1000
0100
1000
0100
0010
0100
1000
,  // measure 38
0100
1000
0100
1000
0100
1000
0001
1000
,  // measure 39
0001
0100
0010
0100
0001
0100
0010
0100
,  // measure 40
0001
0010
0100
0010
0001
0100
1000
0100
,  // measure 41
0020
0000
0000
0000
,  // measure 42
0000
0000
0000
0000
0000
0000
0000
0000
0000
0000
0000
0000
0030
0000
0000
0100
0000
0001
0000
1000
0000
0100
0000
0020
,  // measure 43
0000
0000
0000
0000
,  // measure 44
0130
0100
0100
0100
0100
0100
1001
0000
,  // measure 45
0220
0000
0000
0000
,  // measure 46
0330
0000
0000
0000
0000
0000
0000
0000
0000
0000
0000
0000
0000
0000
0000
0010
0000
0100
0000
0001
0000
1000
0000
0002
,  // measure 47
0000
0000
0000
0000
,  // measure 48
0000
0000
0000
0000
0000
0000
0000
0000
0000
0000
0000
0000
0000
0000
0000
0000
0000
0000
0000
0000
0000
0000
0000
0003
,  // measure 49
0000
0000
0000
0000
0000
0000
1000
0000
0001
0000
0000
0001
,  // measure 50
0100
0000
0010
0000
0000
0010
1000
0000
0100
0000
0000
0010
,  // measure 51
0001
0000
0001
0100
0000
0100
0010
0000
1000
0000
0000
1000
,  // measure 52
0001
0000
0001
0010
0000
0100
0000
0000
1000
0100
0000
0100
,  // measure 53
0010
0000
0010
0001
0000
0001
0100
0000
0110
0000
0000
0010
,  // measure 54
1000
0000
0110
0000
0000
0010
0100
0000
0101
0000
0000
0001
,  // measure 55
0100
0000
0100
0010
0000
0010
1000
0000
1001
0000
0000
0001
,  // measure 56
0100
0000
0010
1000
0000
0010
1000
0000
1000
0100
0000
0010
,  // measure 57
0001
0000
0001
0010
0000
0000
0001
0100
0001
0100
0001
0100
,  // measure 58
0010
0100
0010
0100
0010
0100
0010
1000
0010
1000
0010
1000
,  // measure 59
0010
0100
0010
0100
0010
0100
0001
1000
0001
1000
0001
1000
,  // measure 60
0001
0100
0001
0100
0001
0100
0001
0100
0010
1000
0001
0100
,  // measure 61
0010
1000
0001
0100
0010
1000
0001
0100
0001
0100
0001
0100
,  // measure 62
0010
0100
0010
0100
0010
0100
0010
1000
0001
0010
0100
1000
,  // measure 63
0100
0010
0001
0010
0100
1000
0100
1000
0100
1000
0100
1000
,  // measure 64
0100
0010
0100
0010
0100
0010
0100
1000
0010
0100
0001
0010
,  // measure 65
0100
0000
0010
0000
1000
0000
0001
0000
0010
0000
0000
0000
1000
0000
0000
0100
0000
0000
0010
0000
0000
0001
0000
0000
,  // measure 66
0010
0100
0010
0001
0010
0100
1000
0100
,  // measure 67
0010
0100
1000
0010
0100
0001
1000
0010
,  // measure 68
0100
0001
0010
0001
0010
0100
1000
0100
,  // measure 69
1000
0010
0100
0010
1000
0001
0101
0001
,  // measure 70
1000
0100
1100
1000
0001
0100
0101
0001
,  // measure 71
1000
0100
1100
1000
0001
0001
1000
1000
,  // measure 72
0010
0100
0001
0001
0100
0100
0010
0010
,  // measure 73
1000
0000
1000
0000
0001
0000
0001
0000
1000
0000
0001
0100
0001
0000
0100
0000
,  // measure 74
0010
0000
1000
0010
1000
0000
0010
0000
0100
0010
1000
0001
1000
0100
0010
0001
,  // measure 75
1000
0001
0100
0010
0100
0001
0010
0000
2200
0000
0000
0000
0000
0000
0000
0000
,  // measure 76
0000
0000
3300
0000
;
