#TITLE:Cirno's Perfect Math Class;
#SUBTITLE:;
#ARTIST:IOSYS;
#TITLETRANSLIT:;
#SUBTITLETRANSLIT:;
#ARTISTTRANSLIT:;
#CREDIT:;
#BANNER:bn.png;
#BACKGROUND:bg.png;
#LYRICSPATH:;
#CDTITLE:;
#MUSIC:Cirno's Perfect Math Class.ogg;
#OFFSET:-0.164;
#SAMPLESTART:10.600;
#SAMPLELENGTH:12.000;
#SELECTABLE:YES;
#BPMS:0.000=175.000,192.000=87.500,200.000=175.000,210.000=350.001,214.000=700.002,222.000=175.002;
#STOPS:222.000=0.343
,283.000=1.029
;
#BGCHANGES:0.000=cirno.avi=1.000=1=1=0,
99999=-nosongbg-=1.000=0=0=0 // don't automatically add -songbackground-
;

//---------------dance-single - ----------------
#NOTES:
     dance-single:
     :
     Hard:
     9:
     0.635,1.000,0.180,0.157,0.184: // measure 1
0000
0000
0000
0000
,  // measure 2
0000
0000
0000
0000
,  // measure 3
0000
0000
0000
0000
,  // measure 4
0000
0000
0000
0000
,  // measure 5
0000
0000
0000
0000
,  // measure 6
0000
0000
0000
0000
,  // measure 7
0000
0000
0000
0000
,  // measure 8
0000
0000
0000
0000
0000
1000
0001
1000
,  // measure 9
0010
0000
0000
0100
1000
0100
0010
1000
,  // measure 10
0001
0010
0100
0010
0001
1000
0001
1000
,  // measure 11
0010
0000
0000
0010
1000
0010
0100
0001
,  // measure 12
0020
0001
0130
0010
,  // measure 13
1001
0001
0100
0010
,  // measure 14
1010
1000
0100
0010
,  // measure 15
0011
0100
1010
0100
,  // measure 16
1001
0000
0110
0000
1001
0010
1001
0000
,  // measure 17
0001
0100
0010
0100
0000
0010
1000
0001
,  // measure 18
0010
0001
1000
0100
0000
1000
0010
0100
,  // measure 19
0001
0010
0100
1000
0000
0100
0010
0001
,  // measure 20
1000
0001
0100
0001
0000
0010
0100
1000
,  // measure 21
0001
0010
0001
0100
0000
0010
1000
0001
,  // measure 22
0010
0001
0010
0100
0000
0010
0001
0100
,  // measure 23
0010
1000
0001
0010
0000
0001
0010
0100
,  // measure 24
1000
0100
1000
0100
1000
0100
1000
0000
0100
0000
0010
0000
0100
0000
1000
0000
,  // measure 25
0001
0010
0001
0100
0000
1000
0100
0010
,  // measure 26
1000
0001
0010
0100
0000
0010
0001
0100
,  // measure 27
0010
1000
0100
1000
0000
0100
0010
0001
,  // measure 28
1000
0001
0100
0001
0010
0100
1000
0001
,  // measure 29
1000
0001
0010
0100
0000
0010
0001
0100
,  // measure 30
0010
1000
0001
0010
0000
0100
1000
0001
,  // measure 31
0001
0100
0000
0010
1000
0000
1000
0100
0000
0010
0001
0000
0001
0000
1000
0000
,  // measure 32
0010
0000
0010
0000
0010
0000
0010
0100
0000
0000
0000
0000
2002
0000
0000
3003
,  // measure 33
0001
0000
0000
0001
0100
0000
0010
0000
1000
0000
0100
0000
0010
0000
0000
0000
,  // measure 34
0100
0000
0000
1000
0100
0000
0010
0000
0001
0000
0000
0000
1000
0000
0000
0000
,  // measure 35
0010
0100
1000
0000
1000
0100
0001
0000
,  // measure 36
0001
0010
0100
0010
0001
0000
1000
0000
,  // measure 37
0001
0100
0010
1000
0200
0000
0310
0000
,  // measure 38
0010
0001
1000
0001
0020
0000
0130
0000
,  // measure 39
0100
0010
0001
0010
0100
1000
0100
0010
,  // measure 40
0200
0000
0000
1000
2000
0000
3300
0000
,  // measure 41
1000
0000
0000
0001
0100
0000
0010
0000
1000
0000
0000
0000
0011
0000
0000
0000
,  // measure 42
0100
0000
0000
0100
0010
0000
0001
0000
1000
0000
0000
0000
1001
0000
0000
0000
,  // measure 43
0001
0100
1000
0100
0001
0010
1000
0010
,  // measure 44
0001
1000
0020
0030
,  // measure 45
0001
1000
0001
1000
0010
1000
0010
1000
0010
0100
0010
0100
0010
1000
0001
0010
,  // measure 46
0100
1000
0001
1000
0010
0100
0001
0010
0001
0010
0100
1000
0001
0000
0000
0000
,  // measure 47
0001
0010
0100
0010
0001
0100
0010
1000
,  // measure 48
0002
0000
0000
0010
0020
0000
0000
0033
,  // measure 49
0001
0010
0100
0010
0000
0000
0000
0000
0100
1000
0010
0100
0000
0010
1000
0010
,  // measure 50
0001
0010
0100
0010
0000
0000
0000
0000
0100
0010
0100
0001
0000
1000
0001
0000
,  // measure 51
0001
1000
0010
0100
,  // measure 52
0001
0010
0100
1000
,  // measure 53
2002
3003
0220
0000
,  // measure 54
0330
0000
2002
0000
,  // measure 55
0000
0000
0000
0000
,  // measure 56
0000
0000
3003
1001
,  // measure 57
0000
0001
0100
0001
0010
0100
0010
0001
,  // measure 58
1000
0100
1000
0010
0100
0010
1000
0000
,  // measure 59
0000
0000
0010
0000
0100
0000
0010
0000
1000
0000
0001
0000
0010
0000
0100
0010
,  // measure 60
0100
1000
0001
0000
1000
0000
0101
0000
,  // measure 61
0000
0001
0100
1000
0100
1000
0000
1000
,  // measure 62
0010
0001
0010
0100
0010
1000
0001
0010
,  // measure 63
0001
1000
0001
0100
0001
0010
0110
0000
,  // measure 64
0011
0000
1010
0010
0100
0010
0001
0000
,  // measure 65
0000
0001
0010
1000
0100
0010
0001
1000
,  // measure 66
0001
0010
0001
1000
0100
1000
0010
0000
,  // measure 67
0000
0100
0010
1000
0001
0010
0100
1000
,  // measure 68
0001
1000
0001
0000
0100
0000
0101
0000
,  // measure 69
0000
0001
0100
0010
0100
0100
0010
0100
,  // measure 70
0010
1000
0001
0010
0100
0010
0102
0000
,  // measure 71
0013
2100
3010
0000
,  // measure 72
0001
1000
0010
1000
0000
0010
0100
0001
,  // measure 73
0010
1000
0010
0001
0000
0001
0100
0001
,  // measure 74
0010
0100
1000
0100
0000
0100
1000
0010
,  // measure 75
0100
0000
0010
0010
0000
0100
0100
0000
,  // measure 76
0010
1000
0001
0010
0000
0100
0010
0001
,  // measure 77
1000
0001
0100
0001
0000
0001
0010
0100
,  // measure 78
1000
0100
1000
0010
0000
0100
0010
1000
,  // measure 79
0001
1000
0001
1000
0001
1000
0001
1000
0100
0000
0010
0000
0001
0000
0010
0000
,  // measure 80
0100
0010
0001
0100
0000
0100
0010
1000
,  // measure 81
0001
0010
0100
1000
0000
0100
1000
0100
,  // measure 82
0010
0001
0010
0001
0000
0001
1000
0001
,  // measure 83
0100
0001
0010
0100
1000
0100
1000
0100
,  // measure 84
0010
0001
0100
1000
0100
0010
1000
0001
,  // measure 85
0010
1000
0010
0001
1000
0001
0100
0001
,  // measure 86
0010
0100
0000
1000
0001
0000
0001
0100
0000
0010
1000
0000
0100
0000
0010
0000
,  // measure 87
0001
0000
0010
0000
0100
0000
1000
0010
0000
0000
0000
0000
0202
0000
0000
0000
,  // measure 88
0000
0000
0000
0000
,  // measure 89
0303
0000
0000
0000
;

//---------------dance-single - ----------------
#NOTES:
     dance-single:
     :
     Medium:
     7:
     0.441,0.578,0.227,0.094,0.024:
0000
0000
0000
0000
,
0000
0000
0000
0000
,
0000
0000
0000
0000
,
0000
0000
0000
0000
,
0000
0000
0000
0000
,
0000
0000
0000
0000
,
0000
0000
0000
0000
,
0000
0000
0000
0001
,
2200
0000
3300
1000
0010
0000
0100
0000
,
0001
1000
0100
1000
0010
0000
0100
0000
,
0001
0000
0000
1000
0010
0000
0100
0000
,
0010
0000
1000
0001
0010
0000
0100
0000
,
1001
0000
0101
0000
,
1010
0000
1100
0000
,
1001
0101
0011
0110
,
1100
0000
0110
0000
1001
0001
0100
0000
,
0010
0000
1000
0010
0000
0100
0001
0000
,
0010
0000
0100
1000
0000
1000
0010
0000
,
0100
0000
0001
1000
0000
1000
0100
0000
,
1000
0000
0010
0000
0100
0010
0100
0000
,
0010
0000
1000
0010
0000
0100
0010
0000
,
0100
0000
0001
0010
0000
0010
0100
0000
,
0100
0000
1000
0100
0000
0100
1000
0000
,
1000
0001
1000
0001
1000
0000
0001
0000
,
0100
0000
0010
1000
0000
0100
0001
0000
,
0010
0000
0100
1000
0000
1000
0100
0000
,
1000
0000
0010
0100
0000
0001
0010
0000
,
0100
0000
1000
0000
0100
1000
0010
0000
,
0100
0000
0001
0010
0000
0100
1000
0000
,
0001
0000
0100
0010
0000
1000
0100
0000
,
1000
0000
0000
0001
0000
0000
0010
0000
0000
0001
0000
0000
0100
0000
0010
0000
,
1000
0000
0001
0000
0010
0000
0100
1000
0000
0000
0000
0000
0000
0000
0000
0000
,
1000
0000
0001
0100
0001
0000
0000
0000
,
0100
0000
0010
1000
0010
0000
0000
0000
,
0100
0000
0010
0000
1000
0000
0001
0010
,
0100
0010
0001
0000
,
1000
0001
0100
0000
0010
0000
0000
0000
,
0100
0010
1000
0000
0100
0000
0000
0000
,
1000
0100
0010
0001
0010
0100
1000
0100
,
1000
0000
0000
0100
0100
0000
0000
0000
,
1000
0000
0010
0100
0001
0000
1001
0000
,
0001
0000
0100
0010
1000
0000
1010
0000
,
0010
0000
1000
0000
0001
0000
0001
0010
,
0100
1000
0100
0000
,
1000
0010
0100
0001
1000
0010
0001
0010
,
0100
0010
0001
0010
0100
1000
0100
0000
,
1000
0010
0100
0001
,
0020
0000
0000
0100
0200
0000
0330
0000
,
0010
0000
0001
0000
,
1000
0000
0010
0000
,
0100
0010
0000
0100
0000
0010
0000
1000
,
0000
0001
0000
0010
0000
0001
0000
0100
,
0202
0303
2020
0000
,
3030
0000
2002
0000
,
0000
0000
0000
0000
,
0000
0000
3003
0001
,
0000
0100
0001
0000
0010
0000
0100
1000
,
0100
1000
0100
0000
1000
0000
0010
0000
,
0000
0100
0010
0000
1000
0000
0001
1000
,
0001
0100
0001
0000
0010
0000
0110
0000
,
0000
0100
1000
0000
0010
0000
0000
0100
,
0010
1000
0001
0000
0010
0000
1100
0000
,
0010
0011
0100
0011
,
1010
0000
0011
0000
0001
0100
0010
0000
,
0000
0100
0010
1000
0001
0010
0200
0000
,
0000
0300
0010
0011
,
0000
0001
0010
0100
0010
0001
0020
0000
,
0000
0030
0001
0101
,
0000
1001
0000
0001
,
1000
0100
1000
1010
,
0010
0110
0010
0000
,
0001
0000
0001
0100
0000
0100
0010
0000
,
0100
0000
0010
1000
0000
0010
0100
0000
,
0010
0000
1000
0001
0000
0010
0100
0000
,
1000
0100
0010
0001
,
0100
0000
0010
0001
0000
0001
0100
0000
,
0100
0000
0010
0100
0000
0010
1000
0000
,
0010
0000
0100
0010
0000
1000
0001
0000
,
1000
0001
1000
0001
1000
0001
0001
0001
,
0100
0000
0001
0100
0000
0100
0010
0000
,
0100
0000
0010
1000
0000
0010
0100
0000
,
0100
0000
0010
1000
0000
0001
0010
0000
,
0001
0010
0100
1000
,
0100
0000
1000
0010
0000
0100
0010
0000
,
0001
0000
0010
0100
0000
1000
0100
0000
,
0010
0000
0000
0001
0000
0000
0100
0000
0000
0010
0000
0000
1000
0000
0001
0000
,
1000
0000
0010
0000
1000
0000
0010
0100
0000
0000
0000
0000
1001
0000
0000
0000
;

//---------------dance-single - ----------------
#NOTES:
     dance-single:
     :
     Easy:
     5:
     0.340,0.578,0.204,0.063,0.000:
0000
0000
0000
0000
,
0000
0000
0000
0000
,
0000
0000
0000
0000
,
0000
0000
0000
0000
,
0000
0000
0000
0000
,
0000
0000
0000
0000
,
0000
0000
0000
0000
,
0000
0000
0000
0010
,
0100
0000
0010
1000
,
0001
0010
0100
0010
,
0001
0000
1000
1000
,
0010
0000
0000
0100
,
0110
0000
1001
0000
,
0101
0000
0011
0000
,
0001
0100
0001
0010
,
0100
0100
0100
0000
,
0010
0001
0010
0001
,
0100
0010
0100
0010
,
1000
0100
1000
0100
,
1000
0010
0100
0001
,
0010
0100
0010
0100
,
1000
0100
1000
0100
,
1000
0010
1000
0010
,
2020
0000
3030
0000
,
0010
0100
0010
1000
,
0001
0010
1000
0010
,
0001
0100
0010
1000
,
0010
0010
0100
0100
,
0001
1000
0100
1000
,
0010
0010
0100
0001
,
0101
1100
0101
1100
,
0001
0100
0010
1000
0100
0000
0000
0000
,
1000
0010
0100
0000
,
0010
1000
0001
0000
,
1000
0010
0100
0010
,
1000
1000
0001
0000
,
1000
0001
0010
0000
,
0001
0001
0100
0000
,
0010
1000
0001
0010
,
0200
0000
0310
0000
,
0100
1000
0010
0110
,
0010
1000
0001
0110
,
0010
0001
1000
0010
,
0100
0100
0100
0000
,
0110
0110
0110
0110
,
0110
0110
0110
0110
,
0010
1000
0001
0010
,
0200
0000
2000
3300
,
1000
0000
0001
0000
,
0100
0000
0001
0000
,
0010
0000
0001
0000
,
0100
0000
0010
0000
,
0020
0030
0200
0000
,
0300
0000
0020
0000
,
0000
0000
0000
0000
,
0000
0000
0030
0100
,
0000
0010
1000
0001
,
0010
0010
0001
0010
,
0000
0100
1000
0010
,
0100
0001
1000
0001
,
0000
1000
0010
0000
,
0100
0001
0010
1000
,
1000
0010
0010
0011
,
1100
1001
0001
0100
,
0000
0010
1000
0010
,
0100
0001
0010
0100
,
0000
0010
0001
1000
,
1000
0001
0100
0010
,
0000
0100
0001
1000
,
1000
0001
0100
0010
,
1000
0001
0010
0000
,
0100
1000
0100
1000
,
0100
0010
0100
0010
,
0001
0010
0001
0010
,
0001
0100
0010
1000
,
0100
0010
0100
0010
,
1000
0100
1000
0100
,
1000
0010
1000
0010
,
0100
0100
0100
0100
,
0010
1000
0001
0010
,
0100
0010
0001
1000
,
0010
0001
0010
0100
,
0010
1000
0010
0001
,
0010
0100
1000
0100
,
0001
0010
0100
1000
,
1100
0001
0101
1010
,
1000
1000
0001
0001
0100
0000
1001
0000
;

//---------------dance-single - ----------------
#NOTES:
     dance-single:
     :
     Beginner:
     3:
     0.156,0.374,0.141,0.000,0.000:
0000
0000
0000
0000
,
0000
0000
0000
0000
,
0000
0000
0000
0000
,
0000
0000
0000
0000
,
0000
0000
0000
0000
,
0000
0000
0000
0000
,
0000
0000
0000
0000
,
0000
0000
0000
0000
,
0010
0000
0000
0000
,
1000
1000
1000
0000
,
0001
0000
0000
0000
,
0010
0010
0010
0000
,
0001
0000
0000
0000
,
1000
0000
0000
0000
,
0010
0000
0010
0000
,
0010
0000
0000
0000
,
0100
0000
0000
0000
,
0001
0000
0000
0000
,
1000
0000
0000
0000
,
0100
0000
0100
0000
,
0100
0000
0000
0000
,
1000
0000
0000
0000
,
0001
0000
0000
0000
,
0110
0000
1001
0000
,
0110
0000
0000
0000
,
0010
0000
0000
0000
,
0100
0000
0000
0000
,
0001
0000
1000
0000
,
0010
0000
0000
0000
,
0100
0000
0000
0000
,
0001
0001
1000
1000
,
0001
1000
0001
0000
,
0100
0000
0000
0000
,
0010
0000
0000
0000
,
1000
0000
1000
0000
,
0001
0001
0001
0000
,
0100
0000
0000
0000
,
0010
0000
0000
0000
,
0100
0000
0010
0000
,
1000
0000
0000
0000
,
0001
0000
0000
0000
,
1000
0000
0000
0000
,
0100
0000
0100
0000
,
0010
0010
0010
0000
,
1001
0000
1001
0000
,
1001
1001
1001
0000
,
0010
0000
0100
0000
,
0010
0000
0010
0000
,
0100
0000
0000
0000
,
0000
0000
0000
0000
,
0001
0000
0000
0000
,
1000
0000
0000
0000
,
0010
0000
0010
0000
,
0000
0000
0010
0000
,
0000
0000
0000
0000
,
0000
0000
0000
0100
,
0000
0010
0010
0010
,
0000
0000
0000
1000
,
0000
0001
0001
0001
,
0000
0000
0000
1000
,
0000
0010
0000
0000
,
0100
0000
0000
0010
,
0000
0010
0000
0100
,
0100
0100
0000
1001
,
0000
0001
0001
0001
,
0000
0000
0000
1000
,
0000
0010
0010
0010
,
0000
0000
0000
0100
,
0000
0000
0000
0010
,
0000
0000
0000
1000
,
0000
1000
0000
0000
,
0001
0000
0000
0000
,
0100
0000
0000
0000
,
0010
0000
0000
0000
,
0110
0000
0000
0000
,
0100
0000
0000
0000
,
0001
0000
0000
0000
,
1000
0000
0000
0000
,
1001
0000
0000
0000
,
0001
0000
0000
0000
,
0100
0000
0000
0000
,
0010
0000
0000
0000
,
0110
0000
0000
0000
,
0010
0000
0000
0000
,
1000
0000
0000
0000
,
1001
0010
1001
0010
,
1001
0110
1001
1001
;
