#TITLE:Chimera;
#SUBTITLE:;
#ARTIST:Yahpp;
#TITLETRANSLIT:;
#SUBTITLETRANSLIT:;
#ARTISTTRANSLIT:;
#CREDIT:;
#BANNER:Chimera-banner.png;
#BACKGROUND:Chimera-bg.png;
#LYRICSPATH:;
#CDTITLE:;
#MUSIC:Chimera.ogg;
#OFFSET:-0.040;
#SAMPLESTART:14.853;
#SAMPLELENGTH:18.000;
#SELECTABLE:YES;
#BPMS:0.000=210.000;
#STOPS:;
#BGCHANGES:-10000.000=songbackground=1.000=0=0=1,
4.000=Chimera.avi=1.000=1=0=0,
372.000=Chimera-bg.png=1.000=0=0=1,
99999=-nosongbg-=1.000=0=0=0 // don't automatically add -songbackground-
;

//---------------dance-single - ----------------
#NOTES:
     dance-single:
     :
     Hard:
     9:
     0.724,0.745,0.218,0.300,0.000:
0000
0000
0000
0000
,
0000
0000
0000
0000
,
0000
0000
0000
0000
,
0000
0000
0000
0000
,
0000
0000
0000
0000
,
0001
0100
1000
0000
1000
0100
0010
0000
,
0010
1000
0001
0000
0010
0100
0001
0010
,
0100
1000
0010
0000
0100
1000
0100
0000
,
0001
0010
1000
0000
1000
0100
0010
0100
,
1000
0000
1000
0100
0001
0000
0001
0010
,
0100
1000
0100
0001
,
0010
0100
1000
0000
1000
0100
0001
0000
,
0001
0100
0010
1000
0100
0001
0100
0010
,
0001
0100
0010
1000
,
1001
0000
0001
0000
0010
0000
0100
0010
,
0001
0100
1000
0100
0001
0100
1000
0100
,
0010
1000
0010
1000
0001
0010
0100
0010
,
0001
0100
1000
0100
0001
0100
0010
0001
,
0100
0000
0010
0000
1000
0001
1000
0001
,
1001
0000
0000
0000
,
0001
0000
0100
0010
1000
0000
1000
0100
,
0010
0000
0010
0001
0010
0000
0001
0010
,
0100
0010
0100
0010
0100
0010
0100
0010
,
0001
0000
0001
0100
1000
0000
1000
0100
,
0001
0010
0100
0010
0001
1000
0001
0010
,
0100
0000
0010
0001
1000
0000
1000
0010
,
0001
0010
0100
0010
1000
0001
0010
0000
,
0100
1000
0100
0001
0100
1000
0010
0100
,
0002
0000
0000
0000
0000
0000
0013
0010
,
0001
0100
1000
0100
0010
1000
0001
0010
,
0200
0000
0000
0000
0000
0000
0310
0001
,
1000
0001
0100
0010
1000
0100
0010
0100
,
1000
0001
1000
0100
0001
0010
1000
0100
,
1000
0001
1000
0100
0001
0010
1000
0100
,
0010
0001
0100
1000
,
0100
0000
0010
0000
1000
0001
1000
0001
,
0100
0000
0010
0000
1000
0000
1000
0100
,
0220
0000
0000
0000
0000
0330
0010
0001
,
0100
1000
0100
0010
1000
0001
0010
1000
,
0010
0000
0010
0000
0010
0000
0010
0001
,
0100
0010
1000
0100
0010
0100
1000
0001
,
0100
0000
0100
0000
0100
0000
0100
0010
,
1000
0001
0010
1000
0010
0001
0100
0001
,
1000
0001
1000
0100
0001
0010
1000
0100
,
1000
0001
1000
0100
0001
0010
1000
0100
,
0220
0330
0022
0033
,
0202
0303
2020
3030
,
2002
3003
0202
0303
,
0120
0100
0100
0100
,
0130
0001
0100
1000
0100
0001
0100
0010
,
0001
0010
0100
0010
1000
0001
0010
1000
,
0100
0001
0100
1000
0010
0100
0001
0010
,
0100
0101
1100
0101
,
1001
0000
0100
0010
,
1000
0100
0010
0100
1000
0010
0100
0001
,
0010
0000
0100
1000
,
0010
0100
0001
0010
0100
0010
0001
1000
,
0001
0010
0001
0010
0100
1000
0010
0100
,
0001
0010
1000
0010
0001
0100
1000
0100
,
0010
0100
1000
0100
0010
0000
1000
0000
,
0100
0100
0010
0000
0010
0010
0001
0000
,
0001
0001
0100
1000
0100
0010
1000
0000
,
1000
0100
0001
0100
0010
0001
0010
1000
,
0010
0000
0100
0000
0100
0010
1000
0001
,
0010
0100
0010
0001
0100
1000
0100
0010
,
1000
0000
0001
0000
0001
0100
0001
0100
,
0010
0000
0000
0000
,
0100
0000
0010
0100
0010
0000
0001
1000
,
0001
0000
1000
0100
1000
0000
0010
0001
,
0010
0100
0010
0100
0010
0100
0010
0100
,
1000
0000
0010
1000
0100
0000
0100
0001
,
0010
0100
0010
0001
0100
1000
0100
0010
,
1000
0000
0001
1000
0010
0000
1000
0001
,
0010
0000
0010
0100
,
1000
0100
0001
0100
0010
0001
0010
1000
,
0010
0000
0000
0000
0000
0000
0010
0001
,
0100
1000
0100
0010
1000
0001
0010
1000
,
0010
0000
0000
0000
0000
0000
0010
0001
,
0100
1000
0100
0010
1000
0001
0010
0100
,
1000
0001
1000
0100
0001
0010
1000
0100
,
1000
0001
1000
0100
0001
0010
1000
0100
,
0220
0330
0022
0033
,
2200
3300
0220
0330
,
2002
3003
0220
0330
,
2002
0000
0000
0000
3003
0000
0100
0010
,
1000
0100
0010
0001
0010
0100
0010
0001
,
0001
0010
0100
1000
0100
0010
0100
1000
,
0100
0010
0100
1000
0001
0100
1000
0100
,
0110
0000
1001
0000
,
0022
0000
0000
0000
,
0000
0000
0000
0000
,
0033
0000
0000
0000
;

//---------------dance-single - ----------------
#NOTES:
     dance-single:
     :
     Medium:
     7:
     0.547,0.666,0.218,0.437,0.000:
0000
0000
0000
0000
,
0000
0000
0000
0000
,
0000
0000
0000
0000
,
0000
0000
0000
0000
,
0000
0000
0000
0000
,
1000
0000
0000
0010
1000
0000
0001
0000
,
0010
0100
0000
0000
,
0100
0000
0000
0000
0000
0000
0100
0010
,
0001
1000
0000
0000
,
0001
0000
0100
0000
,
0010
1000
0100
0000
,
0100
0010
0001
1000
,
0010
0001
0100
0010
,
1000
0001
0010
0100
,
0020
0000
0000
0000
,
0031
0100
0010
1000
0001
0010
0100
0010
,
0002
0000
2000
0000
0000
0000
3003
1000
,
0001
0010
0001
0100
0010
1000
0100
0010
,
0200
0020
0000
0000
,
0330
0010
0001
0100
,
0010
0000
1000
0010
1000
0000
0001
0100
,
0001
0000
0001
0010
0001
0000
0100
1000
,
0100
0010
0001
1000
,
0010
0000
0100
0001
0010
0000
0010
0100
,
2000
3100
1100
0000
,
1000
0000
0001
0100
0010
0000
0010
0100
,
0002
0013
1001
0000
,
0001
0100
0010
1000
0001
0100
0010
1000
,
0002
0000
0000
0010
,
0013
0100
1000
0001
0010
0100
1000
0001
,
0020
0000
0000
0000
0000
0000
0130
0010
,
0001
0000
0001
0100
0010
0000
1000
0001
,
0020
0001
0130
0110
,
0020
0100
0031
0011
,
0001
1000
0001
0000
0100
0010
0100
0000
,
0010
1000
0010
0000
1000
0001
1000
0001
,
0010
0000
0100
0000
1000
0000
1000
0001
,
0020
0000
0000
0100
,
0130
0010
0001
0010
0100
0010
0001
0100
,
0020
0000
0000
0100
,
0130
1000
0100
0010
1000
0001
0010
0100
,
2000
0000
0000
0000
0000
0000
3001
0100
,
0010
0000
0100
0010
1000
0000
0001
0010
,
0200
0010
1300
1100
,
2000
0100
3010
1010
,
0020
0000
0230
0000
,
0302
0000
2003
0000
,
3200
0000
0320
0000
,
0002
0000
0000
0000
0000
0033
0001
0100
,
0020
0000
0000
0100
0000
0000
0100
0000
,
0230
0000
0000
0010
0000
0000
0010
0000
,
0310
1000
0001
0010
,
0100
1100
0110
0011
,
0101
0000
0101
1010
,
0110
0000
0110
1001
,
0110
0000
0101
1010
,
1100
0000
1100
0110
,
0011
0000
0001
0000
0001
0010
0100
0000
,
0010
0100
0010
0000
0010
0100
1000
0000
,
0100
1000
0010
0100
0001
0000
1000
0000
,
0001
0100
0010
1000
,
0200
0000
0000
0000
,
1300
0100
0010
0001
0010
0100
0010
0001
,
0010
0000
0001
0000
0000
0000
0000
0001
,
0100
0001
0100
0001
0100
0001
0100
0001
,
0100
0020
0000
0000
,
0130
0000
0000
0000
,
0010
0000
1000
0001
1000
0000
0001
0100
,
0001
0000
0000
0100
0010
0000
0000
0010
,
2000
0000
0000
3010
,
0200
0000
0320
0000
,
2000
0000
3030
1000
,
0200
0000
0320
0000
,
0002
0000
0033
0001
,
0100
0000
0010
0000
1000
0010
0100
0001
,
0020
0000
0000
0130
,
1000
0000
0100
1000
0100
0001
0100
0010
,
0100
0000
0000
0000
0000
0000
0010
0001
,
0100
0001
0000
0100
0010
1000
0000
0001
,
0010
0000
0100
0000
1000
0100
1000
0000
,
0100
0000
0010
0000
0001
0010
0001
0000
,
0002
0103
0200
0310
,
0020
1030
2000
3001
,
0002
0013
0020
0130
,
0200
2300
3020
0230
,
0301
0100
1000
0100
0010
0000
0110
0000
,
0010
1000
0001
0010
0100
0000
1100
0000
,
1000
0100
0010
0100
1000
0010
0100
0001
,
0020
0000
0230
0000
,
0002
0000
0000
0000
,
0000
0000
0000
0000
,
0000
0000
0303
0000
;

//---------------dance-single - ----------------
#NOTES:
     dance-single:
     :
     Easy:
     5:
     0.377,0.419,0.155,0.346,0.000:
0000
0000
0000
0000
,
0000
0000
0000
0000
,
0000
0000
0000
0000
,
0000
0000
0000
0000
,
0000
0000
0000
0000
,
0010
0000
0100
0001
,
0010
0100
0000
0000
,
0010
0000
0000
0001
,
1000
0010
0000
0000
,
1000
0000
0100
0000
,
1000
0010
0100
0000
,
0010
1000
0001
0010
,
0100
0010
0010
0100
,
0010
0001
1000
0010
,
0200
0000
0000
0000
,
0310
1000
0010
1000
,
0200
0020
0000
0330
,
0010
0001
0010
0100
,
2000
0020
0000
0000
,
3030
0000
0000
0000
,
0020
0000
0130
0000
,
0200
0000
0310
0000
,
2002
0000
3003
0000
,
0001
0100
0010
1000
,
0100
0100
0100
0000
,
1000
0010
0100
0001
,
0010
0010
0010
0000
,
0100
1000
0001
0100
,
1000
0000
0000
1000
,
0010
0001
0010
0100
,
0010
0000
0000
0100
,
0100
0010
0010
1000
,
0001
0010
0100
1000
,
0001
0010
0100
1000
,
0001
0000
0100
0000
,
0010
0000
1000
0000
,
0001
0000
0000
0100
,
0202
0000
0303
0000
,
0001
0100
1000
0100
,
0020
0000
0030
0100
,
1000
0001
0010
1000
,
0020
0000
0030
0100
,
0010
0001
0100
0010
,
1000
1000
0001
0001
,
0100
0100
0010
0010
,
0200
0000
0302
0000
,
0023
0000
0032
0000
,
0203
0000
0320
0000
,
2000
0000
3030
0010
,
2000
0000
0000
0001
,
3002
0000
0000
0100
,
0103
0010
1000
0100
,
0010
0001
1000
0010
,
0110
0000
0010
0010
,
1001
0000
0010
0010
,
1001
0000
0100
0100
,
1001
0000
0100
0100
,
1001
0001
1000
0100
,
0010
0100
1000
0010
,
0100
0001
0010
0100
,
0010
0001
0100
0010
,
2000
0000
0000
0000
,
3001
1000
0100
1000
,
0010
0200
0000
0000
,
0310
1000
0001
0010
,
0100
2000
0000
0000
,
3100
0000
0000
0000
,
0100
0000
0010
0000
,
0001
0000
0100
0000
,
0020
0000
0000
0130
,
0020
0000
2030
0000
,
0002
0000
3003
0001
,
2000
0000
3002
0000
,
0200
0000
0303
0000
,
0001
0010
0100
0010
,
0002
0000
0000
1003
,
0010
0100
0100
0010
,
2000
0000
0000
3010
,
1000
0010
0100
0010
,
1000
0100
0010
0001
,
1000
0100
0010
0001
,
0011
0000
1100
0000
,
0101
0000
1010
0000
,
1001
0000
0110
0000
,
2002
0000
3003
0001
,
0100
0010
1000
0100
,
0010
0100
1000
0010
,
0100
0100
0010
0010
,
0110
0000
0101
0000
,
0022
0000
0000
0000
,
0000
0000
0000
0000
,
0000
0000
0000
0000
,
0033
0000
0000
0000
;

//---------------dance-single - ----------------
#NOTES:
     dance-single:
     :
     Beginner:
     2:
     0.178,0.283,0.073,0.000,0.000: // measure 1
0000
0000
0000
0000
,  // measure 2
0000
0000
0000
0000
,  // measure 3
0000
0000
0000
0000
,  // measure 4
0000
0000
0000
0000
,  // measure 5
0000
0000
0000
0000
,  // measure 6
0010
0000
0000
0000
,  // measure 7
1000
0000
0000
0000
,  // measure 8
0001
0000
0000
0000
,  // measure 9
1000
0000
0000
0000
,  // measure 10
0010
0000
0010
0000
,  // measure 11
0100
0100
0100
0000
,  // measure 12
0010
0000
1000
0000
,  // measure 13
0001
0000
0000
0000
,  // measure 14
1000
0000
1000
0000
,  // measure 15
1000
0000
0000
0000
,  // measure 16
0001
0000
0100
0000
,  // measure 17
0010
0000
0000
0000
,  // measure 18
0010
0000
0100
0000
,  // measure 19
0010
0000
0000
0000
,  // measure 20
0001
0000
0000
0000
,  // measure 21
1000
0000
0000
0000
,  // measure 22
0001
0000
0001
0000
,  // measure 23
0001
0000
0000
0000
,  // measure 24
0100
0000
0100
0000
,  // measure 25
0100
0000
0000
0000
,  // measure 26
0010
0000
0010
0000
,  // measure 27
0010
0000
0000
0000
,  // measure 28
1000
0000
1000
0000
,  // measure 29
0001
0000
0000
0000
,  // measure 30
0100
0000
0100
0000
,  // measure 31
0010
0000
0000
0000
,  // measure 32
1000
0000
1000
0000
,  // measure 33
0010
0000
0000
0000
,  // measure 34
0100
0000
0000
0000
,  // measure 35
0001
0000
1000
0000
,  // measure 36
0100
0000
0010
0000
,  // measure 37
0001
0000
0000
1000
,  // measure 38
1001
0000
0000
0000
,  // measure 39
0010
0000
0010
0000
,  // measure 40
0010
0000
0000
0000
,  // measure 41
0100
0000
0100
0000
,  // measure 42
0100
0000
0000
0000
,  // measure 43
0001
0000
1000
0000
,  // measure 44
0010
0000
0000
0000
,  // measure 45
0010
0000
0000
0000
,  // measure 46
0100
0000
0100
0000
,  // measure 47
0010
0000
0010
0000
,  // measure 48
1000
0000
1000
0000
,  // measure 49
0001
0000
0000
0000
,  // measure 50
1001
0000
0000
0000
,  // measure 51
0110
0000
0000
0000
,  // measure 52
0001
0000
0100
0000
,  // measure 53
0010
0000
0100
0000
,  // measure 54
0010
0000
1000
1000
,  // measure 55
1000
0000
0000
0000
,  // measure 56
0000
0000
0001
0001
,  // measure 57
0001
0000
0000
0000
,  // measure 58
0000
0000
0100
0000
,  // measure 59
0010
0000
1000
0000
,  // measure 60
0001
0000
1000
1000
,  // measure 61
1001
0000
0010
0000
,  // measure 62
0100
0000
0000
0000
,  // measure 63
0010
0000
0010
0000
,  // measure 64
0010
0000
0000
0000
,  // measure 65
0100
0000
0100
0000
,  // measure 66
0100
0000
0000
0000
,  // measure 67
0110
0000
0000
0000
,  // measure 68
0010
0000
0000
0000
,  // measure 69
0010
0000
0000
0000
,  // measure 70
1000
0000
0000
0000
,  // measure 71
0001
0000
0001
0000
,  // measure 72
0001
0000
0000
0000
,  // measure 73
1000
0000
1000
0000
,  // measure 74
1000
0000
0000
0000
,  // measure 75
0010
0000
0100
0000
,  // measure 76
0010
0000
0000
0000
,  // measure 77
1000
0000
0001
0000
,  // measure 78
0100
0000
0000
0000
,  // measure 79
0010
0000
1000
0000
,  // measure 80
0001
0000
0000
0000
,  // measure 81
0001
0000
0000
0000
,  // measure 82
0001
0000
0100
0000
,  // measure 83
0010
0000
1000
0000
,  // measure 84
0100
0000
0010
0000
,  // measure 85
0100
0000
0000
1000
,  // measure 86
1001
0000
0000
0000
,  // measure 87
0110
0000
0000
0000
,  // measure 88
0010
0000
0100
0000
,  // measure 89
0001
0000
1000
0000
,  // measure 90
1001
0000
0000
0000
;
