#TITLE:Chelsea Smile;
#SUBTITLE:;
#ARTIST:BRING ME THE HORIZON;
#TITLETRANSLIT:;
#SUBTITLETRANSLIT:;
#ARTISTTRANSLIT:;
#CREDIT:;
#BANNER:bn.png;
#BACKGROUND:bg.png;
#LYRICSPATH:;
#CDTITLE:;
#MUSIC:BRING ME THE HORIZON.mp3;
#OFFSET:-7.256;
#SAMPLESTART:48.020;
#SAMPLELENGTH:12.000;
#SELECTABLE:YES;
#BPMS:0.000=200.001;
#STOPS:296.000=2.100
;
#BGCHANGES:;

//---------------dance-single - ----------------
#NOTES:
     dance-single:
     :
     Hard:
     9:
     0.634,0.638,0.222,0.040,0.000:
0000
0000
0000
0000
,
0000
0000
0000
0000
,
1000
0010
1000
0100
0000
0100
0010
0001
,
0100
1000
0100
0000
0001
0100
1000
0001
,
0000
1000
0100
0001
0100
0010
0001
0010
,
0001
0100
1000
0100
0010
1000
0001
0010
,
0001
0001
0010
0001
0000
0001
0100
0010
,
1000
0010
0001
0000
0001
0010
0100
0010
,
1000
1000
1000
1000
,
2002
0000
0000
3003
,
0001
1000
0001
0100
0000
0100
0001
0010
,
0000
0010
0000
0010
0100
1000
0001
0000
,
0100
0001
1000
0100
0000
1000
0010
0100
,
0000
0100
0000
0100
0010
1000
0001
0010
,
0001
0100
1000
0100
0000
0010
1000
0001
,
0000
1000
0000
1000
0010
0001
0010
0100
,
0001
0010
0100
1000
0000
0100
1000
0010
,
0000
0010
0000
0010
1000
0010
0001
0010
,
0100
0001
0010
0100
0000
0100
1000
0100
,
0000
0100
0000
0100
0010
0001
0100
1000
,
0100
0010
1000
0001
0000
1000
0001
0010
,
0000
0010
0000
0010
0100
1000
0001
0100
,
0001
0010
0001
1000
0000
1000
0100
1000
,
0000
0100
0000
0100
1000
0010
0100
0001
,
0010
0100
1000
0100
0010
0100
1000
0010
,
0100
0001
0010
0100
1000
0001
1000
0001
,
1000
1000
1000
1000
,
0001
0001
0001
0001
,
0100
0100
0100
0100
,
0010
0010
0010
0010
,
0100
0100
0010
0010
,
1000
1000
0001
0001
,
1000
0100
0010
0001
,
0001
0010
0100
1000
,
0001
0100
0010
0000
0100
0010
1000
0000
,
0001
0010
0100
0000
0010
0001
1000
0001
,
0000
1001
0101
0011
,
0110
1100
1001
0101
,
0001
0100
0010
0000
0100
0010
1000
0000
,
1000
0100
0010
0000
0010
0100
1000
0001
,
0000
0000
0001
0100
0010
1000
0100
0001
,
0100
1000
0010
0001
0010
0100
1000
0001
,
0000
0001
0100
0000
0010
1000
0001
0000
,
0001
0010
0100
1000
0001
0010
0100
1000
,
0000
1001
0101
0011
,
0110
1100
1001
0101
,
0001
0010
0001
0000
0001
0100
0001
0000
,
0001
1000
0001
0000
1000
0100
0010
0001
,
1000
1000
0001
0100
0000
0100
0010
0100
,
0010
0000
1000
0000
1000
0001
1000
0100
,
0000
0010
0001
0010
0001
0000
0000
0000
,
0001
0001
0000
0000
1000
1000
0001
1000
,
0100
0010
0001
0010
0000
0001
0000
0100
,
0000
1000
0000
1000
0100
0000
0010
0000
,
0100
0010
1000
0001
0000
0010
0000
1000
,
0000
0010
0000
0010
0100
1000
0001
1000
,
0001
0100
0001
0010
0000
0100
0000
0010
,
0000
0001
0000
0001
0100
0010
0100
0001
,
1001
0101
0011
0110
,
0010
0100
0000
1100
0000
0000
0000
0000
,
1000
0010
1000
0100
0000
0010
0010
0001
,
0000
0001
0100
0000
1000
0001
0010
0000
,
0001
1000
0010
0100
0000
0010
1000
0100
,
0000
0100
0010
0000
0010
0001
1000
0000
,
0001
0100
0001
0010
0000
0010
0100
1000
,
0000
0100
0100
0000
1000
0100
0010
0000
,
0001
0100
1000
0100
,
0010
1000
0010
0100
,
1001
0001
1000
0010
0000
1000
0010
1000
,
0000
0100
0010
0000
0010
0001
1000
0001
,
0100
1000
0100
0010
0000
0010
1000
0001
,
0000
0010
0100
0000
1000
0100
1000
0000
,
0100
0010
0001
1000
0000
0001
0100
0010
,
0000
0100
0010
0000
0010
1000
0010
0001
,
0010
0000
2002
3003
0000
0000
0000
0000
;

//---------------dance-single - ----------------
#NOTES:
     dance-single:
     :
     Medium:
     7:
     0.483,0.488,0.101,0.101,0.000:
0000
0000
0000
0000
,
0000
0000
0000
0000
,
0010
0000
0100
0010
0000
0000
0010
0000
,
1000
0001
1000
0000
0001
1000
0001
1000
,
0000
0000
0001
0000
,
0001
0100
0010
0000
0100
0010
1000
0000
,
0001
0000
1000
0000
0001
0100
0001
0000
,
0001
0100
0010
0000
0010
1000
0010
0000
,
0100
0100
0100
0100
,
2002
0000
0000
3003
,
0001
1000
0100
1000
,
0010
0000
0100
0000
0010
0100
0010
0000
,
0100
0010
1000
0001
,
0010
0000
0100
0000
1000
0100
1000
0000
,
0100
1000
0010
0100
,
0001
0000
1000
0000
0001
1000
0001
0000
,
1000
0001
0100
1000
,
0100
0000
0010
0000
1000
0010
1000
0010
,
0100
0000
0010
0000
1000
0001
0010
0000
,
0100
0000
1000
0000
0100
1000
0010
0000
,
0100
0000
0001
0000
1000
0001
1000
0000
,
0001
0000
0100
0000
0001
0010
0001
0000
,
0001
0000
0100
0000
0010
1000
0010
0000
,
0100
0000
0010
0000
1000
0100
0010
0000
,
0100
1000
0010
0001
,
0010
0000
1000
0000
0010
0100
0001
0000
,
1000
1000
1000
1000
,
0001
0001
0001
0001
,
0100
0100
0100
0100
,
0010
0010
0010
0010
,
1000
0010
0001
0010
,
1000
0010
0001
0010
,
1000
0100
0001
0100
,
2000
0000
0000
3000
,
0000
0000
0001
0000
0100
0000
0010
1000
,
0000
0000
0001
0000
0010
0100
0000
1000
,
0000
1100
0101
0000
,
0001
0000
0100
0020
0000
0000
0030
0000
,
0000
0100
0010
1000
,
0010
0000
0100
0000
0010
0100
0000
1001
,
0000
0001
1000
0001
,
1000
0000
0001
0000
1000
0001
0100
0001
,
0000
0001
0100
0000
0010
1000
0000
0010
,
0000
0000
0100
0000
0010
1000
0000
0001
,
0000
1100
0101
0000
,
0001
0000
0100
0020
0000
0000
0030
0000
,
0000
0010
1000
0010
,
0100
0001
1000
0001
,
1001
0000
0001
0200
,
0000
0000
0310
0000
1000
0010
1000
1000
,
0000
0010
0100
0010
0100
0000
0000
0000
,
0010
0000
1000
0000
0001
1000
0001
1000
,
0001
0100
0001
0000
0100
0000
0010
0000
,
1000
0010
0100
0010
,
1000
0010
1000
0000
0010
0000
0100
0000
,
0001
0010
0100
0000
1000
0000
1100
0000
,
0000
0000
1000
0000
0001
1000
0001
0000
,
0100
0000
0001
0000
0100
0010
1000
0000
,
0010
0100
0001
1000
,
0001
0010
0000
2200
0000
0000
3300
0000
,
1000
0001
0100
0000
0001
0000
0100
0000
,
0010
0100
0010
0000
0100
0000
0010
0000
,
1000
0001
0100
0000
0001
0000
1000
0000
,
0001
1000
0010
0000
0010
0100
0010
0000
,
0100
0010
1000
0000
0001
0000
1000
0000
,
0100
1000
0100
0000
1000
0000
0100
0000
,
0010
0000
0001
0000
0010
0000
1000
0001
,
0000
0100
1000
0100
,
0010
0100
0010
0100
0000
0010
1000
0001
,
0000
1000
0001
0000
0100
0000
0010
0000
,
1000
0100
0010
0001
,
0010
0010
0001
0100
,
0010
0100
0010
0100
0000
0010
1000
0001
,
0000
0001
0010
0000
0001
0010
0100
1000
,
0000
2002
3003
0000
;

//---------------dance-single - ----------------
#NOTES:
     dance-single:
     :
     Easy:
     4:
     0.331,0.337,0.050,0.040,0.000:
0000
0000
0000
0000
,
0000
0000
0000
0000
,
1000
0000
0001
0000
,
0100
0001
0100
1000
,
0100
0000
0010
0000
,
0100
0010
1000
0001
,
0010
0000
0001
0000
,
1000
0100
1000
0010
,
0200
0000
0000
0000
,
0000
0000
0000
0300
,
0010
1000
0010
0100
,
0001
1000
0000
0000
,
1000
0100
1000
0010
,
0010
0100
0000
0000
,
0010
1000
0001
0010
,
0100
0010
0000
0010
,
0001
1000
0001
1000
,
0001
0100
0001
0100
,
1000
0100
0010
1000
,
0001
1000
0000
0000
,
0100
1000
0100
0010
,
0100
1000
0000
0000
,
0100
0010
0001
1000
,
0001
0100
0000
0000
,
0001
0100
0010
1000
,
0100
1000
0010
0100
,
0001
0001
0001
0001
,
1000
1000
1000
1000
,
0001
0001
0001
0001
,
1000
1000
1000
1000
,
0010
0010
0010
0010
,
0100
0100
0100
0100
,
0100
0010
1000
0001
,
0200
0000
0000
0300
,
0001
0100
1000
0100
,
0010
1000
0001
0010
,
0100
1000
1000
0000
,
0001
0001
0001
0000
,
0100
0001
0100
1000
,
0100
0010
1000
0001
,
1000
0000
0000
0000
,
0000
0000
0110
0000
,
0010
1000
0010
0001
,
0010
0100
0010
1000
,
0001
1000
1000
0000
,
0001
0001
0001
0000
,
0100
0010
1000
0100
,
0010
0001
0010
0100
,
2000
0000
3001
0100
,
0020
0000
0100
0000
,
0130
0000
0110
0000
,
1001
0000
0101
0000
,
0001
0000
0100
0000
,
0010
1000
0000
1000
,
0001
0000
0100
0000
,
0010
0100
0100
0010
,
1000
0000
0001
0000
,
0010
0010
0000
0000
,
0100
0100
0010
0010
,
0001
1000
0010
0000
,
1000
0001
0100
0000
,
0100
0000
0001
0000
,
0100
0010
1000
0001
,
0010
0100
0010
0001
,
1000
0000
0001
0000
,
0100
0010
1000
0000
,
0010
0100
0001
1000
,
0100
0010
0100
1000
,
0001
0000
1000
0000
,
0010
0100
0001
0000
,
0100
0000
0010
0000
,
0100
0100
0010
1000
,
0001
0000
1000
0000
,
0100
0000
0010
0001
,
0000
1001
0000
0000
;

//---------------dance-single - ----------------
#NOTES:
     dance-single:
     :
     Beginner:
     2:
     0.170,0.225,0.030,0.010,0.000: // measure 1
0000
0000
0000
0000
,  // measure 2
0000
0000
0000
0000
,  // measure 3
1000
0000
0000
0000
,  // measure 4
0001
0000
0001
0000
,  // measure 5
0100
0000
0001
0000
,  // measure 6
0100
0000
0100
0100
,  // measure 7
0010
0000
1000
0000
,  // measure 8
0001
0000
1000
1000
,  // measure 9
0001
0000
0000
0000
,  // measure 10
0000
0000
0000
0000
,  // measure 11
0010
0000
0000
0000
,  // measure 12
0000
0000
1000
0000
,  // measure 13
0001
0000
0000
0000
,  // measure 14
0000
0000
0100
0000
,  // measure 15
0001
0000
0000
0000
,  // measure 16
0000
0000
1000
0000
,  // measure 17
0100
0000
0100
0000
,  // measure 18
0010
0010
0010
0000
,  // measure 19
0100
0000
0000
0000
,  // measure 20
1000
0000
0000
0000
,  // measure 21
0001
0000
0000
0000
,  // measure 22
0100
0000
0000
0000
,  // measure 23
0001
0000
0000
0000
,  // measure 24
1000
0000
0000
0000
,  // measure 25
0100
0000
1000
0000
,  // measure 26
0010
0010
0010
0000
,  // measure 27
0100
0000
0010
0000
,  // measure 28
0100
0000
0010
0000
,  // measure 29
1000
0000
0001
0000
,  // measure 30
1000
0000
0001
0000
,  // measure 31
0100
0000
0010
0000
,  // measure 32
1000
0000
0001
0000
,  // measure 33
1000
0000
0001
0001
,  // measure 34
0002
0000
0000
0003
,  // measure 35
0100
0000
0000
0000
,  // measure 36
0010
0000
1000
0000
,  // measure 37
1000
0000
0001
0000
,  // measure 38
0100
0100
0100
0000
,  // measure 39
0010
0000
0000
0000
,  // measure 40
1000
0000
0000
0000
,  // measure 41
0001
0000
0001
0000
,  // measure 42
0001
0000
0001
0000
,  // measure 43
0100
0000
0000
0000
,  // measure 44
0001
0000
0000
0000
,  // measure 45
0100
0000
0010
0000
,  // measure 46
1000
1000
1000
0000
,  // measure 47
0010
0000
0000
0000
,  // measure 48
0100
0000
0000
0000
,  // measure 49
1001
0000
0001
0001
,  // measure 50
0001
0000
0000
0000
,  // measure 51
0000
0000
0000
0000
,  // measure 52
0000
0000
0000
0000
,  // measure 53
1000
0000
0000
0000
,  // measure 54
0010
0000
0000
0000
,  // measure 55
1000
0000
0000
0000
,  // measure 56
0100
0000
0000
0000
,  // measure 57
1000
0000
0000
0000
,  // measure 58
0001
0000
0000
0000
,  // measure 59
0100
0000
0100
0000
,  // measure 60
0100
0100
0100
0000
,  // measure 61
0001
0000
0000
0000
,  // measure 62
0100
0000
0000
0000
,  // measure 63
0001
0000
0000
0000
,  // measure 64
1000
0000
0000
0000
,  // measure 65
0100
0000
0000
0000
,  // measure 66
1000
0000
0000
0000
,  // measure 67
0010
0000
0100
0000
,  // measure 68
0001
0000
1000
0000
,  // measure 69
1001
0000
0000
0000
,  // measure 70
0001
0000
1000
0000
,  // measure 71
0010
0000
1000
0000
,  // measure 72
0010
0010
0100
0000
,  // measure 73
0010
0000
1000
0000
,  // measure 74
0100
0000
0010
0010
,  // measure 75
0000
1001
0000
0000
;
