#TITLE:Celtic Raindance;
#SUBTITLE:;
#ARTIST:Celtic;
#TITLETRANSLIT:;
#SUBTITLETRANSLIT:;
#ARTISTTRANSLIT:;
#CREDIT:;
#BANNER:bn.png;
#BACKGROUND:bg.png;
#LYRICSPATH:;
#CDTITLE:;
#MUSIC:Celtic Raindance.ogg;
#OFFSET:-7.687;
#SAMPLESTART:62.148;
#SAMPLELENGTH:11.340;
#SELECTABLE:YES;
#BPMS:0.000=123.000,96.000=126.000,192.000=136.000;
#STOPS:;
#BGCHANGES:;

//---------------dance-single - ----------------
#NOTES:
     dance-single:
     :
     Hard:
     10:
     0.704,0.697,0.190,0.000,0.574: // measure 1
1000
0000
0000
0000
0001
0000
0000
0000
0001
0000
0100
0001
0100
0000
0000
0000
,  // measure 2
0010
0000
0100
0010
0100
0000
0010
0000
1000
0000
0100
0000
0010
0000
0000
0000
,  // measure 3
0010
0100
0001
0100
1000
0100
0001
1000
,  // measure 4
0001
0000
0100
0010
1000
0000
0001
0000
1000
0100
0010
0001
0100
0000
0000
0000
,  // measure 5
0010
1000
0010
0000
0100
0000
0010
0000
1000
0001
0010
0100
1000
0000
0100
0000
,  // measure 6
1000
0000
0100
1000
0100
0000
0010
0001
0010
0000
0100
0000
1000
0000
0000
0000
,  // measure 7
0001
0000
0100
0000
0010
0000
1000
0000
0001
0000
0010
0001
0010
0000
0001
0000
,  // measure 8
0100
0000
0010
0100
0010
0000
0010
1000
0001
0010
0100
1000
0010
0000
0000
0000
,  // measure 9
1000
0000
0001
0100
0001
0000
1000
0000
0100
1000
0010
0100
0010
0000
0000
0000
,  // measure 10
0100
0000
0010
0100
0010
0000
1000
0001
1000
0000
0100
0000
0100
0000
0000
0000
,  // measure 11
1000
0000
0001
0000
0100
0000
0001
0000
0010
0001
0100
0010
1000
0000
0001
1000
,  // measure 12
0001
0000
1000
0001
1000
0000
0001
0100
0010
1000
0100
0010
0001
0000
0000
0000
,  // measure 13
0001
0100
0001
0000
0100
0000
0010
0000
1000
0000
0001
1000
0001
0000
0000
0000
,  // measure 14
1000
0000
0010
0100
0010
0000
0100
0001
0100
0000
0001
0000
0010
0000
0000
0000
,  // measure 15
0100
0000
1000
0000
0010
0000
0100
0000
0001
0000
1000
0001
1000
0000
0001
0000
,  // measure 16
0100
0010
1000
0100
0010
0010
0011
0000
,  // measure 17
0001
0100
0001
1000
0001
0010
0001
0100
0001
1000
0001
0010
0001
0000
0000
0000
,  // measure 18
1000
0010
1000
0001
1000
0100
1000
0010
1000
0001
1000
0100
1000
0000
0000
0000
,  // measure 19
0010
0001
0010
0100
0010
1000
0010
0001
0010
0100
0010
1000
0001
0000
0000
0000
,  // measure 20
0100
1000
0100
0010
0100
0001
0100
1000
0100
0010
0100
0001
0100
0000
0000
0000
,  // measure 21
0010
0000
0000
0000
0010
0000
0000
0000
0010
0001
1000
0010
1000
0000
0000
0000
,  // measure 22
0100
0000
1000
0100
1000
0000
0100
0010
0100
0000
0010
0000
0001
0000
0000
0000
,  // measure 23
0001
0000
0100
0000
0010
0000
1000
0000
0001
0010
0001
0100
0010
0000
0010
1000
,  // measure 24
0001
0000
0010
0001
0100
0000
0001
0100
0010
1000
0100
0010
0001
0000
0000
0000
,  // measure 25
0001
0100
0010
0100
0010
1000
0100
0010
,  // measure 26
0100
1000
0001
0010
0001
0100
1000
0100
,  // measure 27
0010
1000
0010
0100
0010
1000
0001
0010
,  // measure 28
0100
0100
0010
0010
0001
0001
1000
1000
,  // measure 29
1001
0000
0100
0000
0010
0000
1000
0000
0100
1000
0100
0000
0010
0000
0001
0000
,  // measure 30
0100
0001
0100
0000
0010
0000
1000
0000
0001
0000
0010
0000
0100
1000
0100
0000
,  // measure 31
1000
0010
0100
0001
1000
0100
0001
0100
,  // measure 32
1000
0000
0010
0000
0100
0000
0001
0000
0001
1000
0100
0010
0001
0000
0000
0000
,  // measure 33
0001
0100
0010
1001
1000
0100
0010
1100
,  // measure 34
1000
0000
0001
0000
0100
0000
0101
0000
0010
0000
1000
0000
0001
0000
1000
0001
,  // measure 35
0100
0010
1000
1100
1000
0100
0010
1100
,  // measure 36
1000
0000
0001
0000
0100
0000
0010
0000
0001
0100
0010
1000
0100
0000
0000
0000
,  // measure 37
1000
0001
1000
0001
1000
0001
1000
0000
0001
0100
0001
0100
0001
0100
0001
0000
,  // measure 38
0010
0001
0010
0001
0010
0001
0010
0000
0100
0000
1000
0000
0010
0000
0100
0000
,  // measure 39
0010
1000
0010
1000
0010
1000
0010
0000
0100
0010
0100
0010
0100
0010
0100
0000
,  // measure 40
0100
0001
0100
0001
0100
0001
0100
0000
0010
1000
0001
0010
0100
0000
0000
0000
,  // measure 41
1000
0011
1000
0110
0100
0101
1001
1100
,  // measure 42
1000
0110
0001
1100
0001
1001
1100
0011
,  // measure 43
0100
0101
0100
1001
0100
1010
1000
1100
,  // measure 44
1000
0000
0001
0000
0010
0000
0100
0000
1000
0010
0100
0001
1000
0000
0000
0000
,  // measure 45
0001
1000
0001
0010
0001
0100
0010
1000
0100
0010
0100
1000
0001
0010
0000
0000
,  // measure 46
0001
0100
0001
0010
0100
0010
0001
0100
0010
1000
0100
0010
0100
1000
0000
0000
,  // measure 47
1000
0001
0100
0001
1000
0100
1000
0001
0010
0001
1000
0010
1000
0100
0000
0000
,  // measure 48
1000
0001
0010
0001
0100
0000
0010
1000
0001
0010
0100
1000
0001
0000
0000
0000
,  // measure 49
1000
0100
0001
0100
1000
0010
0001
0010
,  // measure 50
1000
0000
0001
0010
0001
0000
0100
0001
0100
0000
0010
0000
1000
0000
0001
0000
,  // measure 51
0010
0001
0100
0010
1000
0100
1000
0010
,  // measure 52
0100
0001
0010
0100
0010
0001
0100
0000
,  // measure 53
0010
1000
0001
0001
0010
0100
0010
0010
,  // measure 54
0001
0100
0010
1000
0001
0010
0010
0001
,  // measure 55
0100
0000
0010
0100
0010
0000
1000
0001
1000
0000
0001
0010
0001
0000
0001
0100
,  // measure 56
0010
1000
0001
1000
0001
0010
0100
0010
0001
0000
0100
0000
1010
0000
0000
0000
;

//---------------dance-single - ----------------
#NOTES:
     dance-single:
     :
     Challenge:
     11:
     0.855,1.000,0.535,0.000,0.923: // measure 1
1000
0001
0100
0100
0001
1000
0010
0010
,  // measure 2
1000
0000
0001
1000
0001
0000
1000
0001
1000
0000
0010
0000
0010
0000
0100
0000
,  // measure 3
0010
0000
1000
0001
1000
0000
0100
0000
0010
0000
1000
0000
0001
0000
0010
0000
,  // measure 4
0100
0000
0010
0100
0010
0000
0100
0000
0010
0000
0001
0000
1000
0000
0001
0000
,  // measure 5
0001
0100
0010
1000
0001
0000
1000
0000
1001
0000
0000
0000
0010
0000
0100
0000
,  // measure 6
1001
0000
0000
0000
0000
0000
0001
0000
0000
0000
0000
0000
0010
0000
0000
0000
0000
0000
0100
0000
0000
0000
0000
0000
0010
0000
0001
0000
0010
0000
0100
0000
0000
0000
0000
0000
1000
0000
0000
0000
0000
0000
0100
0000
0000
1000
0000
0000
,  // measure 7
0001
0000
1000
0000
0001
0000
1000
0000
0000
0001
0000
0000
0100
0000
0000
0010
0000
0000
0100
0000
0000
0001
0000
0000
0010
0000
0000
0100
0000
0000
0010
0000
0000
0001
0000
0000
1000
0000
0000
0000
0000
0000
1001
0000
0000
0000
0000
0000
,  // measure 8
0001
0100
0001
0100
0001
0000
1000
0000
0001
0000
0000
0000
0100
0000
0000
0000
,  // measure 9
0010
0000
0000
1000
0010
0000
0101
0000
0000
0001
0001
0000
1001
0000
0000
0000
,  // measure 10
1000
0000
0000
0001
0100
0000
1010
0000
0000
0000
0101
0000
1010
0000
1000
0000
,  // measure 11
0001
0100
0001
1000
0100
1000
0001
1000
0010
1000
0001
1000
1001
0000
0010
0000
,  // measure 12
0100
1000
0100
0010
0100
0000
0001
0000
1010
0000
1000
0000
0100
1000
0010
0000
,  // measure 13
0100
0000
0000
0001
0000
0000
0100
0000
0000
0001
0000
0000
0010
0000
0000
0000
0000
0000
0100
0000
0000
0000
0000
0000
1000
0000
0100
0000
1000
0000
0000
0000
0000
0000
0000
0000
1000
0000
0010
0000
1000
0000
0000
0000
0000
0000
0000
0000
,  // measure 14
1000
0000
0010
0000
1000
0000
0000
0000
0000
0010
0000
0000
1000
0000
0000
0000
0000
0000
0101
0000
0000
0000
0000
0000
0100
0000
0000
0100
0000
0000
0010
0000
0000
1000
0000
0000
0100
0000
0000
0000
0000
0000
0000
0000
0000
0000
0000
0000
,  // measure 15
1000
0001
0010
0001
1000
0100
1000
0001
,  // measure 16
0100
0010
1000
0100
1000
0000
0001
0000
0010
0000
0010
0000
0100
0000
0000
0000
,  // measure 17
1000
0001
1000
0001
1000
0001
1000
0001
1000
0001
1000
0001
1000
0001
1000
0001
1000
0001
1000
0001
1000
0001
0000
0000
,  // measure 18
0100
0010
0100
0010
0100
0010
0100
0010
0100
0010
0100
0010
0100
0010
0100
0010
0100
0010
0100
0010
0100
0010
0000
0000
,  // measure 19
0010
0100
0010
0100
0010
0100
0010
0100
0010
0100
0010
0100
0010
0100
0010
0100
0010
0100
0010
0100
0010
0100
0000
0000
,  // measure 20
0001
1000
0100
1000
0100
0000
0011
0000
0001
0010
0100
1000
0100
0000
1001
0000
,  // measure 21
0001
1000
0001
0010
0001
0000
0100
0000
0010
0000
1000
0000
0001
0000
0010
0000
,  // measure 22
0100
0000
1000
0000
0001
0000
0100
0000
0001
0010
0100
0010
0001
0000
1000
0001
,  // measure 23
1001
0000
0100
0100
0010
1000
0001
0010
0001
1000
0001
0100
0001
0000
1000
0000
,  // measure 24
0001
0100
0010
1000
0001
0100
0010
1000
0001
0001
0010
0010
0110
0000
0000
0000
,  // measure 25
1000
1001
0001
1001
1000
1001
0001
1001
,  // measure 26
1000
1001
0001
1001
1000
1001
0001
1001
,  // measure 27
1000
1001
0001
1001
1000
1001
0001
1001
,  // measure 28
1000
1001
0001
1001
1000
1001
1001
0000
,  // measure 29
0001
0000
0100
0000
0010
0000
1010
0000
1000
0100
1000
0100
1000
0000
0011
0000
,  // measure 30
0001
1000
0100
1000
0001
0000
1001
0000
0010
0000
0100
0000
1000
0000
0001
0000
,  // measure 31
0100
0001
0100
0010
0100
0001
1000
0100
1000
0001
0100
0001
1000
0000
0001
0000
,  // measure 32
1000
0001
0010
0001
1000
0001
0100
0001
1000
1000
0001
0000
0001
0000
0011
0000
,  // measure 33
0010
0000
0100
0000
1000
0000
1001
0000
1000
0100
1000
0100
1000
0000
0011
0000
,  // measure 34
0001
0100
0001
0100
0001
0000
1000
0000
0100
0000
1100
0000
0100
0000
0110
0000
,  // measure 35
0010
0001
0010
0001
0100
0001
1000
0100
1000
0001
0100
0001
0010
0000
0100
0000
,  // measure 36
1000
0001
1000
0001
1000
0001
1000
0001
1000
0001
1000
0001
1000
0000
1001
0000
,  // measure 37
0001
0001
1000
0001
0100
0001
0010
0000
0100
0100
1000
0100
1000
0010
0100
0000
,  // measure 38
0010
0010
1000
0010
1000
0001
0010
0100
0010
0001
1000
0001
0100
0000
0001
0000
,  // measure 39
1000
1000
0001
0010
0001
1000
0100
0000
1000
1000
0001
0100
0001
0010
0100
0000
,  // measure 40
1000
0100
0010
0100
1000
0000
1001
0000
1000
0000
0100
0000
1100
0000
1000
0000
,  // measure 41
0001
0100
0101
1010
1000
0100
1100
0011
,  // measure 42
0001
1000
1001
0101
0001
0100
1010
1000
,  // measure 43
0001
1000
0001
1000
,  // measure 44
0001
0100
0010
1000
,  // measure 45
0001
0001
1000
1000
0001
0001
1000
1000
0001
1000
0001
0001
0001
1000
0000
0000
,  // measure 46
0001
0001
0001
1000
1000
0001
0001
1000
0001
1000
0001
1000
0001
1000
0000
0000
,  // measure 47
0001
0001
1000
0001
1000
0001
0001
0001
1000
1000
0001
0001
0001
1000
0000
0000
,  // measure 48
0001
0001
1000
0001
1000
0000
1000
0000
0001
0000
0100
0000
1010
0000
0010
0000
,  // measure 49
0000
0000
1100
0000
0000
0000
0011
0000
0001
0100
0010
1000
0100
0000
1100
0000
,  // measure 50
1000
0001
0010
0001
1000
0100
1000
0001
0100
0001
0010
0100
0010
0000
0001
1000
,  // measure 51
0100
0000
1000
0001
1000
0000
0001
0100
0001
0010
0001
0010
0001
0000
0001
0100
,  // measure 52
0010
0100
0010
1000
0100
1000
0001
0000
1000
0000
0110
0000
0110
0000
0010
0000
,  // measure 53
1000
0000
1001
0000
0000
0000
0101
0000
0001
0010
0001
0010
0100
0000
1100
0000
,  // measure 54
1000
0001
0010
0001
0101
0000
0001
0100
0010
1000
0100
1000
0001
0000
0001
0010
,  // measure 55
0001
0000
1000
0100
1000
0000
0001
0010
0001
1000
0001
0100
0001
1000
0100
1000
,  // measure 56
0010
1000
0001
0010
0001
0010
0100
1000
1100
0000
0110
0000
1001
0000
0000
0000
;
