#TITLE:Carry On;
#SUBTITLE:;
#ARTIST:Caramel Pod;
#TITLETRANSLIT:;
#SUBTITLETRANSLIT:;
#ARTISTTRANSLIT:;
#GENRE:J POP;
#CREDIT:;
#BANNER:bn.png;
#BACKGROUND:bg.png;
#LYRICSPATH:;
#CDTITLE:;
#MUSIC:Carry On.mp3;
#OFFSET:-0.153;
#SAMPLESTART:32.400;
#SAMPLELENGTH:12.000;
#SELECTABLE:YES;
#BPMS:0.000=130.000
;
#STOPS:68.000=1.385
,177.000=0.923
,187.000=0.462
,187.500=0.462
,188.000=1.846
;
#BGCHANGES:;
#KEYSOUNDS:;
#ATTACKS:;

//---------------dance-single - ----------------
#NOTES:
     dance-single:
     :
     Hard:
     7:
     0.319,0.379,0.139,0.271,0.004,236.000,18.000,35.000,0.000,0.000,0.000,0.319,0.379,0.139,0.271,0.004,236.000,18.000,35.000,0.000,0.000,0.000: // measure 0
0000
0000
0000
0000
,  // measure 1
2002
0000
0000
0000
,  // measure 2
0000
0000
0000
0000
,  // measure 3
3003
0000
0000
0000
0000
0000
0000
0200
,  // measure 4
0000
0000
0000
0000
,  // measure 5
0300
0000
0000
0000
,  // measure 6
0000
0000
0000
0000
,  // measure 7
0000
0000
0000
0000
,  // measure 8
0000
0000
1000
0010
,  // measure 9
2000
0000
0000
0000
0000
0010
0010
0000
,  // measure 10
0000
0000
0000
0000
0000
0100
0100
0000
,  // measure 11
0000
0000
0000
0000
0000
0010
0010
0000
,  // measure 12
0000
0000
0000
0000
0000
0100
0100
0000
,  // measure 13
0002
0000
0000
0000
,  // measure 14
0000
0000
0000
3003
,  // measure 15
0001
1000
0001
1000
,  // measure 16
0001
1000
0001
1000
0001
1000
0001
1000
,  // measure 17
0001
1020
0001
1000
,  // measure 18
0031
0210
1000
0001
,  // measure 19
1300
1020
0001
1000
,  // measure 20
0031
0000
0001
0010
0100
0010
1000
0000
,  // measure 21
0100
1000
0020
0000
1000
0000
0001
0000
,  // measure 22
1030
0210
1000
0001
,  // measure 23
1300
0120
0001
1000
,  // measure 24
0031
0102
0013
0120
,  // measure 25
1030
0220
0000
0000
,  // measure 26
0000
0000
0000
0000
,  // measure 27
0330
0000
0100
0010
0000
0010
0000
0010
,  // measure 28
0100
1000
0000
1000
0100
0001
0200
0000
,  // measure 29
1300
0010
0100
0000
0010
0000
1000
0000
,  // measure 30
0001
0010
1000
0010
,  // measure 31
0001
0100
0010
1000
,  // measure 32
0001
0020
0000
0000
,  // measure 33
0000
0000
0130
0000
1000
0000
0100
1000
,  // measure 34
0010
0100
0000
0010
1000
0001
0010
1000
,  // measure 35
0010
0000
0001
0000
0000
0000
0001
0000
0100
0000
0010
0000
1000
0000
0000
1000
,  // measure 36
0000
1000
0000
0001
1000
0100
1000
0010
,  // measure 37
0100
0010
0000
0000
0100
0001
1000
0100
,  // measure 38
0010
0100
0000
0100
1000
0001
0100
0001
,  // measure 39
0010
0200
0000
0000
0000
0000
0000
0000
,  // measure 40
0010
0020
0000
0000
0000
0000
0330
0000
,  // measure 41
0000
0110
1000
0001
,  // measure 42
0100
1000
0100
0001
,  // measure 43
0010
0100
1000
0001
,  // measure 44
0100
0000
0020
0000
1000
1000
1030
0001
,  // measure 45
0010
0000
0010
0100
1000
0000
1000
0100
,  // measure 46
0001
0000
0100
1000
0010
0000
1100
0101
,  // measure 47
1001
2001
0100
0001
,  // measure 48
3100
1002
0100
1000
,  // measure 49
0103
2001
0100
0001
,  // measure 50
3100
0000
1000
0100
0010
0001
0010
0000
,  // measure 51
0010
0100
2100
0000
0010
0000
0010
0000
,  // measure 52
3010
0102
0100
0100
,  // measure 53
0103
0020
1030
0200
,  // measure 54
0310
0000
0010
0001
0100
1000
0200
0000
,  // measure 55
0320
0000
1030
0000
0001
0000
0100
0010
,  // measure 56
1000
0000
0100
0000
1000
0000
0010
0100
,  // measure 57
0001
0100
0010
1000
,  // measure 58
0001
2000
0000
3001
0100
0010
2000
0000
,  // measure 59
3100
0010
0200
0000
0310
0000
0100
0010
,  // measure 60
0001
1000
0000
1000
0100
0010
0000
0010
,  // measure 61
0001
0100
0000
0000
0000
0000
0000
0000
,  // measure 62
0000
0010
0000
0010
0100
1000
0002
0000
,  // measure 63
0023
2000
0000
0000
,  // measure 64
0000
0000
0000
0000
,  // measure 65
0000
3030
0000
0000
;

//---------------dance-single - ----------------
#NOTES:
     dance-single:
     :
     Medium:
     5:
     0.196,0.328,0.046,0.108,0.000,157.000,6.000,14.000,0.000,0.000,0.000,0.196,0.328,0.046,0.108,0.000,157.000,6.000,14.000,0.000,0.000,0.000:
0000
0000
0000
0000
,
0000
0000
0000
0000
,
0000
0000
0000
0000
,
0000
0000
0000
0000
,
0000
0000
0000
0000
,
0000
0000
0000
0000
,
0000
0000
0000
0000
,
0000
0000
0000
0000
,
0000
0000
0000
0000
,
0000
0000
0000
0000
0000
0001
1000
0000
,
0000
0000
0000
0000
0000
0001
1000
0000
,
0000
0000
0000
0000
0000
0001
1000
0000
,
0000
0000
0000
0000
0000
0001
1000
0000
,
0010
0000
0100
0000
,
0001
0000
1000
0000
,
0100
1000
0010
0100
,
0001
0100
0001
0100
0001
0100
0001
0100
,
0001
0202
0000
0000
,
0000
0000
0000
0000
,
0000
0000
0303
0100
0000
0100
0000
0100
,
0010
0000
0000
1000
0010
0100
0001
0000
,
1000
0100
1000
0000
0100
0000
1000
0000
,
0010
0100
0100
0010
,
1000
0001
0010
0100
,
1000
0100
1000
0010
,
0010
0220
0000
0000
,
0000
0000
0000
0000
,
0330
0000
0000
0010
0000
0010
0000
0010
,
0000
0100
0000
0010
1000
0000
0001
0000
,
0010
0100
1000
0000
0100
0000
1000
0000
,
0010
0100
0001
1000
,
0001
0200
0000
0000
,
0000
0020
0000
0000
,
0030
0310
0000
0010
,
0000
1000
0000
0001
,
0000
0100
0000
0010
,
0000
1000
0100
0010
,
0100
1000
0000
0001
,
0000
0100
0000
0010
,
0000
2000
0000
3000
,
0000
0000
0000
0000
,
0000
1001
1000
0100
,
1000
0001
0100
0001
,
1000
0100
1000
0001
,
0100
0000
0000
0000
0010
0100
0010
0000
,
0100
0010
1000
0010
,
0100
0000
0001
0000
0100
0000
0010
1000
,
0001
2002
0000
0000
,
0000
0000
0000
0000
,
0000
0000
3003
1000
0000
1000
0000
1000
,
0000
1000
0000
0001
0100
0000
0010
0000
,
1000
0100
0010
0000
0100
0000
1000
0000
,
0001
0100
0010
1000
,
0010
0100
0001
1000
,
0100
1000
0010
0100
,
0010
0202
0000
0000
,
0000
0000
0000
0000
,
0303
0000
0000
0100
0000
0100
0000
0100
,
0010
0000
0000
1000
0010
0000
0100
0000
,
0010
1000
0200
0000
0000
0000
0000
0000
,
0000
0000
0000
1300
0000
0000
0000
0001
,
0000
0000
0000
0000
,
0000
0010
0000
0100
1000
0000
0010
0000
,
0100
0202
0000
0000
,
0000
0000
0000
0000
,
0000
0303
0000
0000
;

//---------------dance-single - ----------------
#NOTES:
     dance-single:
     :
     Easy:
     2:
     0.133,0.177,0.023,0.093,0.000,105.000,3.000,12.000,0.000,0.000,0.000,0.133,0.177,0.023,0.093,0.000,105.000,3.000,12.000,0.000,0.000,0.000:
0000
0000
0000
0000
,
0000
0000
0000
0000
,
0000
0000
0000
0000
,
0000
0000
0000
0000
,
0000
0000
0000
0000
,
0000
0000
0000
0000
,
0000
0000
0000
0000
,
0000
0000
0000
0000
,
0000
0000
0001
0001
,
0002
0000
0000
0000
,
0000
0000
0000
0000
,
0003
0000
0000
1000
,
0000
0000
0000
1000
,
0010
0000
0100
0000
,
0010
0000
1000
0000
,
0001
0001
0001
0001
,
1000
0001
0100
0010
,
0000
0020
0000
0000
,
0000
0000
0000
0000
,
0030
0100
0000
0010
,
0000
1000
0001
0100
,
0001
0010
0000
0100
,
0000
0010
0000
0001
,
0000
1000
0000
0010
,
0000
0100
0000
0010
,
1000
0200
0000
0000
,
0000
0000
0000
0000
,
0000
0310
0000
0000
,
0000
0100
1000
0010
,
0100
0001
0000
0000
,
0000
0001
0000
1000
,
0000
0010
0000
0100
,
0000
0001
0000
0000
,
0000
1001
0000
0001
,
0000
1000
0000
0010
,
0000
1000
0000
0010
,
0000
0100
0001
0010
,
0100
1000
0000
0001
,
0000
0100
0000
0001
,
0000
0020
0000
0000
,
0000
0130
0000
0000
,
0000
0010
0000
0001
,
0000
1000
0010
0100
,
0001
1000
0000
1000
,
0000
0000
0001
0101
,
0000
0100
0000
0010
,
1000
0001
0010
0200
,
0300
0200
0000
0000
,
0000
0000
0000
0000
,
0000
0310
0000
0010
,
0000
0010
0100
1000
,
0010
0200
0000
0000
,
0000
0010
0000
0010
,
0000
0020
0000
0000
,
0000
0330
0000
0010
,
1000
2002
0000
0000
,
0000
0000
0000
0000
,
3003
0000
0000
0000
,
0000
0001
0100
0001
,
0010
0100
0000
0100
,
0000
0100
0000
0100
,
0000
0200
0000
0000
,
0000
0310
0001
0100
,
1000
0200
0000
0000
,
0000
0000
0000
0000
,
0000
0300
0000
0000
;

//---------------dance-single - ----------------
#NOTES:
     dance-single:
     :
     Beginner:
     1:
     0.073,0.151,0.008,0.039,0.000,60.000,1.000,5.000,0.000,0.000,0.000,0.073,0.151,0.008,0.039,0.000,60.000,1.000,5.000,0.000,0.000,0.000:
0000
0000
0000
0000
,
0000
0000
0000
0000
,
0000
0000
0000
0000
,
0000
0000
0000
0000
,
0000
0000
0000
0000
,
0000
0000
0000
0000
,
0000
0000
0000
0000
,
0000
0000
0000
0000
,
0000
0000
0000
0000
,
0010
0000
0000
0000
,
0010
0000
0000
0000
,
0010
0000
0000
0000
,
0010
0000
0000
0000
,
0010
0000
0000
0000
,
0010
0000
0000
0000
,
0100
0000
0100
0000
,
0100
0100
0100
0100
,
0000
0200
0000
0000
,
0000
0000
0000
0000
,
0300
0000
0000
0000
,
0000
0010
0000
1000
,
0000
0001
0000
0000
,
0000
0000
0000
0000
,
1000
0000
0000
0000
,
0010
0000
0000
0100
,
0100
0200
0000
0000
,
0000
0000
0000
0000
,
0300
0000
0000
0000
,
0000
0010
0000
1000
,
0000
0001
0000
0000
,
0000
0000
0000
0000
,
0000
1000
0000
0000
,
0000
0001
0000
0000
,
0000
0100
0000
0000
,
0000
0010
0000
0000
,
0000
1000
0000
0000
,
0000
0001
0000
0010
,
0000
0001
0000
0000
,
0000
0100
0000
0000
,
0000
0010
0000
0000
,
0000
1000
0000
0000
,
0000
0001
0000
0000
,
0000
1000
0000
0000
,
0000
0010
0000
0000
,
0000
0000
0100
0100
,
0000
0010
0000
1000
,
0000
0001
0001
1001
,
0000
0020
0000
0000
,
0000
0000
0000
0000
,
0030
0000
0000
0000
,
0000
0100
0000
0010
,
0000
1000
0000
0000
,
0000
0000
0000
0000
,
0001
0000
0000
0000
,
0100
0000
0000
0010
,
0010
0020
0000
0000
,
0000
0000
0000
0000
,
0000
0030
0000
0000
,
0000
0100
0000
0010
,
0000
1000
0000
0000
,
0000
0000
0000
0000
,
0000
0000
0000
0000
,
0000
0001
0000
1000
,
0000
0020
0000
0000
,
0000
0000
0000
0000
,
0030
0000
0000
0000
;
